  0
SECTION
  2
HEADER
  9
$ACADVER
  1
AC1027
  9
$ACADMAINTVER
 70
     8
  9
$DWGCODEPAGE
  3
ANSI_932
  9
$REQUIREDVERSIONS
160
                 0
  9
$LASTSAVEDBY
  1
thuthumi
  9
$INSBASE
 10
0.0
 20
0.0
 30
0.0
  9
$EXTMIN
 10
-143.7407675805853
 20
-162.4936819826412
 30
0.0
  9
$EXTMAX
 10
1813.753106743439
 20
1172.457864376077
 30
0.0
  9
$LIMMIN
 10
0.0
 20
0.0
  9
$LIMMAX
 10
420.0
 20
297.0
  9
$ORTHOMODE
 70
     0
  9
$REGENMODE
 70
     1
  9
$FILLMODE
 70
     1
  9
$QTEXTMODE
 70
     0
  9
$MIRRTEXT
 70
     1
  9
$LTSCALE
 40
1.0
  9
$ATTMODE
 70
     1
  9
$TEXTSIZE
 40
15.0
  9
$TRACEWID
 40
1.0
  9
$TEXTSTYLE
  7
STANDARD
  9
$CLAYER
  8
寸法線
  9
$CELTYPE
  6
BYLAYER
  9
$CECOLOR
 62
   256
  9
$CELTSCALE
 40
1.0
  9
$DISPSILH
 70
     0
  9
$DIMSCALE
 40
0.0
  9
$DIMASZ
 40
11.0
  9
$DIMEXO
 40
0.625
  9
$DIMDLI
 40
6.0
  9
$DIMRND
 40
0.0
  9
$DIMDLE
 40
0.0
  9
$DIMEXE
 40
1.25
  9
$DIMTP
 40
0.0
  9
$DIMTM
 40
0.0
  9
$DIMTXT
 40
5.0
  9
$DIMCEN
 40
1.5
  9
$DIMTSZ
 40
0.0
  9
$DIMTOL
 70
     0
  9
$DIMLIM
 70
     0
  9
$DIMTIH
 70
     0
  9
$DIMTOH
 70
     0
  9
$DIMSE1
 70
     0
  9
$DIMSE2
 70
     0
  9
$DIMTAD
 70
     3
  9
$DIMZIN
 70
     8
  9
$DIMBLK
  1

  9
$DIMASO
 70
     1
  9
$DIMSHO
 70
     1
  9
$DIMPOST
  1

  9
$DIMAPOST
  1

  9
$DIMALT
 70
     0
  9
$DIMALTD
 70
     4
  9
$DIMALTF
 40
0.0394
  9
$DIMLFAC
 40
1.0
  9
$DIMTOFL
 70
     1
  9
$DIMTVP
 40
0.0
  9
$DIMTIX
 70
     0
  9
$DIMSOXD
 70
     0
  9
$DIMSAH
 70
     1
  9
$DIMBLK1
  1
OPEN
  9
$DIMBLK2
  1
OPEN
  9
$DIMSTYLE
  2
STANDARD
  9
$DIMCLRD
 70
     0
  9
$DIMCLRE
 70
     0
  9
$DIMCLRT
 70
     0
  9
$DIMTFAC
 40
1.0
  9
$DIMGAP
 40
1.0
  9
$DIMJUST
 70
     0
  9
$DIMSD1
 70
     0
  9
$DIMSD2
 70
     0
  9
$DIMTOLJ
 70
     1
  9
$DIMTZIN
 70
     8
  9
$DIMALTZ
 70
     0
  9
$DIMALTTZ
 70
     0
  9
$DIMUPT
 70
     0
  9
$DIMDEC
 70
     2
  9
$DIMTDEC
 70
     2
  9
$DIMALTU
 70
     8
  9
$DIMALTTD
 70
     4
  9
$DIMTXSTY
  7
STANDARD
  9
$DIMAUNIT
 70
     0
  9
$DIMADEC
 70
     0
  9
$DIMALTRND
 40
0.0
  9
$DIMAZIN
 70
     0
  9
$DIMDSEP
 70
    46
  9
$DIMATFIT
 70
     3
  9
$DIMFRAC
 70
     0
  9
$DIMLDRBLK
  1
OPEN
  9
$DIMLUNIT
 70
     6
  9
$DIMLWD
 70
    -2
  9
$DIMLWE
 70
    -2
  9
$DIMTMOVE
 70
     0
  9
$DIMFXL
 40
1.0
  9
$DIMFXLON
 70
     0
  9
$DIMJOGANG
 40
0.7853981633974483
  9
$DIMTFILL
 70
     0
  9
$DIMTFILLCLR
 70
     0
  9
$DIMARCSYM
 70
     0
  9
$DIMLTYPE
  6

  9
$DIMLTEX1
  6

  9
$DIMLTEX2
  6

  9
$DIMTXTDIRECTION
 70
     0
  9
$LUNITS
 70
     2
  9
$LUPREC
 70
     3
  9
$SKETCHINC
 40
1.0
  9
$FILLETRAD
 40
5.0
  9
$AUNITS
 70
     0
  9
$AUPREC
 70
     3
  9
$MENU
  1
acad
  9
$ELEVATION
 40
0.0
  9
$PELEVATION
 40
0.0
  9
$THICKNESS
 40
0.0
  9
$LIMCHECK
 70
     0
  9
$CHAMFERA
 40
10.0
  9
$CHAMFERB
 40
10.0
  9
$CHAMFERC
 40
20.0
  9
$CHAMFERD
 40
0.0
  9
$SKPOLY
 70
     0
  9
$TDCREATE
 40
2450926.747469792
  9
$TDUCREATE
 40
2450926.372469792
  9
$TDUPDATE
 40
2457472.741338495
  9
$TDUUPDATE
 40
2457472.366338495
  9
$TDINDWG
 40
0.2870499884
  9
$TDUSRTIMER
 40
2457472.365715174
  9
$USRTIMER
 70
     1
  9
$ANGBASE
 50
0.0
  9
$ANGDIR
 70
     0
  9
$PDMODE
 70
     0
  9
$PDSIZE
 40
0.0
  9
$PLINEWID
 40
0.0
  9
$SPLFRAME
 70
     0
  9
$SPLINETYPE
 70
     6
  9
$SPLINESEGS
 70
     8
  9
$HANDSEED
  5
716
  9
$SURFTAB1
 70
     6
  9
$SURFTAB2
 70
     6
  9
$SURFTYPE
 70
     6
  9
$SURFU
 70
     6
  9
$SURFV
 70
     6
  9
$UCSBASE
  2

  9
$UCSNAME
  2

  9
$UCSORG
 10
0.0
 20
0.0
 30
0.0
  9
$UCSXDIR
 10
1.0
 20
0.0
 30
0.0
  9
$UCSYDIR
 10
0.0
 20
1.0
 30
0.0
  9
$UCSORTHOREF
  2

  9
$UCSORTHOVIEW
 70
     0
  9
$UCSORGTOP
 10
0.0
 20
0.0
 30
0.0
  9
$UCSORGBOTTOM
 10
0.0
 20
0.0
 30
0.0
  9
$UCSORGLEFT
 10
0.0
 20
0.0
 30
0.0
  9
$UCSORGRIGHT
 10
0.0
 20
0.0
 30
0.0
  9
$UCSORGFRONT
 10
0.0
 20
0.0
 30
0.0
  9
$UCSORGBACK
 10
0.0
 20
0.0
 30
0.0
  9
$PUCSBASE
  2

  9
$PUCSNAME
  2

  9
$PUCSORG
 10
0.0
 20
0.0
 30
0.0
  9
$PUCSXDIR
 10
1.0
 20
0.0
 30
0.0
  9
$PUCSYDIR
 10
0.0
 20
1.0
 30
0.0
  9
$PUCSORTHOREF
  2

  9
$PUCSORTHOVIEW
 70
     0
  9
$PUCSORGTOP
 10
0.0
 20
0.0
 30
0.0
  9
$PUCSORGBOTTOM
 10
0.0
 20
0.0
 30
0.0
  9
$PUCSORGLEFT
 10
0.0
 20
0.0
 30
0.0
  9
$PUCSORGRIGHT
 10
0.0
 20
0.0
 30
0.0
  9
$PUCSORGFRONT
 10
0.0
 20
0.0
 30
0.0
  9
$PUCSORGBACK
 10
0.0
 20
0.0
 30
0.0
  9
$USERI1
 70
     0
  9
$USERI2
 70
     0
  9
$USERI3
 70
     0
  9
$USERI4
 70
     0
  9
$USERI5
 70
     0
  9
$USERR1
 40
0.0
  9
$USERR2
 40
0.0
  9
$USERR3
 40
0.0
  9
$USERR4
 40
0.0
  9
$USERR5
 40
0.0
  9
$WORLDVIEW
 70
     1
  9
$SHADEDGE
 70
     3
  9
$SHADEDIF
 70
    70
  9
$TILEMODE
 70
     1
  9
$MAXACTVP
 70
    48
  9
$PINSBASE
 10
0.0
 20
0.0
 30
0.0
  9
$PLIMCHECK
 70
     0
  9
$PEXTMIN
 10
40.59400132604134
 20
18.69452620725033
 30
0.0
  9
$PEXTMAX
 10
231.7940357602959
 20
155.7237514271277
 30
0.0
  9
$PLIMMIN
 10
-5.8
 20
-5.8
  9
$PLIMMAX
 10
1183.2
 20
835.2
  9
$UNITMODE
 70
     0
  9
$VISRETAIN
 70
     1
  9
$PLINEGEN
 70
     0
  9
$PSLTSCALE
 70
     1
  9
$TREEDEPTH
 70
  3020
  9
$CMLSTYLE
  2
STANDARD
  9
$CMLJUST
 70
     0
  9
$CMLSCALE
 40
20.0
  9
$PROXYGRAPHICS
 70
     1
  9
$MEASUREMENT
 70
     1
  9
$CELWEIGHT
370
    -1
  9
$ENDCAPS
280
     0
  9
$JOINSTYLE
280
     0
  9
$LWDISPLAY
290
     0
  9
$INSUNITS
 70
     0
  9
$HYPERLINKBASE
  1

  9
$STYLESHEET
  1
monochrome.ctb
  9
$XEDIT
290
     1
  9
$CEPSNTYPE
380
     0
  9
$PSTYLEMODE
290
     1
  9
$FINGERPRINTGUID
  2
{4DF8BC20-888D-11D4-97DC-AFDF1B97A630}
  9
$VERSIONGUID
  2
{FDCDD631-1A81-4C9D-A602-854B3FA4A15C}
  9
$EXTNAMES
290
     1
  9
$PSVPSCALE
 40
0.0
  9
$OLESTARTUP
290
     0
  9
$SORTENTS
280
   127
  9
$INDEXCTL
280
     0
  9
$HIDETEXT
280
     1
  9
$XCLIPFRAME
280
     0
  9
$HALOGAP
280
     0
  9
$OBSCOLOR
 70
   257
  9
$OBSLTYPE
280
     0
  9
$INTERSECTIONDISPLAY
280
     0
  9
$INTERSECTIONCOLOR
 70
   257
  9
$DIMASSOC
280
     2
  9
$PROJECTNAME
  1

  9
$CAMERADISPLAY
290
     0
  9
$LENSLENGTH
 40
50.0
  9
$CAMERAHEIGHT
 40
0.0
  9
$STEPSPERSEC
 40
2.0
  9
$STEPSIZE
 40
6.0
  9
$3DDWFPREC
 40
2.0
  9
$PSOLWIDTH
 40
0.25
  9
$PSOLHEIGHT
 40
4.0
  9
$LOFTANG1
 40
1.570796326794897
  9
$LOFTANG2
 40
1.570796326794897
  9
$LOFTMAG1
 40
0.0
  9
$LOFTMAG2
 40
0.0
  9
$LOFTPARAM
 70
     7
  9
$LOFTNORMALS
280
     1
  9
$LATITUDE
 40
37.795
  9
$LONGITUDE
 40
-122.394
  9
$NORTHDIRECTION
 40
0.0
  9
$TIMEZONE
 70
 -8000
  9
$LIGHTGLYPHDISPLAY
280
     1
  9
$TILEMODELIGHTSYNCH
280
     1
  9
$SOLIDHIST
280
     1
  9
$SHOWHIST
280
     1
  9
$DWFFRAME
280
     2
  9
$DGNFRAME
280
     2
  9
$REALWORLDSCALE
290
     1
  9
$INTERFERECOLOR
 62
   256
  9
$CSHADOW
280
     0
  9
$SHADOWPLANELOCATION
 40
0.0
  0
ENDSEC
  0
SECTION
  2
CLASSES
  0
CLASS
  1
ACDBDICTIONARYWDFLT
  2
AcDbDictionaryWithDefault
  3
ObjectDBX Classes
 90
        0
 91
        4
280
     0
281
     0
  0
CLASS
  1
ACDBPLACEHOLDER
  2
AcDbPlaceHolder
  3
ObjectDBX Classes
 90
        0
 91
        1
280
     0
281
     0
  0
CLASS
  1
LAYOUT
  2
AcDbLayout
  3
ObjectDBX Classes
 90
        0
 91
        1
280
     0
281
     0
  0
CLASS
  1
SCALE
  2
AcDbScale
  3
ObjectDBX Classes
 90
     1153
 91
        4
280
     0
281
     0
  0
CLASS
  1
MATERIAL
  2
AcDbMaterial
  3
ObjectDBX Classes
 90
     1153
 91
        4
280
     0
281
     0
  0
CLASS
  1
VISUALSTYLE
  2
AcDbVisualStyle
  3
ObjectDBX Classes
 90
     4095
 91
        4
280
     0
281
     0
  0
CLASS
  1
TABLESTYLE
  2
AcDbTableStyle
  3
ObjectDBX Classes
 90
     4095
 91
        4
280
     0
281
     0
  0
CLASS
  1
RASTERVARIABLES
  2
AcDbRasterVariables
  3
ISM
 90
        0
 91
        4
280
     0
281
     0
  0
CLASS
  1
DICTIONARYVAR
  2
AcDbDictionaryVar
  3
ObjectDBX Classes
 90
        0
 91
        4
280
     0
281
     0
  0
CLASS
  1
MLEADERSTYLE
  2
AcDbMLeaderStyle
  3
ACDB_MLEADERSTYLE_CLASS
 90
     4095
 91
        4
280
     0
281
     0
  0
CLASS
  1
SUN
  2
AcDbSun
  3
SCENEOE
 90
     1153
 91
        4
280
     0
281
     0
  0
CLASS
  1
CELLSTYLEMAP
  2
AcDbCellStyleMap
  3
ObjectDBX Classes
 90
     1152
 91
        4
280
     0
281
     0
  0
ENDSEC
  0
SECTION
  2
TABLES
  0
TABLE
  2
VPORT
  5
8
330
0
100
AcDbSymbolTable
 70
     1
  0
VPORT
  5
6A3
330
8
100
AcDbSymbolTableRecord
100
AcDbViewportTableRecord
  2
*Active
 70
     0
 10
0.0
 20
0.0
 11
1.0
 21
1.0
 12
600.0556371158086
 22
674.3127211959859
 13
0.0
 23
0.0
 14
10.0
 24
10.0
 15
10.0
 25
10.0
 16
0.0
 26
0.0
 36
1.0
 17
0.0
 27
0.0
 37
0.0
 40
1661.390704897666
 41
1.843253968253968
 42
50.0
 43
0.0
 44
0.0
 50
0.0
 51
0.0
 71
    16
 72
   100
 73
     1
 74
     1
 75
     0
 76
     0
 77
     0
 78
     0
281
     0
 65
     1
110
0.0
120
0.0
130
0.0
111
1.0
121
0.0
131
0.0
112
0.0
122
1.0
132
0.0
 79
     0
146
0.0
348
6CF
 60
     3
 61
     5
292
     1
282
     1
141
0.0
142
0.0
 63
   256
361
6EE
  0
ENDTAB
  0
TABLE
  2
LTYPE
  5
5
330
0
100
AcDbSymbolTable
 70
     4
  0
LTYPE
  5
12
330
5
100
AcDbSymbolTableRecord
100
AcDbLinetypeTableRecord
  2
BYBLOCK
 70
     0
  3

 72
    65
 73
     0
 40
0.0
  0
LTYPE
  5
13
330
5
100
AcDbSymbolTableRecord
100
AcDbLinetypeTableRecord
  2
BYLAYER
 70
     0
  3

 72
    65
 73
     0
 40
0.0
  0
LTYPE
  5
14
330
5
100
AcDbSymbolTableRecord
100
AcDbLinetypeTableRecord
  2
CONTINUOUS
 70
     0
  3
Solid line
 72
    65
 73
     0
 40
0.0
  0
LTYPE
  5
22
330
5
100
AcDbSymbolTableRecord
100
AcDbLinetypeTableRecord
  2
PHANTOM
 70
     0
  3
Phantom ______  __  __  ______  __  __  ______
 72
    65
 73
     6
 40
63.5
 49
31.75
 74
     0
 49
-6.35
 74
     0
 49
6.35
 74
     0
 49
-6.35
 74
     0
 49
6.35
 74
     0
 49
-6.35
 74
     0
  0
LTYPE
  5
23
330
5
100
AcDbSymbolTableRecord
100
AcDbLinetypeTableRecord
  2
CENTER
 70
     0
  3
Center ____ _ ____ _ ____ _ ____ _ ____ _ ____
 72
    65
 73
     4
 40
50.8
 49
31.75
 74
     0
 49
-6.35
 74
     0
 49
6.35
 74
     0
 49
-6.35
 74
     0
  0
LTYPE
  5
24
330
5
100
AcDbSymbolTableRecord
100
AcDbLinetypeTableRecord
  2
HIDDEN
 70
     0
  3
Hidden __ __ __ __ __ __ __ __ __ __ __ __ __ _
 72
    65
 73
     2
 40
9.524999999999999
 49
6.35
 74
     0
 49
-3.175
 74
     0
  0
ENDTAB
  0
TABLE
  2
LAYER
  5
2
330
0
100
AcDbSymbolTable
 70
    11
  0
LAYER
  5
E
330
2
100
AcDbSymbolTableRecord
100
AcDbLayerTableRecord
  2
0
 70
     0
 62
    -7
  6
CONTINUOUS
370
    -3
390
B7
347
6C9
348
0
  0
LAYER
  5
25
330
2
100
AcDbSymbolTableRecord
100
AcDbLayerTableRecord
  2
中心線
 70
     0
 62
    -1
  6
CENTER
370
    -3
390
B7
347
6C9
348
0
  0
LAYER
  5
26
330
2
100
AcDbSymbolTableRecord
100
AcDbLayerTableRecord
  2
寸法線
 70
     0
 62
     6
  6
CONTINUOUS
370
    -3
390
B7
347
6C9
348
0
  0
LAYER
  5
27
330
2
100
AcDbSymbolTableRecord
100
AcDbLayerTableRecord
  2
隠れ線
 70
     0
 62
    -2
  6
HIDDEN
370
    -3
390
B7
347
6C9
348
0
  0
LAYER
  5
28
330
2
100
AcDbSymbolTableRecord
100
AcDbLayerTableRecord
  2
実体線
 70
     0
 62
     3
  6
CONTINUOUS
370
    -3
390
B7
347
6C9
348
0
  0
LAYER
  5
29
330
2
100
AcDbSymbolTableRecord
100
AcDbLayerTableRecord
  2
想像線
 70
     0
 62
     5
  6
PHANTOM
370
    -3
390
B7
347
6C9
348
0
  0
LAYER
  5
2A
330
2
100
AcDbSymbolTableRecord
100
AcDbLayerTableRecord
  2
注釈文字
 70
     0
 62
     4
  6
CONTINUOUS
370
    -3
390
B7
347
6C9
348
0
  0
LAYER
  5
2B
330
2
100
AcDbSymbolTableRecord
100
AcDbLayerTableRecord
  2
ビューポート
 70
     0
 62
     7
  6
CONTINUOUS
370
    -3
390
B7
347
6C9
348
0
  0
LAYER
  5
5C
330
2
100
AcDbSymbolTableRecord
100
AcDbLayerTableRecord
  2
A
 70
     0
 62
     4
  6
CONTINUOUS
370
    -3
390
B7
347
6C9
348
0
  0
LAYER
  5
D4
330
2
100
AcDbSymbolTableRecord
100
AcDbLayerTableRecord
  2
外形
 70
     0
 62
     3
  6
CONTINUOUS
370
    -3
390
B7
347
6C9
348
0
  0
LAYER
  5
398
330
2
100
AcDbSymbolTableRecord
100
AcDbLayerTableRecord
  2
Defpoints
 70
     0
 62
     7
  6
CONTINUOUS
290
     0
370
    -3
390
B7
347
6C9
348
0
  0
ENDTAB
  0
TABLE
  2
STYLE
  5
3
330
0
100
AcDbSymbolTable
 70
     2
  0
STYLE
  5
F
330
3
100
AcDbSymbolTableRecord
100
AcDbTextStyleTableRecord
  2
STANDARD
 70
     0
 40
15.0
 41
1.0
 50
0.0
 71
     0
 42
15.0
  3
txt.shx
  4
bigfont.shx
  0
STYLE
  5
21
330
3
100
AcDbSymbolTableRecord
100
AcDbTextStyleTableRecord
  2

 70
     1
 40
0.0
 41
1.0
 50
0.0
 71
     0
 42
2.5
  3
ltypeshp.shx
  4

  0
ENDTAB
  0
TABLE
  2
VIEW
  5
6
330
0
100
AcDbSymbolTable
 70
     0
  0
ENDTAB
  0
TABLE
  2
UCS
  5
7
330
0
100
AcDbSymbolTable
 70
     0
  0
ENDTAB
  0
TABLE
  2
APPID
  5
9
330
0
100
AcDbSymbolTable
 70
     7
  0
APPID
  5
10
330
9
100
AcDbSymbolTableRecord
100
AcDbRegAppTableRecord
  2
ACAD
 70
     0
  0
APPID
  5
4B
330
9
100
AcDbSymbolTableRecord
100
AcDbRegAppTableRecord
  2
DRAWINGVARIABLESXDATA
 70
     0
  0
APPID
  5
68
330
9
100
AcDbSymbolTableRecord
100
AcDbRegAppTableRecord
  2
CONTENTBLOCKDESCRIPTION
 70
     0
  0
APPID
  5
69
330
9
100
AcDbSymbolTableRecord
100
AcDbRegAppTableRecord
  2
CONTENTBLOCKICON
 70
     0
  0
APPID
  5
8D
330
9
100
AcDbSymbolTableRecord
100
AcDbRegAppTableRecord
  2
CONTENTTABDATA
 70
     0
  0
APPID
  5
8E
330
9
100
AcDbSymbolTableRecord
100
AcDbRegAppTableRecord
  2
CONTENTCURRENTTAB
 70
     0
  0
APPID
  5
6F8
330
9
100
AcDbSymbolTableRecord
100
AcDbRegAppTableRecord
  2
ACAD_MLEADERVER
 70
     0
  0
ENDTAB
  0
TABLE
  2
DIMSTYLE
  5
A
330
0
100
AcDbSymbolTable
 70
     6
100
AcDbDimStyleTable
  0
DIMSTYLE
105
1D
330
A
100
AcDbSymbolTableRecord
100
AcDbDimStyleTableRecord
  2
STANDARD
 70
     0
 40
0.0
 41
11.0
 42
0.625
 43
6.0
 44
1.25
 73
     0
 74
     0
 77
     3
 78
     8
140
5.0
141
1.5
143
0.0394
147
1.0
171
     4
172
     1
173
     1
178
     0
271
     2
272
     2
273
     8
274
     4
277
     6
284
     8
340
F
341
2D
343
2D
344
2D
  0
DIMSTYLE
105
33
330
A
100
AcDbSymbolTableRecord
100
AcDbDimStyleTableRecord
  2
STANDARD$4
 70
     0
 40
0.0
 41
3.0
 42
0.625
 43
6.0
 44
1.25
 73
     0
 74
     0
 77
     3
 78
     8
140
3.0
141
2.5
143
0.0394
147
1.0
171
     4
172
     1
173
     1
178
     0
271
     3
272
     2
273
     8
274
     4
277
     6
289
     0
340
F
341
2D
343
2D
344
2D
  0
DIMSTYLE
105
34
102
{ACAD_REACTORS
330
626
102
}
330
A
100
AcDbSymbolTableRecord
100
AcDbDimStyleTableRecord
  2
STANDARD$3
 70
     0
 40
0.0
 41
3.0
 42
0.625
 43
6.0
 44
1.25
 73
     0
 74
     0
 77
     3
 78
     8
140
3.0
141
2.5
143
0.0394
147
1.0
171
     4
172
     1
173
     1
178
     0
271
     3
272
     2
273
     8
274
     4
277
     6
289
     0
340
F
341
2D
343
2D
344
2D
  0
DIMSTYLE
105
35
102
{ACAD_REACTORS
330
516
330
523
330
530
330
57D
330
58A
102
}
330
A
100
AcDbSymbolTableRecord
100
AcDbDimStyleTableRecord
  2
STANDARD$0
 70
     0
 40
0.0
 41
11.0
 42
0.625
 43
6.0
 44
1.25
 73
     0
 74
     0
 77
     3
 78
     8
140
5.0
141
2.5
143
0.0394
147
1.0
171
     4
172
     1
173
     1
178
     0
271
     2
272
     2
273
     8
274
     4
277
     6
284
     8
340
F
341
2D
343
2D
344
2D
  0
DIMSTYLE
105
36
330
A
100
AcDbSymbolTableRecord
100
AcDbDimStyleTableRecord
  2
STANDARD$2
 70
     0
 40
0.0
 41
3.0
 42
0.625
 43
6.0
 44
1.25
 73
     0
 74
     0
 77
     3
 78
     8
140
3.0
141
2.5
143
0.0394
147
1.0
171
     4
172
     1
173
     1
178
     0
271
     3
272
     2
273
     8
274
     4
277
     6
340
F
341
2D
343
2D
344
2D
  0
DIMSTYLE
105
5D
330
A
100
AcDbSymbolTableRecord
100
AcDbDimStyleTableRecord
  2
STANDARD_WS
 70
     0
 41
2.5
 42
0.625
 43
3.75
 44
1.25
 73
     0
 74
     0
 77
     1
 78
     8
140
2.5
141
2.5
143
0.0394
147
0.625
171
     4
172
     1
178
     0
273
     8
274
     4
340
F
  0
ENDTAB
  0
TABLE
  2
BLOCK_RECORD
  5
1
330
0
100
AcDbSymbolTable
 70
    11
  0
BLOCK_RECORD
  5
18
330
1
100
AcDbSymbolTableRecord
100
AcDbBlockTableRecord
  2
*MODEL_SPACE
340
BA
 70
     0
280
     1
281
     0
  0
BLOCK_RECORD
  5
15
330
1
100
AcDbSymbolTableRecord
100
AcDbBlockTableRecord
  2
*PAPER_SPACE
340
BB
 70
     0
280
     1
281
     0
  0
BLOCK_RECORD
  5
2D
330
1
100
AcDbSymbolTableRecord
100
AcDbBlockTableRecord
  2
_OPEN
340
0
102
{BLKREFS
331
5C8
331
5C9
331
5E3
331
5E4
331
5D1
331
5D2
331
5EC
331
5ED
331
5DA
331
5DB
331
62B
331
62C
331
639
331
63A
102
}
 70
     0
280
     1
281
     0
  0
BLOCK_RECORD
  5
5E
330
1
100
AcDbSymbolTableRecord
100
AcDbBlockTableRecord
  2
仕上　１
340
0
310
2800000020000000200000000100040000000000000200000000000000000000000000000000000000000000000080000080000000808000800000008000800080800000C0C0C000808080000000FF0000FF000000FFFF00FF000000FF00FF00FFFF0000FFFFFF00FFFFFFFFFFFFFFFFFFFFFFFFFFFFFFFFFFFFFFFFFFFFFF
310
FFFFFFFFFFFFFFFFFFFFFFFFFFFFFFFFFFFFFFFFFFFFFFFFFFFFFFFFFFFFFFFFFFFFFFFFFFFFFFFFFFFFFFFFFFFFFFFFF00FFFFFFFFFFFFFFFFFFFFFFFFFFFFFF00FFFFFFFFFFFFFFFFFFFFFFFFFFFFF0000FFFFFFFFFFFFFFFFFFFFFFFFFFFF0FF00FFFFFFFFFFFFFFFFFFFFFFFFFF0FFFF0FFFFFFFFFFFFFFFFFFFFFFFFF
310
00FFFF00FFFFFFFFFFFFFFFFFFFFFFFF0FFFFFF0FFFFFFFFFFFFFFFFFFFFFFF00FFFFFF00FFFFFFFFFFFFFFFFFFFFFF0FFFFFFFF0FFFFFFFFFFFFFFFFFFFFF00FFFFFFFFF0FFFFFFFFFFFFFFFFFFFF0FFFFFFFFFF00FFFFFFFFFFFFFFFFFF0FFFFFFFFFFFF0FFFFFFFFFFFFFFFFF00FFFFFFFFFFFF00FFFFFFFFFFFFFFFF0F
310
FFFFFFFFFFFFF0FFFFFFFFFFFFFFF00FFFFFFFFFFFFFF00FFFFFFFFFFFFFF0FFFFFFFFFFFFFFFF0FFFFFFFFFFFFF00FFFFFFFFFFFFFFFFF0FFFFFFFFFFF00FFFFFFFFFFFFFFFFFF00FFFFFFFFFF0FFFFFFFFFFFFFFFFFFFF0FFFFFFFFF00FFFFFFFFFFFFFFFFFFFF00FFFFFFFF0FFFFFFFFFFFFFFFFFFFFFF0FFFFFFF00FFF
310
FFFFFFFFFFFFFFFFFFF00FFFFFF0FFFFFFFFFFFFFFFFFFFFFFFF00FFFF00FFFFFFFFFFFFFFFFFFFFFFFFF0FFFF0000000000000000000000000000FFFFFFFFFFFFFFFFFFFFFFFFFFFFFFFFFFFFFFFFFFFFFFFFFFFFFFFFFFFFFFFFFFFFFFFFFFFFFFFFFFFFFFFFFFFFFFFFFF
 70
     0
280
     1
281
     0
  0
BLOCK_RECORD
  5
6B
330
1
100
AcDbSymbolTableRecord
100
AcDbBlockTableRecord
  2
仕上　２
340
0
310
2800000020000000200000000100040000000000000200000000000000000000000000000000000000000000000080000080000000808000800000008000800080800000C0C0C000808080000000FF0000FF000000FFFF00FF000000FF00FF00FFFF0000FFFFFF00FFFFFFFFFFFFFFFFFFFFFFFFFFFFFFFFFFFFFFFFFFFFFF
310
FFFFFFFFFFFFFFFFFFFFFFFFFFFFFFFFFFFFFFFFFFFFFFFFFFFFFFFFFFFFFFFFFFFFFFFFFFFFFFFFFFFFFFFFFFFFFFFFFFFFFFFFFFFFFFFFFFFFFFFFFFFFFFFFFFFFFFFFFFFFFFFFFFFFFFFFFFFFFFFFFFFFFFFFFFFFFFFFFFFFFFFFFFFFFFFFFFFFFFFFFFFFFFFFFFFFFFFFFFFFFFFFFFFFFFFFFFFFFFFFFFFFFFFFFF0FFF
310
FFFFFFFFFFF0FFFFFFFFFFFFFFF00FFFFFFFFFFFFFF00FFFFFFFFFFFFFF000FFFFFFFFFFFF000FFFFFFFFFFFFF0FF00FFFFFFFFFF00FF0FFFFFFFFFFF00FFF0FFFFFFFFFF0FFF00FFFFFFFFFF0FFFF00FFFFFFFF00FFFF0FFFFFFFFF00FFFFF0FFFFFFFF0FFFFF00FFFFFFFF0FFFFFF00FFFFFF00FFFFFF0FFFFFFF0FFFFFF
310
FF0FFFFFF0FFFFFFF00FFFFF00FFFFFFFFF0FFFF00FFFFFFFF00FFFF0FFFFFFFFFF00FFF0FFFFFFFFFF0FFF00FFFFFFFFFFF0FF0FFFFFFFFFFF00FF0FFFFFFFFFFFF0000FFFFFFFFFFFF0F00FFFFFFFFFFFFF00FFFFFFFFFFFFF0000000000000000000000000000000000FFFFFFFFFFFFFFFFFFFFFFFFFFFFFFFFFFFFFFFF
310
FFFFFFFFFFFFFFFFFFFFFFFFFFFFFFFFFFFFFFFFFFFFFFFFFFFFFFFFFFFFFFFFFFFFFFFFFFFFFFFFFFFFFFFFFFFFFFFFFFFFFFFFFFFFFFFFFFFFFFFFFFFFFFFFFFFFFFFFFFFFFFFFFFFFFFFFFFFFFFFFFFFFFFFFFFFFFFFFFFFFFFFFFFFFFFFFFFFFFFFFFFFFFFFFFFFFFFFF
 70
     0
280
     1
281
     0
  0
BLOCK_RECORD
  5
79
330
1
100
AcDbSymbolTableRecord
100
AcDbBlockTableRecord
  2
仕上　３
340
0
310
2800000020000000200000000100040000000000000200000000000000000000000000000000000000000000000080000080000000808000800000008000800080800000C0C0C000808080000000FF0000FF000000FFFF00FF000000FF00FF00FFFF0000FFFFFF00FFFFFFFFFFFFFFFFFFFFFFFFFFFFFFFFFFFFFFFFFFFFFF
310
FFFFFFFFFFFFFFFFFFFFFFFFFFFFFFFFFFFFFFFFFFFFFFFFFFFFFFFFFFFFFFFFFFFFFFFFFFFFFFFFFFFFFFFFFFFFFFFFFFFFFFFFFFFFFFFFFFFFFFFFFFFFFFFFFFFFFFFFFFFFFFFFFFFFFFFFFFFFFFFFFFFFFFFFFFFFFFFFFFFFFFFFFFFFFFFFFFFFFFFFFFFFFFFFFFFFFFFFFFFFFFFFFFFFFFFFFFFFFFFFFFFFFFFFFFFFFF
310
FFFFFFFFFFFFFFFFFFFFFFFFFFFFFFFFFFFFFFFFFFFFFFFFFFFFFFFFFFFFFFFFFFFFFFFFFFFFFFFFFFFFFFFFF0FFFFFFFFF00FFFFFFFFF0FFFFFFFFF000FFFFFFFF000FFFFFFF000FFFFFFF00F00FFFFFF00F0FFFFFF00F0FFFFFFF0FFF0FFFFF00FF00FFFFF0FFF0FFFFF00FFF00FFFF0FFFF0FFFF00FFF00FFFF0FFFFF0F
310
FF00FFFF00FFF0FFFFF0FFF00FFFFF00FF0FFFFFF0FF00FFFFF00FF0FFFFFFF000FFFFFFF0000FFFFFFF0F0FFFFFFFFF00FFFFFFFF00FFFFFFFFF000000000000000000000000000000000FFFFFFFFFFFFFFFFFFFFFFFFFFFFFFFFFFFFFFFFFFFFFFFFFFFFFFFFFFFFFFFFFFFFFFFFFFFFFFFFFFFFFFFFFFFFFFFFFFFFFFFF
310
FFFFFFFFFFFFFFFFFFFFFFFFFFFFFFFFFFFFFFFFFFFFFFFFFFFFFFFFFFFFFFFFFFFFFFFFFFFFFFFFFFFFFFFFFFFFFFFFFFFFFFFFFFFFFFFFFFFFFFFFFFFFFFFFFFFFFFFFFFFFFFFFFFFFFFFFFFFFFFFFFFFFFFFFFFFFFFFFFFFFFFFFFFFFFFFFFFFFFFFFFFFFFFFFFFFFFFFF
 70
     0
280
     1
281
     0
  0
BLOCK_RECORD
  5
517
330
1
100
AcDbSymbolTableRecord
100
AcDbBlockTableRecord
  2
*D4
340
0
 70
     0
280
     1
281
     0
  0
BLOCK_RECORD
  5
524
330
1
100
AcDbSymbolTableRecord
100
AcDbBlockTableRecord
  2
*D5
340
0
 70
     0
280
     1
281
     0
  0
BLOCK_RECORD
  5
531
330
1
100
AcDbSymbolTableRecord
100
AcDbBlockTableRecord
  2
*D6
340
0
 70
     0
280
     1
281
     0
  0
BLOCK_RECORD
  5
57E
330
1
100
AcDbSymbolTableRecord
100
AcDbBlockTableRecord
  2
*D7
340
0
 70
     0
280
     1
281
     0
  0
BLOCK_RECORD
  5
58B
330
1
100
AcDbSymbolTableRecord
100
AcDbBlockTableRecord
  2
*D8
340
0
 70
     0
280
     1
281
     0
  0
BLOCK_RECORD
  5
627
330
1
100
AcDbSymbolTableRecord
100
AcDbBlockTableRecord
  2
*D9
340
0
 70
     0
280
     1
281
     0
  0
BLOCK_RECORD
  5
633
330
1
100
AcDbSymbolTableRecord
100
AcDbBlockTableRecord
  2
*D10
340
0
 70
     0
280
     1
281
     0
  0
ENDTAB
  0
ENDSEC
  0
SECTION
  2
BLOCKS
  0
BLOCK
  5
19
330
18
100
AcDbEntity
  8
0
100
AcDbBlockBegin
  2
*MODEL_SPACE
 70
     0
 10
0.0
 20
0.0
 30
0.0
  3
*MODEL_SPACE
  1
*MODEL_SPACE
  0
ENDBLK
  5
1A
330
18
100
AcDbEntity
  8
0
100
AcDbBlockEnd
  0
BLOCK
  5
16
330
15
100
AcDbEntity
 67
     1
  8
0
100
AcDbBlockBegin
  2
*PAPER_SPACE
 70
     0
 10
0.0
 20
0.0
 30
0.0
  3
*PAPER_SPACE
  1
*PAPER_SPACE
  0
ENDBLK
  5
17
330
15
100
AcDbEntity
 67
     1
  8
0
100
AcDbBlockEnd
  0
BLOCK
  5
2E
330
2D
100
AcDbEntity
  8
0
100
AcDbBlockBegin
  2
_OPEN
 70
     0
 10
0.0
 20
0.0
 30
0.0
  3
_OPEN
  1
_OPEN
  0
LINE
  5
2F
330
2D
100
AcDbEntity
  8
0
  6
ByBlock
 62
     0
100
AcDbLine
 10
-1.0
 20
0.1666666666666667
 30
0.0
 11
0.0
 21
0.0
 31
0.0
  0
LINE
  5
30
330
2D
100
AcDbEntity
  8
0
  6
ByBlock
 62
     0
100
AcDbLine
 10
0.0
 20
0.0
 30
0.0
 11
-1.0
 21
-0.1666666666666667
 31
0.0
  0
LINE
  5
31
330
2D
100
AcDbEntity
  8
0
  6
ByBlock
 62
     0
100
AcDbLine
 10
0.0
 20
0.0
 30
0.0
 11
-1.0
 21
0.0
 31
0.0
  0
ENDBLK
  5
32
330
2D
100
AcDbEntity
  8
0
100
AcDbBlockEnd
  0
BLOCK
  5
64
330
5E
100
AcDbEntity
  8
0
100
AcDbBlockBegin
  2
仕上　１
 70
     0
 10
0.0
 20
0.0
 30
0.0
  3
仕上　１
  1
仕上　１
  0
LINE
  5
5F
330
5E
100
AcDbEntity
  8
0
100
AcDbLine
 10
4.999958538888336
 20
8.660284968743781
 30
0.0
 11
-5.000041461111664
 21
8.660284968743781
 31
0.0
  0
LINE
  5
60
330
5E
100
AcDbEntity
  8
0
100
AcDbLine
 10
-0.0000414611116639
 20
0.0000309308993849
 30
0.0
 11
4.999958538888336
 21
8.660284968743781
 31
0.0
  0
LINE
  5
61
330
5E
100
AcDbEntity
  8
A
100
AcDbLine
 10
-0.0000414611116639
 20
0.0000309308993849
 30
0.0
 11
4.999958538888336
 21
8.660284968743781
 31
0.0
  0
LINE
  5
62
330
5E
100
AcDbEntity
  8
0
100
AcDbLine
 10
-5.000041461111664
 20
8.660284968743781
 30
0.0
 11
-0.0000414611116639
 21
0.0000309308993849
 31
0.0
  0
LINE
  5
63
330
5E
100
AcDbEntity
  8
A
100
AcDbLine
 10
-5.000041461111664
 20
8.660284968743781
 30
0.0
 11
-0.0000414611116639
 21
0.0000309308993849
 31
0.0
  0
ENDBLK
  5
65
330
5E
100
AcDbEntity
  8
0
100
AcDbBlockEnd
  0
BLOCK
  5
75
330
6B
100
AcDbEntity
  8
0
100
AcDbBlockBegin
  2
仕上　２
 70
     0
 10
0.0
 20
0.0
 30
0.0
  3
仕上　２
  1
仕上　２
  0
LINE
  5
6C
330
6B
100
AcDbEntity
  8
0
100
AcDbLine
 10
15.00000311254627
 20
8.660284968743781
 30
0.0
 11
-4.999996887453733
 21
8.660284968743781
 31
0.0
  0
LINE
  5
6D
330
6B
100
AcDbEntity
  8
0
100
AcDbLine
 10
-4.999996887453733
 20
8.660284968743781
 30
0.0
 11
0.0000031125462669
 21
0.0000309308993849
 31
0.0
  0
LINE
  5
6E
330
6B
100
AcDbEntity
  8
A
100
AcDbLine
 10
-4.999996887453733
 20
8.660284968743781
 30
0.0
 11
0.0000031125462669
 21
0.0000309308993849
 31
0.0
  0
LINE
  5
6F
330
6B
100
AcDbEntity
  8
0
100
AcDbLine
 10
10.00000311254627
 20
0.0000309308993849
 30
0.0
 11
15.00000311254627
 21
8.660284968743781
 31
0.0
  0
LINE
  5
70
330
6B
100
AcDbEntity
  8
0
100
AcDbLine
 10
5.000003112546267
 20
8.660284968743781
 30
0.0
 11
10.00000311254627
 21
0.0000309308993849
 31
0.0
  0
LINE
  5
71
330
6B
100
AcDbEntity
  8
0
100
AcDbLine
 10
0.0000031125462669
 20
0.0000309308993849
 30
0.0
 11
5.000003112546267
 21
8.660284968743781
 31
0.0
  0
LINE
  5
72
330
6B
100
AcDbEntity
  8
A
100
AcDbLine
 10
10.00000311254627
 20
0.0000309308993849
 30
0.0
 11
15.00000311254627
 21
8.660284968743781
 31
0.0
  0
LINE
  5
73
330
6B
100
AcDbEntity
  8
A
100
AcDbLine
 10
5.000003112546267
 20
8.660284968743781
 30
0.0
 11
10.00000311254627
 21
0.0000309308993849
 31
0.0
  0
LINE
  5
74
330
6B
100
AcDbEntity
  8
A
100
AcDbLine
 10
0.0000031125462669
 20
0.0000309308993849
 30
0.0
 11
5.000003112546267
 21
8.660284968743781
 31
0.0
  0
ENDBLK
  5
76
330
6B
100
AcDbEntity
  8
0
100
AcDbBlockEnd
  0
BLOCK
  5
88
330
79
100
AcDbEntity
  8
0
100
AcDbBlockBegin
  2
仕上　３
 70
     0
 10
0.0
 20
0.0
 30
0.0
  3
仕上　３
  1
仕上　３
  0
LINE
  5
7A
330
79
100
AcDbEntity
  8
0
100
AcDbLine
 10
25.0000345892401
 20
8.660284968743781
 30
0.0
 11
-4.999965410759899
 21
8.660284968743781
 31
0.0
  0
LINE
  5
7B
330
79
100
AcDbEntity
  8
0
100
AcDbLine
 10
-4.999965410759899
 20
8.660284968743781
 30
0.0
 11
0.0000345892401015
 21
0.0000309308993849
 31
0.0
  0
LINE
  5
7C
330
79
100
AcDbEntity
  8
A
100
AcDbLine
 10
25.0000345892401
 20
8.660284968743781
 30
0.0
 11
-4.999965410759899
 21
8.660284968743781
 31
0.0
  0
LINE
  5
7D
330
79
100
AcDbEntity
  8
A
100
AcDbLine
 10
-4.999965410759899
 20
8.660284968743781
 30
0.0
 11
0.0000345892401015
 21
0.0000309308993849
 31
0.0
  0
LINE
  5
7E
330
79
100
AcDbEntity
  8
0
100
AcDbLine
 10
15.0000345892401
 20
8.660284968743781
 30
0.0
 11
20.0000345892401
 21
0.0000309308993849
 31
0.0
  0
LINE
  5
7F
330
79
100
AcDbEntity
  8
A
100
AcDbLine
 10
15.0000345892401
 20
8.660284968743781
 30
0.0
 11
20.0000345892401
 21
0.0000309308993849
 31
0.0
  0
LINE
  5
80
330
79
100
AcDbEntity
  8
0
100
AcDbLine
 10
10.0000345892401
 20
0.0000309308993849
 30
0.0
 11
15.0000345892401
 21
8.660284968743781
 31
0.0
  0
LINE
  5
81
330
79
100
AcDbEntity
  8
0
100
AcDbLine
 10
5.000034589240101
 20
8.660284968743781
 30
0.0
 11
10.0000345892401
 21
0.0000309308993849
 31
0.0
  0
LINE
  5
82
330
79
100
AcDbEntity
  8
0
100
AcDbLine
 10
0.0000345892401015
 20
0.0000309308993849
 30
0.0
 11
5.000034589240101
 21
8.660284968743781
 31
0.0
  0
LINE
  5
83
330
79
100
AcDbEntity
  8
A
100
AcDbLine
 10
10.0000345892401
 20
0.0000309308993849
 30
0.0
 11
15.0000345892401
 21
8.660284968743781
 31
0.0
  0
LINE
  5
84
330
79
100
AcDbEntity
  8
A
100
AcDbLine
 10
5.000034589240101
 20
8.660284968743781
 30
0.0
 11
10.0000345892401
 21
0.0000309308993849
 31
0.0
  0
LINE
  5
85
330
79
100
AcDbEntity
  8
A
100
AcDbLine
 10
0.0000345892401015
 20
0.0000309308993849
 30
0.0
 11
5.000034589240101
 21
8.660284968743781
 31
0.0
  0
LINE
  5
86
330
79
100
AcDbEntity
  8
0
100
AcDbLine
 10
20.0000345892401
 20
0.0000309308993849
 30
0.0
 11
25.0000345892401
 21
8.660284968743781
 31
0.0
  0
LINE
  5
87
330
79
100
AcDbEntity
  8
A
100
AcDbLine
 10
20.0000345892401
 20
0.0000309308993849
 30
0.0
 11
25.0000345892401
 21
8.660284968743781
 31
0.0
  0
ENDBLK
  5
89
330
79
100
AcDbEntity
  8
0
100
AcDbBlockEnd
  0
BLOCK
  5
521
330
517
100
AcDbEntity
  8
0
100
AcDbBlockBegin
  2
*D4
 70
     1
 10
0.0
 20
0.0
 30
0.0
  3
*D4
  1
*D4
  0
LINE
  5
5C5
330
517
100
AcDbEntity
  8
寸法線
 62
     0
370
    -2
100
AcDbLine
 10
36.68803450549475
 20
144.4316059210605
 30
0.0
 11
-74.61860639654155
 21
144.4316059210605
 31
0.0
  0
LINE
  5
5C6
330
517
100
AcDbEntity
  8
寸法線
 62
     0
370
    -2
100
AcDbLine
 10
153.1880345054948
 20
493.4340278738422
 30
0.0
 11
-74.61860639654152
 21
493.4340278738422
 31
0.0
  0
LINE
  5
5C7
330
517
100
AcDbEntity
  8
寸法線
 62
     0
370
    -2
100
AcDbLine
 10
-73.36860639654155
 20
155.4316059210605
 30
0.0
 11
-73.36860639654152
 21
482.4340278738422
 31
0.0
  0
INSERT
  5
5C8
330
517
100
AcDbEntity
  8
寸法線
 62
     0
370
    -2
100
AcDbBlockReference
  2
_OPEN
 10
-73.36860639654155
 20
144.4316059210605
 30
0.0
 41
11.0
 42
11.0
 43
11.0
 50
270.0
  0
INSERT
  5
5C9
330
517
100
AcDbEntity
  8
寸法線
 62
     0
370
    -2
100
AcDbBlockReference
  2
_OPEN
 10
-73.36860639654152
 20
493.4340278738422
 30
0.0
 41
11.0
 42
11.0
 43
11.0
 50
90.0
  0
MTEXT
  5
5CA
330
517
100
AcDbEntity
  8
寸法線
 62
     0
100
AcDbMText
 10
-81.86860639654154
 20
318.9328168974513
 30
0.0
 40
15.0
 41
0.0
 46
0.0
 71
     5
 72
     1
  1
\A1;350
 11
8.143699769008860E-17
 21
1.0
 31
0.0
 73
     1
 44
1.0
  0
POINT
  5
5CB
330
517
100
AcDbEntity
  8
Defpoints
 62
     0
100
AcDbPoint
 10
37.31303450549475
 20
144.4316059210605
 30
0.0
  0
POINT
  5
5CC
330
517
100
AcDbEntity
  8
Defpoints
 62
     0
100
AcDbPoint
 10
153.8130345054948
 20
493.4340278738422
 30
0.0
  0
POINT
  5
5CD
330
517
100
AcDbEntity
  8
Defpoints
 62
     0
100
AcDbPoint
 10
-73.36860639654152
 20
493.4340278738422
 30
0.0
  0
ENDBLK
  5
522
330
517
100
AcDbEntity
  8
0
100
AcDbBlockEnd
  0
BLOCK
  5
52E
330
524
100
AcDbEntity
  8
0
100
AcDbBlockBegin
  2
*D5
 70
     1
 10
0.0
 20
0.0
 30
0.0
  3
*D5
  1
*D5
  0
LINE
  5
5E0
330
524
100
AcDbEntity
  8
寸法線
 62
     0
370
    -2
100
AcDbLine
 10
-73.99360639654151
 20
493.4340278738423
 30
0.0
 11
-74.61860639654151
 21
493.4340278738423
 31
0.0
  0
LINE
  5
5E1
330
524
100
AcDbEntity
  8
寸法線
 62
     0
370
    -2
100
AcDbLine
 10
139.1880345054948
 20
581.4316059210605
 30
0.0
 11
-74.6186063965415
 21
581.4316059210605
 31
0.0
  0
LINE
  5
5E2
330
524
100
AcDbEntity
  8
寸法線
 62
     0
370
    -2
100
AcDbLine
 10
-73.36860639654151
 20
504.4340278738423
 30
0.0
 11
-73.3686063965415
 21
570.4316059210605
 31
0.0
  0
INSERT
  5
5E3
330
524
100
AcDbEntity
  8
寸法線
 62
     0
370
    -2
100
AcDbBlockReference
  2
_OPEN
 10
-73.36860639654151
 20
493.4340278738423
 30
0.0
 41
11.0
 42
11.0
 43
11.0
 50
270.0
  0
INSERT
  5
5E4
330
524
100
AcDbEntity
  8
寸法線
 62
     0
370
    -2
100
AcDbBlockReference
  2
_OPEN
 10
-73.3686063965415
 20
581.4316059210605
 30
0.0
 41
11.0
 42
11.0
 43
11.0
 50
90.0
  0
MTEXT
  5
5E5
330
524
100
AcDbEntity
  8
寸法線
 62
     0
100
AcDbMText
 10
-81.8686063965416
 20
537.4328168974514
 30
0.0
 40
15.0
 41
0.0
 46
0.0
 71
     5
 72
     1
  1
\A1;88
 11
6.123031769111886E-17
 21
1.0
 31
0.0
 73
     1
 44
1.0
  0
POINT
  5
5E6
330
524
100
AcDbEntity
  8
Defpoints
 62
     0
100
AcDbPoint
 10
-73.36860639654151
 20
493.4340278738423
 30
0.0
  0
POINT
  5
5E7
330
524
100
AcDbEntity
  8
Defpoints
 62
     0
100
AcDbPoint
 10
139.8130345054948
 20
581.4316059210605
 30
0.0
  0
POINT
  5
5E8
330
524
100
AcDbEntity
  8
Defpoints
 62
     0
100
AcDbPoint
 10
-73.3686063965415
 20
581.4316059210605
 30
0.0
  0
ENDBLK
  5
52F
330
524
100
AcDbEntity
  8
0
100
AcDbBlockEnd
  0
BLOCK
  5
53B
330
531
100
AcDbEntity
  8
0
100
AcDbBlockBegin
  2
*D6
 70
     1
 10
0.0
 20
0.0
 30
0.0
  3
*D6
  1
*D6
  0
LINE
  5
5CE
330
531
100
AcDbEntity
  8
寸法線
 62
     0
370
    -2
100
AcDbLine
 10
22.31303450549476
 20
153.8066059210605
 30
0.0
 11
22.31303450549478
 21
30.58509258276285
 31
0.0
  0
LINE
  5
5CF
330
531
100
AcDbEntity
  8
寸法線
 62
     0
370
    -2
100
AcDbLine
 10
356.3130345054948
 20
177.8066059210605
 30
0.0
 11
356.3130345054948
 21
30.58509258276285
 31
0.0
  0
LINE
  5
5D0
330
531
100
AcDbEntity
  8
寸法線
 62
     0
370
    -2
100
AcDbLine
 10
33.31303450549478
 20
31.83509258276285
 30
0.0
 11
345.3130345054948
 21
31.83509258276285
 31
0.0
  0
INSERT
  5
5D1
330
531
100
AcDbEntity
  8
寸法線
 62
     0
370
    -2
100
AcDbBlockReference
  2
_OPEN
 10
22.31303450549478
 20
31.83509258276285
 30
0.0
 41
11.0
 42
11.0
 43
11.0
 50
180.0
  0
INSERT
  5
5D2
330
531
100
AcDbEntity
  8
寸法線
 62
     0
370
    -2
100
AcDbBlockReference
  2
_OPEN
 10
356.3130345054948
 20
31.83509258276285
 30
0.0
 41
11.0
 42
11.0
 43
11.0
  0
MTEXT
  5
5D3
330
531
100
AcDbEntity
  8
寸法線
 62
     0
100
AcDbMText
 10
189.3130345054948
 20
40.33509258276285
 30
0.0
 40
15.0
 41
0.0
 46
0.0
 71
     5
 72
     1
  1
\A1;340
 73
     1
 44
1.0
  0
POINT
  5
5D4
330
531
100
AcDbEntity
  8
Defpoints
 62
     0
100
AcDbPoint
 10
22.31303450549476
 20
154.4316059210605
 30
0.0
  0
POINT
  5
5D5
330
531
100
AcDbEntity
  8
Defpoints
 62
     0
100
AcDbPoint
 10
356.3130345054948
 20
178.4316059210605
 30
0.0
  0
POINT
  5
5D6
330
531
100
AcDbEntity
  8
Defpoints
 62
     0
100
AcDbPoint
 10
356.3130345054948
 20
31.83509258276285
 30
0.0
  0
ENDBLK
  5
53C
330
531
100
AcDbEntity
  8
0
100
AcDbBlockEnd
  0
BLOCK
  5
588
330
57E
100
AcDbEntity
  8
0
100
AcDbBlockBegin
  2
*D7
 70
     1
 10
0.0
 20
0.0
 30
0.0
  3
*D7
  1
*D7
  0
LINE
  5
5E9
330
57E
100
AcDbEntity
  8
寸法線
 62
     0
370
    -2
100
AcDbLine
 10
606.2461919255638
 20
545.0566059210605
 30
0.0
 11
606.2461919255638
 21
660.9784411375904
 31
0.0
  0
LINE
  5
5EA
330
57E
100
AcDbEntity
  8
寸法線
 62
     0
370
    -2
100
AcDbLine
 10
788.2461919255637
 20
545.0566059210605
 30
0.0
 11
788.2461919255637
 21
660.9784411375904
 31
0.0
  0
LINE
  5
5EB
330
57E
100
AcDbEntity
  8
寸法線
 62
     0
370
    -2
100
AcDbLine
 10
617.2461919255638
 20
659.7284411375904
 30
0.0
 11
777.2461919255637
 21
659.7284411375904
 31
0.0
  0
INSERT
  5
5EC
330
57E
100
AcDbEntity
  8
寸法線
 62
     0
370
    -2
100
AcDbBlockReference
  2
_OPEN
 10
606.2461919255638
 20
659.7284411375904
 30
0.0
 41
11.0
 42
11.0
 43
11.0
 50
180.0
  0
INSERT
  5
5ED
330
57E
100
AcDbEntity
  8
寸法線
 62
     0
370
    -2
100
AcDbBlockReference
  2
_OPEN
 10
788.2461919255637
 20
659.7284411375904
 30
0.0
 41
11.0
 42
11.0
 43
11.0
  0
MTEXT
  5
5EE
330
57E
100
AcDbEntity
  8
寸法線
 62
     0
100
AcDbMText
 10
697.2461919255638
 20
668.2284411375904
 30
0.0
 40
15.0
 41
0.0
 46
0.0
 71
     5
 72
     1
  1
\A1;182
 73
     1
 44
1.0
  0
POINT
  5
5EF
330
57E
100
AcDbEntity
  8
Defpoints
 62
     0
100
AcDbPoint
 10
606.2461919255638
 20
544.4316059210605
 30
0.0
  0
POINT
  5
5F0
330
57E
100
AcDbEntity
  8
Defpoints
 62
     0
100
AcDbPoint
 10
788.2461919255637
 20
544.4316059210605
 30
0.0
  0
POINT
  5
5F1
330
57E
100
AcDbEntity
  8
Defpoints
 62
     0
100
AcDbPoint
 10
788.2461919255637
 20
659.7284411375904
 30
0.0
  0
ENDBLK
  5
589
330
57E
100
AcDbEntity
  8
0
100
AcDbBlockEnd
  0
BLOCK
  5
595
330
58B
100
AcDbEntity
  8
0
100
AcDbBlockBegin
  2
*D8
 70
     1
 10
0.0
 20
0.0
 30
0.0
  3
*D8
  1
*D8
  0
LINE
  5
5D7
330
58B
100
AcDbEntity
  8
寸法線
 62
     0
370
    -2
100
AcDbLine
 10
612.2461919255638
 20
153.8066059210605
 30
0.0
 11
612.2461919255638
 21
30.58509258276285
 31
0.0
  0
LINE
  5
5D8
330
58B
100
AcDbEntity
  8
寸法線
 62
     0
370
    -2
100
AcDbLine
 10
782.2461919255638
 20
153.8066059210605
 30
0.0
 11
782.2461919255638
 21
30.58509258276285
 31
0.0
  0
LINE
  5
5D9
330
58B
100
AcDbEntity
  8
寸法線
 62
     0
370
    -2
100
AcDbLine
 10
623.2461919255638
 20
31.83509258276285
 30
0.0
 11
771.2461919255638
 21
31.83509258276285
 31
0.0
  0
INSERT
  5
5DA
330
58B
100
AcDbEntity
  8
寸法線
 62
     0
370
    -2
100
AcDbBlockReference
  2
_OPEN
 10
612.2461919255638
 20
31.83509258276285
 30
0.0
 41
11.0
 42
11.0
 43
11.0
 50
180.0
  0
INSERT
  5
5DB
330
58B
100
AcDbEntity
  8
寸法線
 62
     0
370
    -2
100
AcDbBlockReference
  2
_OPEN
 10
782.2461919255638
 20
31.83509258276285
 30
0.0
 41
11.0
 42
11.0
 43
11.0
  0
MTEXT
  5
5DC
330
58B
100
AcDbEntity
  8
寸法線
 62
     0
100
AcDbMText
 10
697.2461919255638
 20
40.33509258276285
 30
0.0
 40
15.0
 41
0.0
 46
0.0
 71
     5
 72
     1
  1
\A1;170
 73
     1
 44
1.0
  0
POINT
  5
5DD
330
58B
100
AcDbEntity
  8
Defpoints
 62
     0
100
AcDbPoint
 10
612.2461919255638
 20
154.4316059210605
 30
0.0
  0
POINT
  5
5DE
330
58B
100
AcDbEntity
  8
Defpoints
 62
     0
100
AcDbPoint
 10
782.2461919255638
 20
154.4316059210605
 30
0.0
  0
POINT
  5
5DF
330
58B
100
AcDbEntity
  8
Defpoints
 62
     0
100
AcDbPoint
 10
782.2461919255638
 20
31.83509258276285
 30
0.0
  0
ENDBLK
  5
596
330
58B
100
AcDbEntity
  8
0
100
AcDbBlockEnd
  0
BLOCK
  5
630
330
627
100
AcDbEntity
  8
0
100
AcDbBlockBegin
  2
*D9
 70
     1
 10
0.0
 20
0.0
 30
0.0
  3
*D9
  1
*D9
  0
LINE
  5
628
330
627
100
AcDbEntity
  8
寸法線
 62
     0
370
    -2
100
AcDbLine
 10
225.2153208126244
 20
925.8311917035616
 30
0.0
 11
223.2178904886666
 21
928.0695554141621
 31
0.0
  0
LINE
  5
629
330
627
100
AcDbEntity
  8
寸法線
 62
     0
370
    -2
100
AcDbLine
 10
332.4107481983654
 20
805.7056725679995
 30
0.0
 11
374.5256145199951
 21
758.5108406279616
 31
0.0
  0
LINE
  5
62A
330
627
100
AcDbEntity
  8
寸法線
 62
     0
370
    -2
100
AcDbLine
 10
227.2127511365824
 20
923.592827992961
 30
0.0
 11
330.4133178744075
 21
807.9440362785999
 31
0.0
  0
INSERT
  5
62B
330
627
100
AcDbEntity
  8
寸法線
 62
     0
370
    -2
100
AcDbBlockReference
  2
_OPEN
 10
227.2127511365824
 20
923.592827992961
 30
0.0
 41
3.0
 42
3.0
 43
3.0
 50
311.7445047165183
  0
INSERT
  5
62C
330
627
100
AcDbEntity
  8
寸法線
 62
     0
370
    -2
100
AcDbBlockReference
  2
_OPEN
 10
330.4133178744075
 20
807.9440362785999
 30
0.0
 41
3.0
 42
3.0
 43
3.0
 50
131.7445047165183
  0
MTEXT
  5
62D
330
627
100
AcDbEntity
  8
寸法線
 62
     0
100
AcDbMText
 10
363.556582225728
 20
783.5693787043804
 30
0.0
 40
15.0
 41
0.0
 46
0.0
 71
     5
 72
     1
  1
\A1;∅155
 11
0.6658101079859691
 21
-0.7461212368668461
 31
0.0
 73
     1
 44
1.0
  0
POINT
  5
62E
330
627
100
AcDbEntity
  8
Defpoints
 62
     0
100
AcDbPoint
 10
330.4133178744075
 20
807.9440362785999
 30
0.0
  0
POINT
  5
62F
330
627
100
AcDbEntity
  8
Defpoints
 62
     0
100
AcDbPoint
 10
227.2127511365824
 20
923.592827992961
 30
0.0
  0
ENDBLK
  5
631
330
627
100
AcDbEntity
  8
0
100
AcDbBlockEnd
  0
BLOCK
  5
63F
330
633
100
AcDbEntity
  8
0
100
AcDbBlockBegin
  2
*D10
 70
     1
 10
0.0
 20
0.0
 30
0.0
  3
*D10
  1
*D10
  0
LINE
  5
634
330
633
100
AcDbEntity
  8
寸法線
 62
     0
370
    -2
100
AcDbLine
 10
347.3130345054948
 20
153.1816059210605
 30
0.0
 11
347.3130345054948
 21
30.58509258276285
 31
0.0
  0
LINE
  5
635
330
633
100
AcDbEntity
  8
寸法線
 62
     0
370
    -2
100
AcDbLine
 10
356.3130345054948
 20
177.8066059210605
 30
0.0
 11
356.3130345054948
 21
30.58509258276285
 31
0.0
  0
LINE
  5
636
330
633
100
AcDbEntity
  8
寸法線
 62
     0
370
    -2
100
AcDbLine
 10
336.3130345054948
 20
31.83509258276285
 30
0.0
 11
325.3130345054948
 21
31.83509258276285
 31
0.0
  0
LINE
  5
637
330
633
100
AcDbEntity
  8
寸法線
 62
     0
370
    -2
100
AcDbLine
 10
367.3130345054948
 20
31.83509258276285
 30
0.0
 11
390.3130345054948
 21
31.83509258276285
 31
0.0
  0
LINE
  5
638
330
633
100
AcDbEntity
  8
寸法線
 62
     0
370
    -2
100
AcDbLine
 10
347.3130345054948
 20
31.83509258276285
 30
0.0
 11
356.3130345054948
 21
31.83509258276285
 31
0.0
  0
INSERT
  5
639
330
633
100
AcDbEntity
  8
寸法線
 62
     0
370
    -2
100
AcDbBlockReference
  2
_OPEN
 10
347.3130345054948
 20
31.83509258276285
 30
0.0
 41
11.0
 42
11.0
 43
11.0
  0
INSERT
  5
63A
330
633
100
AcDbEntity
  8
寸法線
 62
     0
370
    -2
100
AcDbBlockReference
  2
_OPEN
 10
356.3130345054948
 20
31.83509258276285
 30
0.0
 41
11.0
 42
11.0
 43
11.0
 50
180.0
  0
MTEXT
  5
63B
330
633
100
AcDbEntity
  8
寸法線
 62
     0
100
AcDbMText
 10
384.3130345054948
 20
40.33509258276285
 30
0.0
 40
15.0
 41
0.0
 46
0.0
 71
     5
 72
     1
  1
\A1;9
 73
     1
 44
1.0
  0
POINT
  5
63C
330
633
100
AcDbEntity
  8
Defpoints
 62
     0
100
AcDbPoint
 10
347.3130345054948
 20
153.8066059210605
 30
0.0
  0
POINT
  5
63D
330
633
100
AcDbEntity
  8
Defpoints
 62
     0
100
AcDbPoint
 10
356.3130345054948
 20
178.4316059210605
 30
0.0
  0
POINT
  5
63E
330
633
100
AcDbEntity
  8
Defpoints
 62
     0
100
AcDbPoint
 10
356.3130345054948
 20
31.83509258276285
 30
0.0
  0
ENDBLK
  5
640
330
633
100
AcDbEntity
  8
0
100
AcDbBlockEnd
  0
ENDSEC
  0
SECTION
  2
ENTITIES
  0
CIRCLE
  5
240
330
18
100
AcDbEntity
  8
中心線
100
AcDbCircle
 10
84.3130345054949
 20
324.3711212886404
 30
0.0
 40
41.0
  0
LINE
  5
241
330
18
100
AcDbEntity
  8
中心線
100
AcDbLine
 10
49.3130345054949
 20
359.3711212886404
 30
0.0
 11
119.3130345054948
 21
289.3711212886404
 31
0.0
  0
LINE
  5
242
330
18
100
AcDbEntity
  8
中心線
100
AcDbLine
 10
119.3130345054949
 20
359.3711212886404
 30
0.0
 11
49.3130345054949
 21
289.3711212886404
 31
0.0
  0
LINE
  5
243
330
18
100
AcDbEntity
  8
中心線
100
AcDbLine
 10
145.5334331449784
 20
324.3711212886404
 30
0.0
 11
43.38704566603587
 21
324.3711212886404
 31
0.0
  0
LINE
  5
244
330
18
100
AcDbEntity
  8
中心線
100
AcDbLine
 10
38.55607600267922
 20
429.3711212886403
 30
0.0
 11
296.7881959063241
 21
429.3711212886403
 31
0.0
  0
LINE
  5
245
330
18
100
AcDbEntity
  8
中心線
100
AcDbLine
 10
33.92699367990417
 20
457.3711212886402
 30
0.0
 11
333.3130345054951
 21
457.37112128864
 31
0.0
  0
LINE
  5
247
330
18
100
AcDbEntity
  8
中心線
100
AcDbLine
 10
56.31303450549433
 20
167.3226732148422
 30
0.0
 11
56.31303450549433
 21
24.44155711493647
 31
0.0
  0
LINE
  5
24A
330
18
100
AcDbEntity
  8
中心線
100
AcDbLine
 10
42.31303450549467
 20
48.98180364966115
 30
0.0
 11
42.3130345054949
 21
13.77638864846298
 31
0.0
  0
LINE
  5
24B
330
18
100
AcDbEntity
  8
中心線
100
AcDbLine
 10
42.31303450549467
 20
12.95960870802844
 30
0.0
 11
42.31303450549467
 21
47.95960870802844
 31
0.0
  0
LINE
  5
250
330
18
100
AcDbEntity
  8
中心線
100
AcDbLine
 10
16.00781551333944
 20
470.3711212886399
 30
0.0
 11
29.44569018019479
 21
470.3711212886399
 31
0.0
  0
LINE
  5
251
330
18
100
AcDbEntity
  8
中心線
100
AcDbLine
 10
18.68178247353148
 20
481.3711212886399
 30
0.0
 11
27.90069420815394
 21
481.3711212886399
 31
0.0
  0
LINE
  5
253
330
18
100
AcDbEntity
  8
中心線
100
AcDbLine
 10
16.8026393136895
 20
589.67112128864
 30
0.0
 11
30.89511568839566
 21
589.67112128864
 31
0.0
  0
LINE
  5
259
330
18
100
AcDbEntity
  8
中心線
100
AcDbLine
 10
151.3130345054946
 20
94.296042843332
 30
0.0
 11
151.3130345054946
 21
165.5171829129644
 31
0.0
  0
LINE
  5
25A
330
18
100
AcDbEntity
  8
中心線
100
AcDbLine
 10
702.4974053807871
 20
107.0790183202787
 30
0.0
 11
702.4974053807871
 21
160.8133795369645
 31
0.0
  0
LINE
  5
25B
330
18
100
AcDbEntity
  8
中心線
100
AcDbLine
 10
811.4227426253385
 20
72.7728832106409
 30
0.0
 11
811.4227426253385
 21
126.5072444273267
 31
0.0
  0
LINE
  5
25C
330
18
100
AcDbEntity
  8
中心線
100
AcDbLine
 10
305.3130345054946
 20
205.6695425261163
 30
0.0
 11
305.3130345054946
 21
59.23853465568129
 31
0.0
  0
LINE
  5
25D
330
18
100
AcDbEntity
  8
中心線
100
AcDbLine
 10
166.3130345054946
 20
89.56665429726255
 30
0.0
 11
166.3130345054946
 21
194.8921525627751
 31
0.0
  0
LINE
  5
25E
330
18
100
AcDbEntity
  8
中心線
100
AcDbLine
 10
386.3130345054946
 20
22.71580961206553
 30
0.0
 11
386.3130345054946
 21
130.637098322048
 31
0.0
  0
LINE
  5
25F
330
18
100
AcDbEntity
  8
中心線
100
AcDbLine
 10
811.4227426253386
 20
366.8837435905638
 30
0.0
 11
811.4227426253385
 21
1.066391031918187
 31
0.0
  0
LINE
  5
261
330
18
100
AcDbEntity
  8
中心線
100
AcDbLine
 10
188.3130345054948
 20
67.56665429726237
 30
0.0
 11
368.3130345054946
 21
67.56665429725872
 31
0.0
  0
LINE
  5
262
330
18
100
AcDbEntity
  8
中心線
100
AcDbLine
 10
188.3130345054948
 20
70.36665429726239
 30
0.0
 11
368.3130345054947
 21
70.3666542972623
 31
0.0
  0
LINE
  5
263
330
18
100
AcDbEntity
  8
中心線
100
AcDbLine
 10
267.902799483949
 20
96.36665429726234
 30
0.0
 11
93.82864663103953
 21
96.3666542972624
 31
0.0
  0
LINE
  5
264
330
18
100
AcDbEntity
  8
中心線
100
AcDbLine
 10
196.3130345054946
 20
53.37720697480846
 30
0.0
 11
196.3130345054946
 21
33.22854041205606
 31
0.0
  0
LINE
  5
265
330
18
100
AcDbEntity
  8
中心線
100
AcDbLine
 10
166.3130345054946
 20
13.72926850458057
 30
0.0
 11
166.3130345054946
 21
103.8482518085674
 31
0.0
  0
LINE
  5
266
330
18
100
AcDbEntity
  8
中心線
100
AcDbLine
 10
139.3969258409314
 20
109.7097509124514
 30
0.0
 11
158.918136014864
 21
109.7097509124514
 31
0.0
  0
LINE
  5
267
330
18
100
AcDbEntity
  8
中心線
100
AcDbLine
 10
166.3130345054948
 20
63.73353861765493
 30
0.0
 11
166.3130345054948
 21
54.3623563106142
 31
0.0
  0
LINE
  5
268
330
18
100
AcDbEntity
  8
中心線
100
AcDbLine
 10
156.3130345054946
 20
42.86665429726251
 30
0.0
 11
156.3130345054946
 21
54.68841564968385
 31
0.0
  0
LINE
  5
269
330
18
100
AcDbEntity
  8
中心線
100
AcDbLine
 10
176.3130345054946
 20
54.68841564968385
 30
0.0
 11
176.3130345054946
 21
42.86665429726251
 31
0.0
  0
LINE
  5
26A
330
18
100
AcDbEntity
  8
中心線
100
AcDbLine
 10
160.6930566735927
 20
101.9866321291646
 30
0.0
 11
174.0284374140202
 21
88.6512513887369
 31
0.0
  0
LINE
  5
26B
330
18
100
AcDbEntity
  8
中心線
100
AcDbLine
 10
160.6930566735927
 20
90.7466764653601
 30
0.0
 11
174.0284374140202
 21
104.0820572057878
 31
0.0
  0
LINE
  5
26C
330
18
100
AcDbEntity
  8
中心線
100
AcDbLine
 10
157.5566551113366
 20
87.61027490310414
 30
0.0
 11
149.8239853737441
 21
79.87760516551168
 31
0.0
  0
LINE
  5
26D
330
18
100
AcDbEntity
  8
中心線
100
AcDbLine
 10
175.0694138996532
 20
87.61027490310414
 30
0.0
 11
182.8020836372456
 21
79.87760516551168
 31
0.0
  0
LINE
  5
26E
330
18
100
AcDbEntity
  8
中心線
100
AcDbLine
 10
175.0694138996531
 20
87.61027490310406
 30
0.0
 11
182.8020836372456
 21
79.8776051655116
 31
0.0
  0
LINE
  5
26F
330
18
100
AcDbEntity
  8
中心線
100
AcDbLine
 10
175.0694138996531
 20
105.1230336914207
 30
0.0
 11
182.8020836372456
 21
112.8557034290131
 31
0.0
  0
LINE
  5
270
330
18
100
AcDbEntity
  8
中心線
100
AcDbLine
 10
187.8130345054946
 20
108.2827629618255
 30
0.0
 11
187.8130345054946
 21
88.76155278789295
 31
0.0
  0
LINE
  5
271
330
18
100
AcDbEntity
  8
中心線
100
AcDbLine
 10
174.0284374140203
 20
104.0820572057878
 30
0.0
 11
179.513034505495
 21
109.5666542972626
 31
0.0
  0
LINE
  5
272
330
18
100
AcDbEntity
  8
中心線
100
AcDbLine
 10
180.0539182646099
 20
82.62577053814675
 30
0.0
 11
174.2698989052736
 21
88.40978989748328
 31
0.0
  0
LINE
  5
273
330
18
100
AcDbEntity
  8
中心線
100
AcDbLine
 10
180.05391826461
 20
82.62577053814721
 30
0.0
 11
174.2698989052736
 21
88.40978989748373
 31
0.0
  0
LINE
  5
275
330
18
100
AcDbEntity
  8
中心線
100
AcDbLine
 10
312.3130345054946
 20
48.98180364966113
 30
0.0
 11
312.3130345054948
 21
13.77638864846297
 31
0.0
  0
LINE
  5
276
330
18
100
AcDbEntity
  8
中心線
100
AcDbLine
 10
312.3130345054947
 20
47.95960870802844
 30
0.0
 11
312.3130345054947
 21
11.91111543071781
 31
0.0
  0
LINE
  5
277
330
18
100
AcDbEntity
  8
中心線
100
AcDbLine
 10
248.3130345054946
 20
32.72424242540785
 30
0.0
 11
248.3130345054946
 21
52.63015496648484
 31
0.0
  0
LINE
  5
278
330
18
100
AcDbEntity
  8
中心線
100
AcDbLine
 10
246.3130345054946
 20
113.1851353093083
 30
0.0
 11
246.3130345054946
 21
59.28034462608991
 31
0.0
  0
LINE
  5
279
330
18
100
AcDbEntity
  8
中心線
100
AcDbLine
 10
232.7130345054945
 20
108.2827629618258
 30
0.0
 11
232.7130345054945
 21
88.76155278789322
 31
0.0
  0
LINE
  5
27A
330
18
100
AcDbEntity
  8
中心線
100
AcDbLine
 10
286.3130345054946
 20
88.549458348239
 30
0.0
 11
286.3130345054946
 21
75.31753066750241
 31
0.0
  0
LINE
  5
27F
330
18
100
AcDbEntity
  8
中心線
100
AcDbLine
 10
416.0594916634565
 20
60.86235631061422
 30
0.0
 11
454.5006943726446
 21
60.86235631061422
 31
0.0
  0
LINE
  5
280
330
18
100
AcDbEntity
  8
中心線
100
AcDbLine
 10
439.0191292744067
 20
60.86235631061422
 30
0.0
 11
416.0594916634565
 21
60.86235631061422
 31
0.0
  0
LINE
  5
283
330
18
100
AcDbEntity
  8
中心線
100
AcDbLine
 10
387.8702389906242
 20
85.86665429726246
 30
0.0
 11
357.0432608251575
 21
85.86665429726246
 31
0.0
  0
LINE
  5
285
330
18
100
AcDbEntity
  8
中心線
100
AcDbLine
 10
406.3130345054946
 20
106.9761599075842
 30
0.0
 11
406.3130345054946
 21
73.51178265043939
 31
0.0
  0
LINE
  5
286
330
18
100
AcDbEntity
  8
中心線
100
AcDbLine
 10
374.3969258409314
 20
59.36665429726236
 30
0.0
 11
393.918136014864
 21
59.36665429726236
 31
0.0
  0
LINE
  5
28F
330
18
100
AcDbEntity
  8
中心線
100
AcDbLine
 10
686.4227426253386
 20
47.95960870803086
 30
0.0
 11
686.4227426253386
 21
11.91111543072023
 31
0.0
  0
LINE
  5
290
330
18
100
AcDbEntity
  8
中心線
100
AcDbLine
 10
686.4227426253385
 20
48.98180364966355
 30
0.0
 11
686.4227426253387
 21
13.77638864846539
 31
0.0
  0
LINE
  5
292
330
18
100
AcDbEntity
  8
中心線
100
AcDbLine
 10
686.4227426253385
 20
48.98610163630934
 30
0.0
 11
686.4227426253387
 21
13.78068663511118
 31
0.0
  0
LINE
  5
296
330
18
100
AcDbEntity
  8
中心線
100
AcDbLine
 10
726.4227426253385
 20
88.54945834823893
 30
0.0
 11
726.4227426253385
 21
75.31753066750234
 31
0.0
  0
LINE
  5
299
330
18
100
AcDbEntity
  8
中心線
100
AcDbLine
 10
799.477471164894
 20
114.8666542972624
 30
0.0
 11
824.2286739200069
 21
114.8666542972624
 31
0.0
  0
LINE
  5
29A
330
18
100
AcDbEntity
  8
中心線
100
AcDbLine
 10
841.1691997833004
 20
60.86235631061415
 30
0.0
 11
779.7870861508115
 21
60.86235631061416
 31
0.0
  0
LINE
  5
29B
330
18
100
AcDbEntity
  8
中心線
100
AcDbLine
 10
799.5066339607754
 20
59.36665429726229
 30
0.0
 11
819.027844134708
 21
59.36665429726229
 31
0.0
  0
LINE
  5
29C
330
18
100
AcDbEntity
  8
中心線
100
AcDbLine
 10
834.8655071102621
 20
96.36665429726231
 30
0.0
 11
787.0704242340584
 21
96.36665429726231
 31
0.0
  0
LINE
  5
29D
330
18
100
AcDbEntity
  8
中心線
100
AcDbLine
 10
783.1213864303124
 20
96.36665429726236
 30
0.0
 11
844.3488046726386
 21
96.36665429726234
 31
0.0
  0
LINE
  5
29E
330
18
100
AcDbEntity
  8
中心線
100
AcDbLine
 10
812.9799471104682
 20
85.86665429726239
 30
0.0
 11
782.1529689450015
 21
85.86665429726239
 31
0.0
  0
LINE
  5
2A0
330
18
100
AcDbEntity
  8
中心線
100
AcDbLine
 10
831.4227426253385
 20
106.9761599075842
 30
0.0
 11
831.4227426253385
 21
73.51178265043932
 31
0.0
  0
LINE
  5
2A4
330
18
100
AcDbEntity
  8
中心線
100
AcDbLine
 10
936.4227426253385
 20
48.9861016363093
 30
0.0
 11
936.4227426253387
 21
13.78068663511114
 31
0.0
  0
LINE
  5
2A6
330
18
100
AcDbEntity
  8
中心線
100
AcDbLine
 10
896.4227426253385
 20
88.54945834823897
 30
0.0
 11
896.4227426253385
 21
75.31753066750238
 31
0.0
  0
LINE
  5
2B3
330
18
100
AcDbEntity
  8
中心線
100
AcDbLine
 10
184.8130345054949
 20
461.9037220591275
 30
0.0
 11
184.8130345054949
 21
432.4917024882274
 31
0.0
  0
LINE
  5
2B4
330
18
100
AcDbEntity
  8
中心線
100
AcDbLine
 10
127.8130345054949
 20
432.7033004646613
 30
0.0
 11
127.8130345054949
 21
461.9037220591275
 31
0.0
  0
LINE
  5
2B5
330
18
100
AcDbEntity
  8
中心線
100
AcDbLine
 10
270.3130345054949
 20
446.6695071103309
 30
0.0
 11
270.3130345054949
 21
411.3519694292243
 31
0.0
  0
LINE
  5
2B6
330
18
100
AcDbEntity
  8
中心線
100
AcDbLine
 10
213.3130345054949
 20
411.351969429224
 30
0.0
 11
213.3130345054949
 21
447.3902731480564
 31
0.0
  0
LINE
  5
2B7
330
18
100
AcDbEntity
  8
中心線
100
AcDbLine
 10
156.3130345054949
 20
447.3902731480566
 30
0.0
 11
156.3130345054949
 21
409.9104364374955
 31
0.0
  0
LINE
  5
2B8
330
18
100
AcDbEntity
  8
中心線
100
AcDbLine
 10
282.3130345054947
 20
466.5711212886406
 30
0.0
 11
282.3130345054947
 21
429.3711212886403
 31
0.0
  0
LINE
  5
2B9
330
18
100
AcDbEntity
  8
中心線
100
AcDbLine
 10
99.3130345054949
 20
409.9104364374953
 30
0.0
 11
99.3130345054949
 21
447.3902731480566
 31
0.0
  0
LINE
  5
2BA
330
18
100
AcDbEntity
  8
中心線
100
AcDbLine
 10
342.3130345054946
 20
444.4594745458872
 30
0.0
 11
342.3130345054946
 21
413.7598684196104
 31
0.0
  0
LINE
  5
2BB
330
18
100
AcDbEntity
  8
中心線
100
AcDbLine
 10
154.072501309053
 20
211.2741517751996
 30
0.0
 11
322.5646670771227
 21
211.2741517751996
 31
0.0
  0
LINE
  5
2BC
330
18
100
AcDbEntity
  8
中心線
100
AcDbLine
 10
288.944923325722
 20
281.37112128864
 30
0.0
 11
338.4484586090859
 21
281.37112128864
 31
0.0
  0
LINE
  5
2BD
330
18
100
AcDbEntity
  8
中心線
100
AcDbLine
 10
339.7149262877717
 20
281.3711212886402
 30
0.0
 11
172.6106206484631
 21
281.3711212886403
 31
0.0
  0
LINE
  5
2BE
330
18
100
AcDbEntity
  8
中心線
100
AcDbLine
 10
186.9100906233173
 20
224.2741517751996
 30
0.0
 11
339.7149262877717
 21
224.2741517751996
 31
0.0
  0
LINE
  5
2BF
330
18
100
AcDbEntity
  8
中心線
100
AcDbLine
 10
339.7149262877717
 20
176.8666542972624
 30
0.0
 11
186.9100906233173
 21
176.8666542972624
 31
0.0
  0
LINE
  5
2C1
330
18
100
AcDbEntity
  8
中心線
100
AcDbLine
 10
99.3130345054949
 20
416.3131143230825
 30
0.0
 11
99.3130345054949
 21
268.9144644278743
 31
0.0
  0
LINE
  5
2C2
330
18
100
AcDbEntity
  8
中心線
100
AcDbLine
 10
167.3130345054947
 20
278.9635753948943
 30
0.0
 11
167.313034505495
 21
307.4551831926304
 31
0.0
  0
LINE
  5
2C3
330
18
100
AcDbEntity
  8
中心線
100
AcDbLine
 10
245.7130345054945
 20
285.5601322588245
 30
0.0
 11
245.7130345054944
 21
276.2154127208692
 31
0.0
  0
LINE
  5
2C4
330
18
100
AcDbEntity
  8
中心線
100
AcDbLine
 10
245.7130345054944
 20
277.1821103184557
 30
0.0
 11
245.7130345054945
 21
286.526829856411
 31
0.0
  0
LINE
  5
2C5
330
18
100
AcDbEntity
  8
中心線
100
AcDbLine
 10
194.3130345054946
 20
270.0950582052699
 30
0.0
 11
194.3130345054947
 21
293.5392617546838
 31
0.0
  0
LINE
  5
2C6
330
18
100
AcDbEntity
  8
中心線
100
AcDbLine
 10
141.3130345054946
 20
206.2539670651753
 30
0.0
 11
141.3130345054946
 21
337.6343341470341
 31
0.0
  0
LINE
  5
2C7
330
18
100
AcDbEntity
  8
中心線
100
AcDbLine
 10
141.3130345054946
 20
206.2539670651753
 30
0.0
 11
141.3130345054946
 21
161.0583920890243
 31
0.0
  0
LINE
  5
2C8
330
18
100
AcDbEntity
  8
中心線
100
AcDbLine
 10
141.3130345054946
 20
161.0583920890243
 30
0.0
 11
141.3130345054945
 21
128.8666542972624
 31
0.0
  0
LINE
  5
2C9
330
18
100
AcDbEntity
  8
中心線
100
AcDbLine
 10
166.3130345054949
 20
167.1747193809293
 30
0.0
 11
166.3130345054949
 21
157.8035370738886
 31
0.0
  0
LINE
  5
2CA
330
18
100
AcDbEntity
  8
中心線
100
AcDbLine
 10
148.2307941625957
 20
128.8666542972624
 30
0.0
 11
176.3767898208232
 21
128.8666542972624
 31
0.0
  0
LINE
  5
2CB
330
18
100
AcDbEntity
  8
中心線
100
AcDbLine
 10
186.3130345054947
 20
188.7827629618255
 30
0.0
 11
186.3130345054947
 21
169.2615527878929
 31
0.0
  0
LINE
  5
2CC
330
18
100
AcDbEntity
  8
中心線
100
AcDbLine
 10
199.3130345054946
 20
224.2741517751996
 30
0.0
 11
137.7460027005334
 21
224.2741517751996
 31
0.0
  0
LINE
  5
2CD
330
18
100
AcDbEntity
  8
中心線
100
AcDbLine
 10
170.3130345054947
 20
220.0851408050152
 30
0.0
 11
170.3130345054947
 21
229.4298603429705
 31
0.0
  0
LINE
  5
2CE
330
18
100
AcDbEntity
  8
中心線
100
AcDbLine
 10
170.3130345054947
 20
228.463162745384
 30
0.0
 11
170.3130345054947
 21
219.1184432074286
 31
0.0
  0
LINE
  5
2CF
330
18
100
AcDbEntity
  8
中心線
100
AcDbLine
 10
186.3130345054948
 20
236.1902604397627
 30
0.0
 11
186.3130345054948
 21
216.6690502658301
 31
0.0
  0
LINE
  5
2D0
330
18
100
AcDbEntity
  8
中心線
100
AcDbLine
 10
236.3130345054946
 20
126.4064517735877
 30
0.0
 11
236.3130345054946
 21
163.3267790367003
 31
0.0
  0
LINE
  5
2D1
330
18
100
AcDbEntity
  8
中心線
100
AcDbLine
 10
226.1314126199857
 20
150.8666542972625
 30
0.0
 11
246.3130345054946
 21
150.8666542972625
 31
0.0
  0
LINE
  5
2D2
330
18
100
AcDbEntity
  8
中心線
  6
HIDDEN
100
AcDbLine
 10
272.3130345054946
 20
148.8666542972625
 30
0.0
 11
272.3130345054946
 21
139.8666542972625
 31
0.0
  0
LINE
  5
2D3
330
18
100
AcDbEntity
  8
中心線
100
AcDbLine
 10
266.3130345054946
 20
157.4965528892477
 30
0.0
 11
266.3130345054946
 21
147.0105379189764
 31
0.0
  0
LINE
  5
2D4
330
18
100
AcDbEntity
  8
中心線
100
AcDbLine
 10
259.7130345054944
 20
188.7827629618256
 30
0.0
 11
259.7130345054944
 21
169.261552787893
 31
0.0
  0
LINE
  5
2D5
330
18
100
AcDbEntity
  8
中心線
100
AcDbLine
 10
229.7130345054945
 20
236.1902604397628
 30
0.0
 11
229.7130345054945
 21
216.6690502658302
 31
0.0
  0
LINE
  5
2D6
330
18
100
AcDbEntity
  8
中心線
100
AcDbLine
 10
259.7130345054944
 20
236.1902604397628
 30
0.0
 11
259.7130345054944
 21
216.6690502658302
 31
0.0
  0
LINE
  5
2D9
330
18
100
AcDbEntity
  8
中心線
100
AcDbLine
 10
216.8589862365472
 20
292.8711212886403
 30
0.0
 11
154.6699499079141
 21
292.8711212886403
 31
0.0
  0
LINE
  5
2DA
330
18
100
AcDbEntity
  8
中心線
100
AcDbLine
 10
216.463056512819
 20
281.3711212886403
 30
0.0
 11
175.8857242411605
 21
281.3711212886403
 31
0.0
  0
LINE
  5
2DB
330
18
100
AcDbEntity
  8
中心線
100
AcDbLine
 10
193.0899142890886
 20
281.3711212886401
 30
0.0
 11
288.944923325722
 21
281.37112128864
 31
0.0
  0
LINE
  5
2DC
330
18
100
AcDbEntity
  8
中心線
100
AcDbLine
 10
131.2843894969892
 20
389.3448578552463
 30
0.0
 11
131.2843894969892
 21
360.1447294405918
 31
0.0
  0
LINE
  5
2DD
330
18
100
AcDbEntity
  8
中心線
100
AcDbLine
 10
181.8077508653685
 20
281.3711212886403
 30
0.0
 11
141.1730297964193
 21
281.3711212886403
 31
0.0
  0
LINE
  5
2DE
330
18
100
AcDbEntity
  8
中心線
100
AcDbLine
 10
108.3613181603375
 20
389.3448578552463
 30
0.0
 11
157.7595508978184
 21
389.3448578552463
 31
0.0
  0
LINE
  5
2DF
330
18
100
AcDbEntity
  8
中心線
100
AcDbLine
 10
131.2843894969892
 20
406.6432436769369
 30
0.0
 11
131.2843894969892
 21
371.3257059958303
 31
0.0
  0
LINE
  5
2E4
330
18
100
AcDbEntity
  8
中心線
100
AcDbLine
 10
210.8363631477283
 20
292.8711212886403
 30
0.0
 11
229.008153628261
 21
292.8711212886403
 31
0.0
  0
LINE
  5
2E5
330
18
100
AcDbEntity
  8
中心線
100
AcDbLine
 10
210.8363631477282
 20
281.3711212886403
 30
0.0
 11
229.008153628261
 21
281.3711212886403
 31
0.0
  0
LINE
  5
2E8
330
18
100
AcDbEntity
  8
中心線
100
AcDbLine
 10
270.3130345054949
 20
429.3711212886403
 30
0.0
 11
270.3130345054949
 21
400.1709928739858
 31
0.0
  0
LINE
  5
2EB
330
18
100
AcDbEntity
  8
中心線
100
AcDbLine
 10
342.3130345054946
 20
214.4594745458872
 30
0.0
 11
342.3130345054946
 21
183.7598684196104
 31
0.0
  0
LINE
  5
2EE
330
18
100
AcDbEntity
  8
中心線
  6
HIDDEN
100
AcDbLine
 10
338.3130345054946
 20
148.8666542972624
 30
0.0
 11
338.3130345054946
 21
139.8666542972624
 31
0.0
  0
LINE
  5
2F1
330
18
100
AcDbEntity
  8
中心線
100
AcDbLine
 10
347.0908619540961
 20
187.3666542972627
 30
0.0
 11
337.8736899233387
 21
187.3666542972627
 31
0.0
  0
LINE
  5
2F2
330
18
100
AcDbEntity
  8
中心線
100
AcDbLine
 10
324.677480811809
 20
199.3666542972625
 30
0.0
 11
351.6706272002522
 21
199.3666542972625
 31
0.0
  0
LINE
  5
2F4
330
18
100
AcDbEntity
  8
中心線
100
AcDbLine
 10
337.6542339925365
 20
211.3666542972627
 30
0.0
 11
347.0908619540961
 21
211.3666542972627
 31
0.0
  0
LINE
  5
2F5
330
18
100
AcDbEntity
  8
中心線
100
AcDbLine
 10
324.4619547617141
 20
213.8666542972625
 30
0.0
 11
340.0433640771122
 21
213.8666542972625
 31
0.0
  0
LINE
  5
2F6
330
18
100
AcDbEntity
  8
中心線
100
AcDbLine
 10
337.6254132233136
 20
213.8666542972625
 30
0.0
 11
324.2385670387831
 21
213.8666542972625
 31
0.0
  0
LINE
  5
2F8
330
18
100
AcDbEntity
  8
中心線
100
AcDbLine
 10
324.677480811809
 20
429.3666542972625
 30
0.0
 11
351.6706272002522
 21
429.3666542972625
 31
0.0
  0
LINE
  5
2F9
330
18
100
AcDbEntity
  8
中心線
100
AcDbLine
 10
347.0908619540961
 20
417.3666542972625
 30
0.0
 11
337.8736899233387
 21
417.3666542972625
 31
0.0
  0
LINE
  5
2FF
330
18
100
AcDbEntity
  8
中心線
100
AcDbLine
 10
170.7735883340636
 20
447.3711212886403
 30
0.0
 11
204.4412420412762
 21
447.3711212886403
 31
0.0
  0
LINE
  5
300
330
18
100
AcDbEntity
  8
中心線
100
AcDbLine
 10
106.9360263224187
 20
525.3711212886408
 30
0.0
 11
263.2812756552664
 21
525.3711212886407
 31
0.0
  0
LINE
  5
303
330
18
100
AcDbEntity
  8
中心線
100
AcDbLine
 10
182.3130345054949
 20
487.8342833381965
 30
0.0
 11
182.3130345054949
 21
569.2228417962868
 31
0.0
  0
LINE
  5
304
330
18
100
AcDbEntity
  8
中心線
100
AcDbLine
 10
144.8871499659178
 20
447.3711212886403
 30
0.0
 11
107.6732082444948
 21
447.3711212886403
 31
0.0
  0
LINE
  5
305
330
18
100
AcDbEntity
  8
中心線
100
AcDbLine
 10
127.8130345054949
 20
447.3711212886403
 30
0.0
 11
184.8130345054949
 21
447.3711212886403
 31
0.0
  0
LINE
  5
312
330
18
100
AcDbEntity
  8
中心線
100
AcDbLine
 10
269.3130345054947
 20
466.5711212886406
 30
0.0
 11
282.3130345054947
 21
466.5711212886406
 31
0.0
  0
LINE
  5
31A
330
18
100
AcDbEntity
  8
中心線
100
AcDbLine
 10
337.6542339925365
 20
441.3666542972625
 30
0.0
 11
347.0908619540961
 21
441.3666542972625
 31
0.0
  0
LINE
  5
31B
330
18
100
AcDbEntity
  8
中心線
100
AcDbLine
 10
323.8173740459343
 20
470.8666542972625
 30
0.0
 11
340.7220043961685
 21
470.8666542972625
 31
0.0
  0
LINE
  5
329
330
18
100
AcDbEntity
  8
中心線
100
AcDbLine
 10
763.4227426253386
 20
443.6684697837301
 30
0.0
 11
763.4227426253386
 21
403.2070738752001
 31
0.0
  0
LINE
  5
32A
330
18
100
AcDbEntity
  8
中心線
100
AcDbLine
 10
795.4227426253386
 20
405.7625324214288
 30
0.0
 11
795.4227426253386
 21
443.6684697837301
 31
0.0
  0
LINE
  5
32B
330
18
100
AcDbEntity
  8
中心線
100
AcDbLine
 10
827.4227426253386
 20
405.7625324214288
 30
0.0
 11
827.4227426253386
 21
445.3721107566381
 31
0.0
  0
LINE
  5
32C
330
18
100
AcDbEntity
  8
中心線
100
AcDbLine
 10
859.4227426253386
 20
445.3721107566381
 30
0.0
 11
859.4227426253386
 21
405.1236648717387
 31
0.0
  0
LINE
  5
32D
330
18
100
AcDbEntity
  8
中心線
100
AcDbLine
 10
894.4227426253389
 20
414.8823102121454
 30
0.0
 11
894.4227426253389
 21
442.2415435591164
 31
0.0
  0
LINE
  5
32E
330
18
100
AcDbEntity
  8
中心線
100
AcDbLine
 10
904.4227426253386
 20
424.3711212886404
 30
0.0
 11
904.4227426253386
 21
441.1235699486
 31
0.0
  0
LINE
  5
32F
330
18
100
AcDbEntity
  8
中心線
100
AcDbLine
 10
811.4227426253386
 20
366.8837435905638
 30
0.0
 11
811.4227426253386
 21
538.5239993420647
 31
0.0
  0
LINE
  5
332
330
18
100
AcDbEntity
  8
中心線
100
AcDbLine
 10
756.3379612217105
 20
429.3711212886404
 30
0.0
 11
907.6573206563959
 21
429.3711212886404
 31
0.0
  0
LINE
  5
333
330
18
100
AcDbEntity
  8
中心線
100
AcDbLine
 10
755.0419981632357
 20
429.3711212886404
 30
0.0
 11
896.5418633075407
 21
429.3711212886404
 31
0.0
  0
LINE
  5
334
330
18
100
AcDbEntity
  8
中心線
100
AcDbLine
 10
761.5867387503392
 20
129.8666542972624
 30
0.0
 11
781.4227426253385
 21
129.8666542972624
 31
0.0
  0
LINE
  5
335
330
18
100
AcDbEntity
  8
中心線
100
AcDbLine
 10
875.6425571319822
 20
176.8666542972624
 30
0.0
 11
742.3734498752368
 21
176.8666542972624
 31
0.0
  0
LINE
  5
336
330
18
100
AcDbEntity
  8
中心線
100
AcDbLine
 10
742.3734498752368
 20
176.8666542972624
 30
0.0
 11
875.6425571319822
 21
176.8666542972624
 31
0.0
  0
LINE
  5
337
330
18
100
AcDbEntity
  8
中心線
100
AcDbLine
 10
874.3857112177097
 20
224.2741517751996
 30
0.0
 11
748.3857112177096
 21
224.2741517751996
 31
0.0
  0
LINE
  5
338
330
18
100
AcDbEntity
  8
中心線
100
AcDbLine
 10
683.0812432252293
 20
281.3711212886402
 30
0.0
 11
937.5174985391201
 21
281.3711212886402
 31
0.0
  0
LINE
  5
339
330
18
100
AcDbEntity
  8
中心線
100
AcDbLine
 10
735.4227426253385
 20
222.8666542972623
 30
0.0
 11
735.4227426253385
 21
353.0297856579258
 31
0.0
  0
LINE
  5
33D
330
18
100
AcDbEntity
  8
中心線
100
AcDbLine
 10
674.1960491857609
 20
130.6727894069002
 30
0.0
 11
735.4234674280872
 21
130.6727894069002
 31
0.0
  0
LINE
  5
33E
330
18
100
AcDbEntity
  8
中心線
100
AcDbLine
 10
725.9401698657107
 20
130.6727894069001
 30
0.0
 11
678.1450869895068
 21
130.6727894069001
 31
0.0
  0
LINE
  5
343
330
18
100
AcDbEntity
  8
中心線
100
AcDbLine
 10
725.8978106441831
 20
364.3711212886403
 30
0.0
 11
725.8978106441831
 21
344.4956137756211
 31
0.0
  0
LINE
  5
344
330
18
100
AcDbEntity
  8
中心線
100
AcDbLine
 10
657.4011029094287
 20
356.12112128864
 30
0.0
 11
676.4227426253386
 21
356.12112128864
 31
0.0
  0
LINE
  5
345
330
18
100
AcDbEntity
  8
中心線
100
AcDbLine
 10
713.9615402354691
 20
354.3711212886402
 30
0.0
 11
744.3938334841084
 21
354.3711212886402
 31
0.0
  0
LINE
  5
346
330
18
100
AcDbEntity
  8
中心線
100
AcDbLine
 10
673.6727426253386
 20
390.3889146133586
 30
0.0
 11
673.6727426253386
 21
384.245076294105
 31
0.0
  0
LINE
  5
347
330
18
100
AcDbEntity
  8
中心線
100
AcDbLine
 10
673.6727426253386
 20
391.694412792238
 30
0.0
 11
673.6727426253386
 21
381.0156129095568
 31
0.0
  0
LINE
  5
348
330
18
100
AcDbEntity
  8
中心線
100
AcDbLine
 10
669.7691738787443
 20
387.1211212886402
 30
0.0
 11
677.4010669446351
 21
387.1211212886402
 31
0.0
  0
LINE
  5
349
330
18
100
AcDbEntity
  8
中心線
100
AcDbLine
 10
674.1727426253386
 20
397.1211212886402
 30
0.0
 11
665.5079884247458
 21
397.1211212886402
 31
0.0
  0
LINE
  5
34A
330
18
100
AcDbEntity
  8
中心線
100
AcDbLine
 10
683.6727426253386
 20
381.0156129095568
 30
0.0
 11
683.6727426253386
 21
389.2300770468192
 31
0.0
  0
LINE
  5
34D
330
18
100
AcDbEntity
  8
中心線
100
AcDbLine
 10
755.0419981632357
 20
429.3711212886404
 30
0.0
 11
724.3618989091007
 21
429.3711212886404
 31
0.0
  0
LINE
  5
34E
330
18
100
AcDbEntity
  8
中心線
100
AcDbLine
 10
748.4227426253386
 20
438.2353056889152
 30
0.0
 11
748.4227426253386
 21
420.2894894575994
 31
0.0
  0
LINE
  5
34F
330
18
100
AcDbEntity
  8
中心線
100
AcDbLine
 10
887.4227426253385
 20
353.0297856579257
 30
0.0
 11
887.4227426253385
 21
222.8666542972623
 31
0.0
  0
LINE
  5
350
330
18
100
AcDbEntity
  8
中心線
100
AcDbLine
 10
844.4227426253385
 20
192.1314903600154
 30
0.0
 11
844.4227426253385
 21
249.4245983562763
 31
0.0
  0
LINE
  5
351
330
18
100
AcDbEntity
  8
中心線
100
AcDbLine
 10
778.4227426253385
 20
249.6183743552764
 30
0.0
 11
778.4227426253385
 21
192.1314903600154
 31
0.0
  0
LINE
  5
352
330
18
100
AcDbEntity
  8
中心線
100
AcDbLine
 10
841.4227426253385
 20
127.9000468891566
 30
0.0
 11
841.4227426253386
 21
262.6608054382185
 31
0.0
  0
LINE
  5
353
330
18
100
AcDbEntity
  8
中心線
100
AcDbLine
 10
781.4227426253385
 20
258.6972540923067
 30
0.0
 11
781.4227426253385
 21
127.9000468891566
 31
0.0
  0
LINE
  5
354
330
18
100
AcDbEntity
  8
中心線
100
AcDbLine
 10
781.4227426253385
 20
129.8666542972624
 30
0.0
 11
841.4227426253385
 21
129.8666542972624
 31
0.0
  0
LINE
  5
355
330
18
100
AcDbEntity
  8
中心線
100
AcDbLine
 10
771.4227426253385
 20
135.5902440404674
 30
0.0
 11
771.4227426253385
 21
120.6278280326209
 31
0.0
  0
LINE
  5
356
330
18
100
AcDbEntity
  8
中心線
100
AcDbLine
 10
841.4227426253385
 20
129.8666542972624
 30
0.0
 11
864.2583985164135
 21
129.8666542972624
 31
0.0
  0
LINE
  5
357
330
18
100
AcDbEntity
  8
中心線
100
AcDbLine
 10
851.4227426253385
 20
135.5902440404674
 30
0.0
 11
851.4227426253385
 21
121.5438937834737
 31
0.0
  0
LINE
  5
35A
330
18
100
AcDbEntity
  8
中心線
100
AcDbLine
 10
921.3317798056337
 20
182.4495690256721
 30
0.0
 11
921.3317798056337
 21
242.4495690256721
 31
0.0
  0
LINE
  5
35F
330
18
100
AcDbEntity
  8
中心線
100
AcDbLine
 10
964.1881703737015
 20
211.2741517751996
 30
0.0
 11
875.7057987824753
 21
211.2741517751996
 31
0.0
  0
LINE
  5
361
330
18
100
AcDbEntity
  8
中心線
100
AcDbLine
 10
779.4227426253386
 20
438.2353056889152
 30
0.0
 11
779.4227426253386
 21
420.2894894575994
 31
0.0
  0
LINE
  5
362
330
18
100
AcDbEntity
  8
中心線
100
AcDbLine
 10
811.4227426253386
 20
437.2599894242979
 30
0.0
 11
811.4227426253386
 21
420.0944262046761
 31
0.0
  0
LINE
  5
363
330
18
100
AcDbEntity
  8
中心線
100
AcDbLine
 10
843.4227426253386
 20
437.4550526772213
 30
0.0
 11
843.4227426253386
 21
421.2648057222169
 31
0.0
  0
LINE
  5
364
330
18
100
AcDbEntity
  8
中心線
100
AcDbLine
 10
874.4227426253389
 20
437.8451791830684
 30
0.0
 11
874.4227426253389
 21
420.8746792163698
 31
0.0
  0
LINE
  5
365
330
18
100
AcDbEntity
  8
中心線
100
AcDbLine
 10
896.4227426253386
 20
383.0160633617337
 30
0.0
 11
896.4227426253386
 21
345.3065701617046
 31
0.0
  0
LINE
  5
366
330
18
100
AcDbEntity
  8
中心線
100
AcDbLine
 10
898.4227426253386
 20
370.3711212886403
 30
0.0
 11
898.4227426253386
 21
351.6970452635497
 31
0.0
  0
LINE
  5
367
330
18
100
AcDbEntity
  8
中心線
100
AcDbLine
 10
907.0683144207866
 20
354.3711212886403
 30
0.0
 11
883.4227426253385
 21
354.2794850960561
 31
0.0
  0
LINE
  5
368
330
18
100
AcDbEntity
  8
中心線
100
AcDbLine
 10
887.4310530469753
 20
354.3711212886403
 30
0.0
 11
907.0683144207866
 21
354.3711212886403
 31
0.0
  0
LINE
  5
369
330
18
100
AcDbEntity
  8
中心線
100
AcDbLine
 10
965.4443823412485
 20
356.12112128864
 30
0.0
 11
946.4227426253385
 21
356.12112128864
 31
0.0
  0
LINE
  5
36A
330
18
100
AcDbEntity
  8
中心線
100
AcDbLine
 10
906.9227426253386
 20
429.3711212886404
 30
0.0
 11
965.614818000428
 21
429.3711212886404
 31
0.0
  0
LINE
  5
36B
330
18
100
AcDbEntity
  8
中心線
100
AcDbLine
 10
898.4227426253386
 20
387.7491072780996
 30
0.0
 11
898.4227426253386
 21
374.3711212886403
 31
0.0
  0
LINE
  5
36C
330
18
100
AcDbEntity
  8
中心線
100
AcDbLine
 10
880.4358865303599
 20
407.3711212886407
 30
0.0
 11
910.6780506519405
 21
407.3711212886407
 31
0.0
  0
LINE
  5
36D
330
18
100
AcDbEntity
  8
中心線
100
AcDbLine
 10
904.4227426253386
 20
412.3527355672467
 30
0.0
 11
904.4227426253386
 21
424.3711212886404
 31
0.0
  0
LINE
  5
370
330
18
100
AcDbEntity
  8
中心線
100
AcDbLine
 10
941.0227426253392
 20
429.3711212886404
 30
0.0
 11
965.614818000428
 21
429.3711212886404
 31
0.0
  0
LINE
  5
373
330
18
100
AcDbEntity
  8
中心線
100
AcDbLine
 10
934.4227426253395
 20
424.9541217475302
 30
0.0
 11
934.4227426253395
 21
433.5282992608553
 31
0.0
  0
LINE
  5
374
330
18
100
AcDbEntity
  8
中心線
100
AcDbLine
 10
934.4227426253395
 20
433.7881208297507
 30
0.0
 11
934.4227426253395
 21
425.2139433164256
 31
0.0
  0
LINE
  5
375
330
18
100
AcDbEntity
  8
中心線
100
AcDbLine
 10
934.4227426253395
 20
433.7881208297507
 30
0.0
 11
934.4227426253395
 21
425.2139433164256
 31
0.0
  0
LINE
  5
376
330
18
100
AcDbEntity
  8
中心線
100
AcDbLine
 10
934.4227426253395
 20
424.9541217475302
 30
0.0
 11
934.4227426253395
 21
433.5282992608553
 31
0.0
  0
LINE
  5
382
330
18
100
AcDbEntity
  8
中心線
100
AcDbLine
 10
661.609472579739
 20
481.37112128864
 30
0.0
 11
677.8867674211975
 21
481.37112128864
 31
0.0
  0
LINE
  5
387
330
18
100
AcDbEntity
  8
中心線
100
AcDbLine
 10
660.6253232128468
 20
591.37112128864
 30
0.0
 11
673.9455661014974
 21
591.37112128864
 31
0.0
  0
LINE
  5
389
330
18
100
AcDbEntity
  8
中心線
100
AcDbLine
 10
811.4227426253386
 20
538.5239993420647
 30
0.0
 11
811.4227426253386
 21
631.3953454326842
 31
0.0
  0
LINE
  5
38C
330
18
100
AcDbEntity
  8
中心線
100
AcDbLine
 10
934.4227426253395
 20
447.3711212886404
 30
0.0
 11
905.5661114701786
 21
447.3711212886404
 31
0.0
  0
LINE
  5
38D
330
18
100
AcDbEntity
  8
中心線
100
AcDbLine
 10
919.4181977789264
 20
455.8711212886404
 30
0.0
 11
910.6692625440133
 21
455.8711212886404
 31
0.0
  0
LINE
  5
38E
330
18
100
AcDbEntity
  8
中心線
100
AcDbLine
 10
955.4148180004287
 20
456.3711212886404
 30
0.0
 11
947.5907086666222
 21
456.3711212886404
 31
0.0
  0
LINE
  5
38F
330
18
100
AcDbEntity
  8
中心線
100
AcDbLine
 10
962.2201620378305
 20
481.3711212886398
 30
0.0
 11
945.0329053220808
 21
481.3711212886398
 31
0.0
  0
LINE
  5
392
330
18
100
AcDbEntity
  8
中心線
100
AcDbLine
 10
962.2201620378305
 20
591.3711212886398
 30
0.0
 11
948.8999191491798
 21
591.3711212886398
 31
0.0
  0
LWPOLYLINE
  5
443
330
18
100
AcDbEntity
  8
0
100
AcDbPolyline
 90
        4
 70
     1
 43
0.0
 10
56.31303450549461
 20
340.4300781111755
 10
256.3130345054946
 20
340.4300781111755
 10
256.3130345054946
 20
240.4300781111755
 10
56.31303450549461
 20
240.4300781111755
  0
LINE
  5
496
330
18
100
AcDbEntity
  8
隠れ線
  6
CENTER
100
AcDbLine
 10
340.6130345054949
 20
1104.065610112306
 30
0.0
 11
446.3130345054947
 21
1104.065610112306
 31
0.0
  0
LINE
  5
497
330
18
100
AcDbEntity
  8
隠れ線
  6
CENTER
100
AcDbLine
 10
446.3130345054947
 20
1104.065610112306
 30
0.0
 11
446.3130345054947
 21
984.0656101123059
 31
0.0
  0
LINE
  5
498
330
18
100
AcDbEntity
  8
隠れ線
  6
CENTER
100
AcDbLine
 10
446.3130345054947
 20
984.0656101123059
 30
0.0
 11
340.6130345054949
 21
984.0656101123059
 31
0.0
  0
MTEXT
  5
4C6
330
18
100
AcDbEntity
  8
外形
100
AcDbMText
 10
673.7664856073691
 20
1059.516886996653
 30
0.0
 40
30.0
 41
914.7538107323471
 46
80.0
 71
     1
 72
     5
  1
{\Lモバイル寿司ロボット（TF-1(M)型）／　製品仕様書}
 73
     1
 44
1.0
1001
ACAD
1000
ACAD_MTEXT_DEFINED_HEIGHT_BEGIN
1070
    46
1040
80.0
1000
ACAD_MTEXT_DEFINED_HEIGHT_END
  0
LWPOLYLINE
  5
4CC
330
18
100
AcDbEntity
  8
外形
100
AcDbPolyline
 90
        4
 70
     1
 43
0.0
 10
-143.7407675805853
 20
1172.457864376077
 10
1718.94787582585
 20
1172.457864376077
 10
1718.94787582585
 20
-162.4936819826412
 10
-143.7407675805853
 20
-162.4936819826412
  0
LINE
  5
4E2
330
18
100
AcDbEntity
  8
外形
100
AcDbLine
 10
22.31303450549476
 20
154.4316059210605
 30
0.0
 11
22.31303450549478
 21
474.4316059210605
 31
0.0
  0
LINE
  5
4E3
330
18
100
AcDbEntity
  8
外形
100
AcDbLine
 10
22.31303450549476
 20
154.4316059210605
 30
0.0
 11
347.3130345054948
 21
154.4316059210605
 31
0.0
  0
LINE
  5
4E5
330
18
100
AcDbEntity
  8
外形
100
AcDbLine
 10
285.3130345054948
 20
474.4316059210605
 30
0.0
 11
285.3130345054947
 21
259.4316059210605
 31
0.0
  0
LINE
  5
4E7
330
18
100
AcDbEntity
  8
外形
100
AcDbLine
 10
347.3130345054948
 20
154.4316059210605
 30
0.0
 11
347.3130345054948
 21
176.4316059210605
 31
0.0
  0
LINE
  5
4E8
330
18
100
AcDbEntity
  8
外形
100
AcDbLine
 10
347.3130345054948
 20
176.4316059210605
 30
0.0
 11
260.3130345054947
 21
176.4316059210605
 31
0.0
  0
LINE
  5
4E9
330
18
100
AcDbEntity
  8
外形
100
AcDbLine
 10
260.3130345054947
 20
481.0601827661876
 30
0.0
 11
260.3130345054947
 21
176.4316059210605
 31
0.0
  0
CIRCLE
  5
4EC
330
18
100
AcDbEntity
  8
外形
100
AcDbCircle
 10
152.3130345054948
 20
386.4316059210605
 30
0.0
 40
5.0
  0
ARC
  5
4ED
330
18
100
AcDbEntity
  8
外形
100
AcDbCircle
 10
152.3130345054948
 20
386.4316059210605
 30
0.0
 40
25.0
100
AcDbArc
 50
138.5903778907291
 51
41.40962210927088
  0
ARC
  5
4F1
330
18
100
AcDbEntity
  8
外形
100
AcDbCircle
 10
153.8130345054948
 20
28.93160592106074
 30
0.0
 40
464.5024219527814
100
AcDbArc
 50
73.55477188905213
 51
106.4452281109479
  0
LINE
  5
4F3
330
18
100
AcDbEntity
  8
外形
100
AcDbLine
 10
260.3130345054947
 20
229.4316059210605
 30
0.0
 11
263.3130345054947
 21
229.4316059210605
 31
0.0
  0
ARC
  5
4F4
330
18
100
AcDbEntity
  8
外形
100
AcDbCircle
 10
297.8942367940459
 20
227.1387242427897
 30
0.0
 40
34.65713286052746
100
AcDbArc
 50
111.2857274415834
 51
176.2065970835276
  0
LINE
  5
4F6
330
18
100
AcDbEntity
  8
外形
100
AcDbLine
 10
164.8130345054948
 20
419.503497309368
 30
0.0
 11
164.8130345054948
 21
581.4316059210605
 31
0.0
  0
LINE
  5
4F7
330
18
100
AcDbEntity
  8
外形
100
AcDbLine
 10
139.8130345054948
 20
419.503497309368
 30
0.0
 11
139.8130345054948
 21
581.4316059210605
 31
0.0
  0
LINE
  5
4F8
330
18
100
AcDbEntity
  8
外形
100
AcDbLine
 10
139.8130345054948
 20
581.4316059210605
 30
0.0
 11
164.8130345054948
 21
581.4316059210605
 31
0.0
  0
ARC
  5
4F9
330
18
100
AcDbEntity
  8
外形
100
AcDbCircle
 10
114.8130345054948
 20
419.503497309368
 30
0.0
 40
25.0
100
AcDbArc
 50
318.590377890729
 51
0.0
  0
ARC
  5
4FA
330
18
100
AcDbEntity
  8
外形
100
AcDbCircle
 10
189.8130345054948
 20
419.503497309368
 30
0.0
 40
25.0
100
AcDbArc
 50
180.0
 51
221.4096221092709
  0
LINE
  5
4FB
330
18
100
AcDbEntity
  8
外形
100
AcDbLine
 10
356.3130345054948
 20
178.4316059210605
 30
0.0
 11
260.3130345054947
 21
178.4316059210605
 31
0.0
  0
LINE
  5
4FC
330
18
100
AcDbEntity
  8
外形
100
AcDbLine
 10
356.3130345054948
 20
178.4316059210605
 30
0.0
 11
356.3130345054948
 21
186.4316059210605
 31
0.0
  0
LINE
  5
4FD
330
18
100
AcDbEntity
  8
外形
100
AcDbLine
 10
356.3130345054948
 20
186.4316059210605
 30
0.0
 11
260.3130345054947
 21
186.4316059210605
 31
0.0
  0
LINE
  5
4FE
330
18
100
AcDbEntity
  8
外形
100
AcDbLine
 10
22.31303450549476
 20
154.4316059210605
 30
0.0
 11
42.31303450549476
 21
154.4316059210605
 31
0.0
  0
LINE
  5
502
330
18
100
AcDbEntity
  8
外形
100
AcDbLine
 10
42.31303450549476
 20
154.4316059210605
 30
0.0
 11
34.81303450549476
 21
154.4316059210605
 31
0.0
  0
LINE
  5
503
330
18
100
AcDbEntity
  8
外形
100
AcDbLine
 10
34.81303450549476
 20
154.4316059210605
 30
0.0
 11
37.31303450549476
 21
144.4316059210605
 31
0.0
  0
LINE
  5
507
330
18
100
AcDbEntity
  8
外形
100
AcDbLine
 10
42.31303450549476
 20
144.4316059210605
 30
0.0
 11
37.31303450549476
 21
144.4316059210605
 31
0.0
  0
LINE
  5
508
330
18
100
AcDbEntity
  8
外形
100
AcDbLine
 10
49.81303450549476
 20
154.4316059210605
 30
0.0
 11
47.31303450549476
 21
144.4316059210605
 31
0.0
  0
LINE
  5
509
330
18
100
AcDbEntity
  8
外形
100
AcDbLine
 10
42.31303450549476
 20
144.4316059210605
 30
0.0
 11
47.31303450549476
 21
144.4316059210605
 31
0.0
  0
LINE
  5
50A
330
18
100
AcDbEntity
  8
外形
100
AcDbLine
 10
347.3130345054948
 20
154.4316059210605
 30
0.0
 11
332.3130345054948
 21
154.4316059210605
 31
0.0
  0
LINE
  5
50B
330
18
100
AcDbEntity
  8
外形
100
AcDbLine
 10
339.8130345054948
 20
154.4316059210605
 30
0.0
 11
337.3130345054948
 21
144.4316059210605
 31
0.0
  0
LINE
  5
50C
330
18
100
AcDbEntity
  8
外形
100
AcDbLine
 10
324.8130345054948
 20
154.4316059210605
 30
0.0
 11
327.3130345054948
 21
144.4316059210605
 31
0.0
  0
LINE
  5
50E
330
18
100
AcDbEntity
  8
外形
100
AcDbLine
 10
332.3130345054948
 20
144.4316059210605
 30
0.0
 11
337.3130345054948
 21
144.4316059210605
 31
0.0
  0
LINE
  5
50F
330
18
100
AcDbEntity
  8
外形
100
AcDbLine
 10
332.3130345054948
 20
144.4316059210605
 30
0.0
 11
327.3130345054948
 21
144.4316059210605
 31
0.0
  0
LINE
  5
510
330
18
100
AcDbEntity
  8
外形
100
AcDbLine
 10
347.3130345054948
 20
154.4316059210605
 30
0.0
 11
257.3130345054948
 21
154.4316059210605
 31
0.0
  0
LINE
  5
511
330
18
100
AcDbEntity
  8
外形
100
AcDbLine
 10
264.8130345054948
 20
154.4316059210605
 30
0.0
 11
262.3130345054948
 21
144.4316059210605
 31
0.0
  0
LINE
  5
512
330
18
100
AcDbEntity
  8
外形
100
AcDbLine
 10
249.8130345054948
 20
154.4316059210605
 30
0.0
 11
252.3130345054948
 21
144.4316059210605
 31
0.0
  0
LINE
  5
514
330
18
100
AcDbEntity
  8
外形
100
AcDbLine
 10
257.3130345054948
 20
144.4316059210605
 30
0.0
 11
262.3130345054948
 21
144.4316059210605
 31
0.0
  0
LINE
  5
515
330
18
100
AcDbEntity
  8
外形
100
AcDbLine
 10
257.3130345054948
 20
144.4316059210605
 30
0.0
 11
252.3130345054948
 21
144.4316059210605
 31
0.0
  0
DIMENSION
  5
516
330
18
100
AcDbEntity
  8
寸法線
100
AcDbDimension
280
     0
  2
*D4
 10
-73.36860639654152
 20
493.4340278738422
 30
0.0
 11
-81.86860639654154
 21
318.9328168974513
 31
0.0
 70
    32
  1
350
 71
     5
 42
349.0024219527817
 73
     0
 74
     0
 75
     0
  3
STANDARD$0
100
AcDbAlignedDimension
 13
37.31303450549475
 23
144.4316059210605
 33
0.0
 14
153.8130345054948
 24
493.4340278738422
 34
0.0
 50
90.0
100
AcDbRotatedDimension
1001
ACAD
1000
DSTYLE
1002
{
1070
    40
1040
1.0
1002
}
  0
DIMENSION
  5
523
330
18
100
AcDbEntity
  8
寸法線
100
AcDbDimension
280
     0
  2
*D5
 10
-73.3686063965415
 20
581.4316059210605
 30
0.0
 11
-81.8686063965416
 21
537.4328168974514
 31
0.0
 70
    32
 71
     5
 42
87.99757804721821
 73
     0
 74
     0
 75
     0
  3
STANDARD$0
100
AcDbAlignedDimension
 13
-73.36860639654151
 23
493.4340278738423
 33
0.0
 14
139.8130345054948
 24
581.4316059210605
 34
0.0
 50
90.0
100
AcDbRotatedDimension
1001
ACAD
1000
DSTYLE
1002
{
1070
    40
1040
1.0
1002
}
  0
DIMENSION
  5
530
330
18
100
AcDbEntity
  8
寸法線
100
AcDbDimension
280
     0
  2
*D6
 10
356.3130345054948
 20
31.83509258276285
 30
0.0
 11
189.3130345054948
 21
40.33509258276285
 31
0.0
 70
    32
  1
340
 71
     5
 42
334.0
 73
     0
 74
     0
 75
     0
  3
STANDARD$0
100
AcDbAlignedDimension
 13
22.31303450549476
 23
154.4316059210605
 33
0.0
 14
356.3130345054948
 24
178.4316059210605
 34
0.0
100
AcDbRotatedDimension
1001
ACAD
1000
DSTYLE
1002
{
1070
    40
1040
1.0
1002
}
  0
LINE
  5
53E
330
18
100
AcDbEntity
  8
外形
100
AcDbLine
 10
612.2461919255638
 20
154.4316059210605
 30
0.0
 11
782.2461919255638
 21
154.4316059210605
 31
0.0
  0
LINE
  5
540
330
18
100
AcDbEntity
  8
外形
100
AcDbLine
 10
612.2461919255638
 20
154.4316059210605
 30
0.0
 11
612.2461919255638
 21
493.4340278738422
 31
0.0
  0
LINE
  5
541
330
18
100
AcDbEntity
  8
外形
100
AcDbLine
 10
782.2461919255638
 20
154.4316059210605
 30
0.0
 11
782.2461919255638
 21
493.4340278738422
 31
0.0
  0
LINE
  5
542
330
18
100
AcDbEntity
  8
外形
100
AcDbLine
 10
612.2461919255638
 20
176.4316059210605
 30
0.0
 11
782.2461919255638
 21
176.4316059210605
 31
0.0
  0
LINE
  5
544
330
18
100
AcDbEntity
  8
外形
100
AcDbLine
 10
612.2461919255638
 20
493.4340278738422
 30
0.0
 11
782.2461919255638
 21
493.4340278738422
 31
0.0
  0
LINE
  5
545
330
18
100
AcDbEntity
  8
外形
100
AcDbLine
 10
612.2461919255638
 20
474.4316059210605
 30
0.0
 11
782.2461919255638
 21
474.4316059210605
 31
0.0
  0
LINE
  5
546
330
18
100
AcDbEntity
  8
外形
100
AcDbLine
 10
612.2461919255638
 20
259.4316059210605
 30
0.0
 11
782.2461919255638
 21
259.4316059210605
 31
0.0
  0
LINE
  5
547
330
18
100
AcDbEntity
  8
外形
100
AcDbLine
 10
612.2461919255638
 20
229.4316059210605
 30
0.0
 11
782.2461919255638
 21
229.4316059210605
 31
0.0
  0
LINE
  5
548
330
18
100
AcDbEntity
  8
外形
100
AcDbLine
 10
689.7461919255638
 20
154.4316059210605
 30
0.0
 11
692.2461919255638
 21
144.4316059210605
 31
0.0
  0
LINE
  5
549
330
18
100
AcDbEntity
  8
外形
100
AcDbLine
 10
704.7461919255638
 20
154.4316059210605
 30
0.0
 11
702.2461919255638
 21
144.4316059210605
 31
0.0
  0
LINE
  5
54A
330
18
100
AcDbEntity
  8
外形
100
AcDbLine
 10
697.2461919255638
 20
144.4316059210605
 30
0.0
 11
702.2461919255638
 21
144.4316059210605
 31
0.0
  0
LINE
  5
54B
330
18
100
AcDbEntity
  8
外形
100
AcDbLine
 10
697.2461919255638
 20
144.4316059210605
 30
0.0
 11
692.2461919255638
 21
144.4316059210605
 31
0.0
  0
LINE
  5
54C
330
18
100
AcDbEntity
  8
外形
100
AcDbLine
 10
616.2461919255638
 20
176.4316059210605
 30
0.0
 11
616.2461919255638
 21
229.4316059210605
 31
0.0
  0
LINE
  5
54D
330
18
100
AcDbEntity
  8
外形
100
AcDbLine
 10
778.2461919255637
 20
176.4316059210605
 30
0.0
 11
778.2461919255638
 21
229.4316059210605
 31
0.0
  0
LINE
  5
54E
330
18
100
AcDbEntity
  8
外形
100
AcDbLine
 10
616.2461919255638
 20
474.4316059210605
 30
0.0
 11
616.2461919255638
 21
493.4340278738422
 31
0.0
  0
LINE
  5
54F
330
18
100
AcDbEntity
  8
外形
100
AcDbLine
 10
778.2461919255638
 20
474.4316059210605
 30
0.0
 11
778.2461919255638
 21
493.4340278738422
 31
0.0
  0
LINE
  5
552
330
18
100
AcDbEntity
  8
外形
100
AcDbLine
 10
697.2461919255638
 20
264.4316059210605
 30
0.0
 11
654.7461919255638
 21
264.4316059210605
 31
0.0
  0
LINE
  5
553
330
18
100
AcDbEntity
  8
外形
100
AcDbLine
 10
644.7461919255638
 20
274.4316059210605
 30
0.0
 11
644.7461919255637
 21
369.4316059210606
 31
0.0
  0
LINE
  5
554
330
18
100
AcDbEntity
  8
外形
100
AcDbLine
 10
654.7461919255637
 20
379.4316059210606
 30
0.0
 11
697.2461919255638
 21
379.4316059210605
 31
0.0
  0
ARC
  5
556
330
18
100
AcDbEntity
  8
外形
100
AcDbCircle
 10
654.7461919255638
 20
274.4316059210605
 30
0.0
 40
10.0
100
AcDbArc
 50
180.0
 51
270.0
  0
ARC
  5
557
330
18
100
AcDbEntity
  8
外形
100
AcDbCircle
 10
654.7461919255637
 20
369.4316059210606
 30
0.0
 40
10.0
100
AcDbArc
 50
90.0
 51
180.0
  0
LINE
  5
558
330
18
100
AcDbEntity
  8
外形
100
AcDbLine
 10
739.7461919255637
 20
379.4316059210606
 30
0.0
 11
697.2461919255636
 21
379.4316059210605
 31
0.0
  0
LINE
  5
559
330
18
100
AcDbEntity
  8
外形
100
AcDbLine
 10
697.2461919255636
 20
264.4316059210605
 30
0.0
 11
739.7461919255636
 21
264.4316059210605
 31
0.0
  0
LINE
  5
55A
330
18
100
AcDbEntity
  8
外形
100
AcDbLine
 10
749.7461919255636
 20
274.4316059210605
 30
0.0
 11
749.7461919255637
 21
369.4316059210606
 31
0.0
  0
ARC
  5
55B
330
18
100
AcDbEntity
  8
外形
100
AcDbCircle
 10
739.7461919255636
 20
274.4316059210605
 30
0.0
 40
10.0
100
AcDbArc
 50
270.0
 51
0.000000000000007
  0
ARC
  5
55C
330
18
100
AcDbEntity
  8
外形
100
AcDbCircle
 10
739.7461919255637
 20
369.4316059210606
 30
0.0
 40
10.0
100
AcDbArc
 50
0.000000000000007
 51
90.0
  0
LINE
  5
55E
330
18
100
AcDbEntity
  8
外形
100
AcDbLine
 10
697.2461919255638
 20
186.4316059210605
 30
0.0
 11
774.7461919255638
 21
186.4316059210605
 31
0.0
  0
LINE
  5
55F
330
18
100
AcDbEntity
  8
外形
100
AcDbLine
 10
697.2461919255638
 20
178.4316059210605
 30
0.0
 11
774.7461919255638
 21
178.4316059210605
 31
0.0
  0
LINE
  5
560
330
18
100
AcDbEntity
  8
外形
100
AcDbLine
 10
697.2461919255638
 20
186.4316059210605
 30
0.0
 11
774.7461919255638
 21
186.4316059210605
 31
0.0
  0
LINE
  5
561
330
18
100
AcDbEntity
  8
外形
100
AcDbLine
 10
774.7461919255638
 20
186.4316059210605
 30
0.0
 11
774.7461919255638
 21
178.4316059210605
 31
0.0
  0
LINE
  5
562
330
18
100
AcDbEntity
  8
外形
100
AcDbLine
 10
697.2461919255638
 20
186.4316059210605
 30
0.0
 11
619.7461919255638
 21
186.4316059210605
 31
0.0
  0
LINE
  5
563
330
18
100
AcDbEntity
  8
外形
100
AcDbLine
 10
697.2461919255638
 20
178.4316059210605
 30
0.0
 11
619.7461919255638
 21
178.4316059210605
 31
0.0
  0
LINE
  5
564
330
18
100
AcDbEntity
  8
外形
100
AcDbLine
 10
697.2461919255638
 20
186.4316059210605
 30
0.0
 11
619.7461919255638
 21
186.4316059210605
 31
0.0
  0
LINE
  5
565
330
18
100
AcDbEntity
  8
外形
100
AcDbLine
 10
619.7461919255638
 20
186.4316059210605
 30
0.0
 11
619.7461919255638
 21
178.4316059210605
 31
0.0
  0
LINE
  5
566
330
18
100
AcDbEntity
  8
外形
100
AcDbLine
 10
612.2461919255638
 20
154.4316059210605
 30
0.0
 11
627.2461919255638
 21
154.4316059210605
 31
0.0
  0
LINE
  5
567
330
18
100
AcDbEntity
  8
外形
100
AcDbLine
 10
619.7461919255638
 20
154.4316059210605
 30
0.0
 11
622.2461919255638
 21
144.4316059210605
 31
0.0
  0
LINE
  5
568
330
18
100
AcDbEntity
  8
外形
100
AcDbLine
 10
634.7461919255638
 20
154.4316059210605
 30
0.0
 11
632.2461919255638
 21
144.4316059210605
 31
0.0
  0
LINE
  5
569
330
18
100
AcDbEntity
  8
外形
100
AcDbLine
 10
627.2461919255638
 20
144.4316059210605
 30
0.0
 11
622.2461919255638
 21
144.4316059210605
 31
0.0
  0
LINE
  5
56A
330
18
100
AcDbEntity
  8
外形
100
AcDbLine
 10
627.2461919255638
 20
144.4316059210605
 30
0.0
 11
632.2461919255638
 21
144.4316059210605
 31
0.0
  0
LINE
  5
56B
330
18
100
AcDbEntity
  8
外形
100
AcDbLine
 10
759.7461919255638
 20
154.4316059210605
 30
0.0
 11
762.2461919255638
 21
144.4316059210605
 31
0.0
  0
LINE
  5
56C
330
18
100
AcDbEntity
  8
外形
100
AcDbLine
 10
774.7461919255638
 20
154.4316059210605
 30
0.0
 11
772.2461919255638
 21
144.4316059210605
 31
0.0
  0
LINE
  5
56D
330
18
100
AcDbEntity
  8
外形
100
AcDbLine
 10
767.2461919255638
 20
144.4316059210605
 30
0.0
 11
772.2461919255638
 21
144.4316059210605
 31
0.0
  0
LINE
  5
56E
330
18
100
AcDbEntity
  8
外形
100
AcDbLine
 10
767.2461919255638
 20
144.4316059210605
 30
0.0
 11
762.2461919255638
 21
144.4316059210605
 31
0.0
  0
LINE
  5
571
330
18
100
AcDbEntity
  8
外形
100
AcDbLine
 10
606.2461919255638
 20
361.4316059210605
 30
0.0
 11
606.2461919255638
 21
544.4316059210605
 31
0.0
  0
LINE
  5
572
330
18
100
AcDbEntity
  8
外形
100
AcDbLine
 10
788.2461919255638
 20
361.4316059210605
 30
0.0
 11
788.2461919255637
 21
544.4316059210605
 31
0.0
  0
LINE
  5
573
330
18
100
AcDbEntity
  8
外形
100
AcDbLine
 10
643.2461919255638
 20
581.4316059210605
 30
0.0
 11
751.2461919255637
 21
581.4316059210605
 31
0.0
  0
LINE
  5
574
330
18
100
AcDbEntity
  8
外形
100
AcDbLine
 10
606.2461919255638
 20
361.4316059210605
 30
0.0
 11
611.2461919255638
 21
361.4316059210605
 31
0.0
  0
LINE
  5
575
330
18
100
AcDbEntity
  8
外形
100
AcDbLine
 10
611.2461919255638
 20
361.4316059210605
 30
0.0
 11
611.2461919255638
 21
544.4316059210605
 31
0.0
  0
LINE
  5
576
330
18
100
AcDbEntity
  8
外形
100
AcDbLine
 10
783.2461919255638
 20
361.4316059210605
 30
0.0
 11
783.2461919255637
 21
544.4316059210605
 31
0.0
  0
LINE
  5
577
330
18
100
AcDbEntity
  8
外形
100
AcDbLine
 10
788.2461919255638
 20
361.4316059210605
 30
0.0
 11
783.2461919255638
 21
361.4316059210605
 31
0.0
  0
LINE
  5
578
330
18
100
AcDbEntity
  8
外形
100
AcDbLine
 10
629.7184426670951
 20
573.4316059210605
 30
0.0
 11
764.7739411840323
 21
573.4316059210605
 31
0.0
  0
ARC
  5
579
330
18
100
AcDbEntity
  8
外形
100
AcDbCircle
 10
643.2461919255638
 20
544.4316059210605
 30
0.0
 40
37.0
100
AcDbArc
 50
90.0
 51
180.0
  0
ARC
  5
57A
330
18
100
AcDbEntity
  8
外形
100
AcDbCircle
 10
751.2461919255637
 20
544.4316059210605
 30
0.0
 40
37.0
100
AcDbArc
 50
0.0
 51
90.0
  0
ARC
  5
57B
330
18
100
AcDbEntity
  8
外形
100
AcDbCircle
 10
643.2461919255638
 20
544.4316059210605
 30
0.0
 40
32.0
100
AcDbArc
 50
115.0078332346854
 51
180.0
  0
ARC
  5
57C
330
18
100
AcDbEntity
  8
外形
100
AcDbCircle
 10
751.2461919255637
 20
544.4316059210605
 30
0.0
 40
32.0
100
AcDbArc
 50
0.0
 51
64.99216676531503
  0
DIMENSION
  5
57D
330
18
100
AcDbEntity
  8
寸法線
100
AcDbDimension
280
     0
  2
*D7
 10
788.2461919255637
 20
659.7284411375904
 30
0.0
 11
697.2461919255638
 21
668.2284411375904
 31
0.0
 70
    32
 71
     5
 42
181.9999999999999
 73
     0
 74
     0
 75
     0
  3
STANDARD$0
100
AcDbAlignedDimension
 13
606.2461919255638
 23
544.4316059210605
 33
0.0
 14
788.2461919255637
 24
544.4316059210605
 34
0.0
100
AcDbRotatedDimension
1001
ACAD
1000
DSTYLE
1002
{
1070
    40
1040
1.0
1002
}
  0
DIMENSION
  5
58A
330
18
100
AcDbEntity
  8
寸法線
100
AcDbDimension
280
     0
  2
*D8
 10
782.2461919255638
 20
31.83509258276285
 30
0.0
 11
697.2461919255638
 21
40.33509258276285
 31
0.0
 70
    32
 71
     5
 42
170.0
 73
     0
 74
     0
 75
     0
  3
STANDARD$0
100
AcDbAlignedDimension
 13
612.2461919255638
 23
154.4316059210605
 33
0.0
 14
782.2461919255638
 24
154.4316059210605
 34
0.0
100
AcDbRotatedDimension
1001
ACAD
1000
DSTYLE
1002
{
1070
    40
1040
1.0
1002
}
  0
LINE
  5
5F3
330
18
100
AcDbEntity
  8
外形
100
AcDbLine
 10
47.31303450549481
 20
780.7684321357806
 30
0.0
 11
260.3130345054948
 21
780.7684321357806
 31
0.0
  0
LINE
  5
5F4
330
18
100
AcDbEntity
  8
外形
100
AcDbLine
 10
347.3130345054948
 20
865.7684321357805
 30
0.0
 11
347.3130345054949
 21
865.7684321357807
 31
0.0
  0
LINE
  5
5F5
330
18
100
AcDbEntity
  8
外形
100
AcDbLine
 10
260.3130345054948
 20
950.7684321357806
 30
0.0
 11
47.31303450549484
 21
950.7684321357806
 31
0.0
  0
LINE
  5
5F6
330
18
100
AcDbEntity
  8
外形
100
AcDbLine
 10
22.31303450549484
 20
925.7684321357806
 30
0.0
 11
22.31303450549481
 21
805.7684321357806
 31
0.0
  0
ARC
  5
5F7
330
18
100
AcDbEntity
  8
外形
100
AcDbCircle
 10
47.31303450549481
 20
805.7684321357806
 30
0.0
 40
25.0
100
AcDbArc
 50
180.0
 51
270.0
  0
ARC
  5
5F8
330
18
100
AcDbEntity
  8
外形
100
AcDbCircle
 10
47.31303450549484
 20
925.7684321357806
 30
0.0
 40
25.0
100
AcDbArc
 50
90.0
 51
180.0
  0
ARC
  5
5F9
330
18
100
AcDbEntity
  8
外形
100
AcDbCircle
 10
262.3130345054948
 20
865.7684321357805
 30
0.0
 40
85.0
100
AcDbArc
 50
270.0
 51
302.110296281058
  0
ARC
  5
5FA
330
18
100
AcDbEntity
  8
外形
100
AcDbCircle
 10
262.3130345054949
 20
865.7684321357807
 30
0.0
 40
85.0
100
AcDbArc
 50
57.88970371894116
 51
90.0
  0
LINE
  5
5FC
330
18
100
AcDbEntity
  8
外形
100
AcDbLine
 10
285.3130345054948
 20
925.7684321357806
 30
0.0
 11
285.3130345054948
 21
805.7684321357806
 31
0.0
  0
ARC
  5
5FD
330
18
100
AcDbEntity
  8
外形
100
AcDbCircle
 10
260.3130345054948
 20
805.7684321357806
 30
0.0
 40
25.0
100
AcDbArc
 50
270.0
 51
0.0
  0
ARC
  5
5FE
330
18
100
AcDbEntity
  8
外形
100
AcDbCircle
 10
260.3130345054948
 20
925.7684321357806
 30
0.0
 40
25.0
100
AcDbArc
 50
0.0
 51
90.0
  0
LINE
  5
5FF
330
18
100
AcDbEntity
  8
外形
100
AcDbLine
 10
260.3130345054948
 20
945.7684321357806
 30
0.0
 11
47.31303450549484
 21
945.7684321357806
 31
0.0
  0
LINE
  5
600
330
18
100
AcDbEntity
  8
外形
100
AcDbLine
 10
47.31303450549481
 20
785.7684321357806
 30
0.0
 11
260.3130345054948
 21
785.7684321357806
 31
0.0
  0
ARC
  5
601
330
18
100
AcDbEntity
  8
外形
100
AcDbCircle
 10
47.31303450549481
 20
805.7684321357806
 30
0.0
 40
20.0
100
AcDbArc
 50
180.0
 51
270.0
  0
LINE
  5
602
330
18
100
AcDbEntity
  8
外形
100
AcDbLine
 10
27.31303450549484
 20
925.7684321357806
 30
0.0
 11
27.31303450549481
 21
805.7684321357806
 31
0.0
  0
ARC
  5
603
330
18
100
AcDbEntity
  8
外形
100
AcDbCircle
 10
47.31303450549484
 20
925.7684321357806
 30
0.0
 40
20.0
100
AcDbArc
 50
90.0
 51
180.0
  0
LINE
  5
604
330
18
100
AcDbEntity
  8
外形
100
AcDbLine
 10
280.3130345054948
 20
925.7684321357806
 30
0.0
 11
280.3130345054948
 21
805.7684321357806
 31
0.0
  0
ARC
  5
605
330
18
100
AcDbEntity
  8
外形
100
AcDbCircle
 10
260.3130345054948
 20
925.7684321357806
 30
0.0
 40
20.0
100
AcDbArc
 50
0.0
 51
90.0
  0
ARC
  5
606
330
18
100
AcDbEntity
  8
外形
100
AcDbCircle
 10
260.3130345054948
 20
805.7684321357806
 30
0.0
 40
20.0
100
AcDbArc
 50
270.0
 51
0.0
  0
LINE
  5
607
330
18
100
AcDbEntity
  8
外形
100
AcDbLine
 10
260.3130345054948
 20
950.7684321357806
 30
0.0
 11
260.3130345054948
 21
887.2684321357806
 31
0.0
  0
LINE
  5
608
330
18
100
AcDbEntity
  8
外形
100
AcDbLine
 10
139.8130345054948
 20
865.7684321357806
 30
0.0
 11
139.8130345054948
 21
956.7684321357806
 31
0.0
  0
LINE
  5
609
330
18
100
AcDbEntity
  8
外形
100
AcDbLine
 10
164.8130345054948
 20
865.7684321357806
 30
0.0
 11
164.8130345054948
 21
956.7684321357806
 31
0.0
  0
LINE
  5
60C
330
18
100
AcDbEntity
  8
外形
100
AcDbLine
 10
177.3130345054948
 20
956.7684321357806
 30
0.0
 11
127.3130345054948
 21
956.7684321357806
 31
0.0
  0
LINE
  5
60E
330
18
100
AcDbEntity
  8
外形
100
AcDbLine
 10
177.3130345054948
 20
951.7684321357806
 30
0.0
 11
127.3130345054948
 21
951.7684321357806
 31
0.0
  0
LINE
  5
60F
330
18
100
AcDbEntity
  8
外形
100
AcDbLine
 10
127.3130345054948
 20
956.7684321357806
 30
0.0
 11
127.3130345054948
 21
951.7684321357806
 31
0.0
  0
LINE
  5
610
330
18
100
AcDbEntity
  8
外形
100
AcDbLine
 10
177.3130345054948
 20
956.7684321357806
 30
0.0
 11
177.3130345054948
 21
951.7684321357806
 31
0.0
  0
LINE
  5
612
330
18
100
AcDbEntity
  8
外形
100
AcDbLine
 10
139.8130345054948
 20
865.7684321357806
 30
0.0
 11
139.8130345054948
 21
774.7684321357806
 31
0.0
  0
LINE
  5
613
330
18
100
AcDbEntity
  8
外形
100
AcDbLine
 10
164.8130345054948
 20
865.7684321357806
 30
0.0
 11
164.8130345054948
 21
774.7684321357806
 31
0.0
  0
LINE
  5
614
330
18
100
AcDbEntity
  8
外形
100
AcDbLine
 10
177.3130345054948
 20
779.7684321357806
 30
0.0
 11
127.3130345054948
 21
779.7684321357806
 31
0.0
  0
LINE
  5
615
330
18
100
AcDbEntity
  8
外形
100
AcDbLine
 10
177.3130345054948
 20
774.7684321357806
 30
0.0
 11
127.3130345054948
 21
774.7684321357806
 31
0.0
  0
LINE
  5
616
330
18
100
AcDbEntity
  8
外形
100
AcDbLine
 10
127.3130345054948
 20
774.7684321357806
 30
0.0
 11
127.3130345054948
 21
779.7684321357806
 31
0.0
  0
LINE
  5
617
330
18
100
AcDbEntity
  8
外形
100
AcDbLine
 10
177.3130345054948
 20
774.7684321357806
 30
0.0
 11
177.3130345054948
 21
779.7684321357806
 31
0.0
  0
ARC
  5
61B
330
18
100
AcDbEntity
  8
外形
100
AcDbCircle
 10
278.8130345054948
 20
865.7684321357805
 30
0.0
 40
77.5
100
AcDbArc
 50
269.5240269427998
 51
90.4759730572
  0
LINE
  5
61D
330
18
100
AcDbEntity
  8
外形
100
AcDbLine
 10
273.3130345054948
 20
865.7684321357805
 30
0.0
 11
273.3130345054948
 21
879.2684321357805
 31
0.0
  0
LINE
  5
61E
330
18
100
AcDbEntity
  8
外形
100
AcDbLine
 10
270.3130345054948
 20
882.2684321357805
 30
0.0
 11
265.3130345054948
 21
882.2684321357806
 31
0.0
  0
ARC
  5
61F
330
18
100
AcDbEntity
  8
外形
100
AcDbCircle
 10
270.3130345054948
 20
879.2684321357805
 30
0.0
 40
3.0
100
AcDbArc
 50
0.0
 51
90.0
  0
ARC
  5
620
330
18
100
AcDbEntity
  8
外形
100
AcDbCircle
 10
265.3130345054948
 20
887.2684321357806
 30
0.0
 40
5.0
100
AcDbArc
 50
180.0
 51
270.0
  0
LINE
  5
621
330
18
100
AcDbEntity
  8
外形
100
AcDbLine
 10
260.3130345054948
 20
780.7684321357804
 30
0.0
 11
260.3130345054948
 21
844.2684321357804
 31
0.0
  0
ARC
  5
622
330
18
100
AcDbEntity
  8
外形
100
AcDbCircle
 10
270.3130345054948
 20
852.2684321357805
 30
0.0
 40
3.0
100
AcDbArc
 50
270.0
 51
0.0
  0
LINE
  5
623
330
18
100
AcDbEntity
  8
外形
100
AcDbLine
 10
270.3130345054948
 20
849.2684321357805
 30
0.0
 11
265.3130345054948
 21
849.2684321357804
 31
0.0
  0
ARC
  5
624
330
18
100
AcDbEntity
  8
外形
100
AcDbCircle
 10
265.3130345054948
 20
844.2684321357804
 30
0.0
 40
5.0
100
AcDbArc
 50
90.00000000000001
 51
180.0
  0
LINE
  5
625
330
18
100
AcDbEntity
  8
外形
100
AcDbLine
 10
273.3130345054948
 20
865.7684321357805
 30
0.0
 11
273.3130345054948
 21
852.2684321357805
 31
0.0
  0
DIMENSION
  5
626
330
18
100
AcDbEntity
  8
寸法線
100
AcDbDimension
280
     0
  2
*D9
 10
227.2127511365824
 20
923.592827992961
 30
0.0
 11
357.2145517123598
 21
777.9099927864995
 31
0.0
 70
   163
 71
     5
 42
154.9999999999999
 73
     0
 74
     0
 75
     0
  3
STANDARD$3
100
AcDbDiametricDimension
 15
330.4133178744075
 25
807.9440362785999
 35
0.0
 40
0.0
1001
ACAD
1000
DSTYLE
1002
{
1070
    40
1040
1.0
1070
   288
1070
     1
1002
}
  0
LEADER
  5
641
330
18
100
AcDbEntity
  8
寸法線
100
AcDbLeader
  3
STANDARD
 73
     0
 74
     0
 40
15.0
 41
120.75
 76
     3
 10
164.8130345054948
 20
533.8665916698988
 30
0.0
 10
237.1180632944242
 20
613.0997795818362
 30
0.0
 10
252.1897369609187
 20
613.0997795818362
 30
0.0
340
642
213
0.0
223
-7.5
233
0.0
1001
ACAD
1000
DSTYLE
1002
{
1070
   147
1040
1.0
1070
    77
1070
     0
1002
}
  0
MTEXT
  5
642
102
{ACAD_REACTORS
330
641
102
}
330
18
100
AcDbEntity
  8
寸法線
100
AcDbMText
 10
253.1897369609187
 20
620.5997795818362
 30
0.0
 40
15.0
 41
0.0
 46
0.0
 71
     1
 72
     1
  1
可倒式ハンドル
 73
     1
 44
1.0
  0
LINE
  5
666
330
18
100
AcDbEntity
  8
注釈文字
100
AcDbLine
 10
1000.52364372888
 20
270.1961800394414
 30
0.0
 11
1666.012644369889
 21
270.1961800394414
 31
0.0
  0
LINE
  5
667
330
18
100
AcDbEntity
  8
注釈文字
100
AcDbLine
 10
1000.52364372888
 20
152.8325349918339
 30
0.0
 11
1666.012644369889
 21
152.8325349918339
 31
0.0
  0
LINE
  5
668
330
18
100
AcDbEntity
  8
注釈文字
100
AcDbLine
 10
1000.52364372888
 20
316.8325349918339
 30
0.0
 11
1666.012644369889
 21
316.8325349918339
 31
0.0
  0
LINE
  5
669
330
18
100
AcDbEntity
  8
注釈文字
100
AcDbLine
 10
1666.012644369889
 20
357.8325349918339
 30
0.0
 11
1000.52364372888
 21
357.8325349918339
 31
0.0
  0
LINE
  5
66A
330
18
100
AcDbEntity
  8
注釈文字
100
AcDbLine
 10
1000.52364372888
 20
398.8325349918339
 30
0.0
 11
1666.012644369889
 21
398.8325349918339
 31
0.0
  0
LINE
  5
66B
330
18
100
AcDbEntity
  8
注釈文字
100
AcDbLine
 10
1666.012644369889
 20
439.8325349918339
 30
0.0
 11
1000.52364372888
 21
439.8325349918339
 31
0.0
  0
LINE
  5
66C
330
18
100
AcDbEntity
  8
注釈文字
100
AcDbLine
 10
1813.753106743439
 20
152.8325349918339
 30
0.0
 11
1813.753106743439
 21
152.8325349918339
 31
0.0
  0
MTEXT
  5
66D
330
18
100
AcDbEntity
  8
注釈文字
100
AcDbMText
 10
1026.861196503884
 20
501.8111584878043
 30
0.0
 40
25.0
 41
817.6500000000001
 46
300.0005027774889
 71
     1
 72
     5
  1
{　　仕様\P\H0.6x;　\P\H1.66667x;機種名　　　モバイル寿司ロボット\P型　式　　　TF-1(M) 型\P本体寸法　　\H0.599999x;幅170(取手除く)　奥行340　高さ350mm\P\H1.66667x;本体重量　　6 kg\P電　源　　　AC 100 V / DC15V\P消費電力　　13W　　　　　　}
 73
     1
 44
1.0
1001
ACAD
1000
ACAD_MTEXT_DEFINED_HEIGHT_BEGIN
1070
    46
1040
300.0005027774889
1000
ACAD_MTEXT_DEFINED_HEIGHT_END
  0
LINE
  5
66E
330
18
100
AcDbEntity
  8
注釈文字
100
AcDbLine
 10
1166.284508784549
 20
439.8325349918339
 30
0.0
 11
1166.284508784549
 21
152.8325349918339
 31
0.0
  0
LINE
  5
66F
330
18
100
AcDbEntity
  8
注釈文字
100
AcDbLine
 10
1000.52364372888
 20
275.8325349918339
 30
0.0
 11
1000.52364372888
 21
152.8325349918339
 31
0.0
  0
LINE
  5
670
330
18
100
AcDbEntity
  8
注釈文字
100
AcDbLine
 10
1000.52364372888
 20
439.8325349918339
 30
0.0
 11
1000.52364372888
 21
152.8325349918339
 31
0.0
  0
LINE
  5
672
330
18
100
AcDbEntity
  8
注釈文字
100
AcDbLine
 10
1000.52364372888
 20
357.8325349918339
 30
0.0
 11
1000.52364372888
 21
316.8325349918339
 31
0.0
  0
LINE
  5
673
330
18
100
AcDbEntity
  8
注釈文字
100
AcDbLine
 10
1666.012644369889
 20
152.8325349918339
 30
0.0
 11
1666.012644369889
 21
439.8325349918339
 31
0.0
  0
MTEXT
  5
674
330
18
100
AcDbEntity
  8
注釈文字
100
AcDbMText
 10
1184.779178768113
 20
104.263919678393
 30
0.0
 40
25.0
 41
501.782
 46
0.0
 71
     1
 72
     5
  1
{\fHGE|b0|i0|c128|p49;発売元：㈱エム・アイ・ケー}
 73
     1
 44
1.0
  0
VIEWPORT
  5
64D
330
15
100
AcDbEntity
 67
     1
  8
0
100
AcDbViewport
 10
141.7323954915182
 20
90.63506962135784
 30
0.0
 40
434.7364481803554
 41
245.23594512738
 68
     2
 69
     1
 12
141.7323954915182
 22
90.63506962135784
 13
0.0
 23
0.0
 14
10.0
 24
10.0
 15
10.0
 25
10.0
 16
0.0
 26
0.0
 36
1.0
 17
0.0
 27
0.0
 37
0.0
 42
50.0
 43
0.0
 44
0.0
 45
245.23594512738
 50
0.0
 51
0.0
 72
   100
 90
    32800
  1

281
     0
 71
     1
 74
     0
110
0.0
120
0.0
130
0.0
111
1.0
121
0.0
131
0.0
112
0.0
122
1.0
132
0.0
 79
     0
146
0.0
170
     0
 61
     5
348
6CF
292
     1
282
     1
141
0.0
142
0.0
 63
   256
  0
VIEWPORT
  5
64F
330
15
100
AcDbEntity
 67
     1
  8
寸法線
100
AcDbViewport
 10
136.1940185431686
 20
87.20913881718901
 30
0.0
 40
191.2000344342546
 41
137.0292252198774
 68
     1
 69
     2
 12
787.6035541226324
 22
504.9820911967178
 13
0.0
 23
0.0
 14
10.0
 24
10.0
 15
10.0
 25
10.0
 16
0.0
 26
0.0
 36
1.0
 17
0.0
 27
0.0
 37
0.0
 42
50.0
 43
0.0
 44
0.0
 45
1334.951546358718
 50
0.0
 51
0.0
 72
   100
 90
    32800
  1

281
     0
 71
     1
 74
     0
110
0.0
120
0.0
130
0.0
111
1.0
121
0.0
131
0.0
112
0.0
122
1.0
132
0.0
 79
     0
146
0.0
170
     0
 61
     5
348
6CF
292
     1
282
     1
141
0.0
142
0.0
 63
   256
  0
ENDSEC
  0
SECTION
  2
OBJECTS
  0
DICTIONARY
  5
C
330
0
100
AcDbDictionary
281
     1
  3
ACAD_DETAILVIEWSTYLE
350
6F0
  3
ACAD_GROUP
350
D
  3
ACAD_IMAGE_VARS
350
6DE
  3
ACAD_LAYOUT
350
B8
  3
ACAD_MATERIAL
350
6C6
  3
ACAD_MLEADERSTYLE
350
6E2
  3
ACAD_MLINESTYLE
350
1B
  3
ACAD_PLOTSETTINGS
350
B9
  3
ACAD_PLOTSTYLENAME
350
B6
  3
ACAD_SCALELIST
350
6A4
  3
ACAD_SECTIONVIEWSTYLE
350
6F1
  3
ACAD_TABLESTYLE
350
6DB
  3
ACAD_VISUALSTYLE
350
6CA
  3
ACDB_RECOMPOSE_DATA
350
715
  3
AcDbVariableDictionary
350
6DF
  3
APPDATA
350
6DD
  3
CONTENTDICTIONARY
350
8C
  3
DRAWINGVARIABLESDICT
350
4A
  0
SUN
  5
6EE
330
6A3
100
AcDbSun
 90
        1
290
     0
 63
     7
421
 16777215
 40
1.0
291
     1
 91
  2455826
 92
 54000000
292
     0
 70
     2
 71
   256
280
     1
  0
DICTIONARY
  5
6F0
102
{ACAD_REACTORS
330
C
102
}
330
C
100
AcDbDictionary
281
     1
  0
DICTIONARY
  5
D
102
{ACAD_REACTORS
330
C
102
}
330
C
100
AcDbDictionary
281
     1
  0
RASTERVARIABLES
  5
6DE
102
{ACAD_REACTORS
330
C
102
}
330
C
100
AcDbRasterVariables
 90
        0
 70
     1
 71
     1
 72
     0
  0
DICTIONARY
  5
B8
102
{ACAD_REACTORS
330
C
102
}
330
C
100
AcDbDictionary
281
     1
  3
Model
350
BA
  3
ﾚｲｱｳﾄ1
350
BB
  0
DICTIONARY
  5
6C6
102
{ACAD_REACTORS
330
C
102
}
330
C
100
AcDbDictionary
281
     1
  3
ByBlock
350
6C8
  3
ByLayer
350
6C7
  3
Global
350
6C9
  0
DICTIONARY
  5
6E2
102
{ACAD_REACTORS
330
C
102
}
330
C
100
AcDbDictionary
281
     1
  3
Standard
350
6ED
  0
DICTIONARY
  5
1B
102
{ACAD_REACTORS
330
C
102
}
330
C
100
AcDbDictionary
281
     1
  3
STANDARD
350
1C
  0
DICTIONARY
  5
B9
102
{ACAD_REACTORS
330
C
102
}
330
C
100
AcDbDictionary
281
     1
  0
ACDBDICTIONARYWDFLT
  5
B6
102
{ACAD_REACTORS
330
C
102
}
330
C
100
AcDbDictionary
281
     1
  3
Normal
350
B7
100
AcDbDictionaryWithDefault
340
B7
  0
DICTIONARY
  5
6A4
102
{ACAD_REACTORS
330
C
102
}
330
C
100
AcDbDictionary
281
     1
  3
A0
350
6A5
  3
A1
350
6A6
  3
A2
350
6A7
  3
A3
350
6A8
  3
A4
350
6A9
  3
A5
350
6AA
  3
A6
350
6AB
  3
A7
350
6AC
  3
A8
350
6AD
  3
A9
350
6AE
  3
B0
350
6AF
  3
B1
350
6B0
  3
B2
350
6B1
  3
B3
350
6B2
  3
B4
350
6B3
  3
B5
350
6B4
  3
B6
350
6B5
  3
B7
350
6B6
  3
B8
350
6B7
  3
B9
350
6B8
  3
C0
350
6B9
  3
C1
350
6BA
  3
C2
350
6BB
  3
C3
350
6BC
  3
C4
350
6BD
  3
C5
350
6BE
  3
C6
350
6BF
  3
C7
350
6C0
  3
C8
350
6C1
  3
C9
350
6C2
  3
D0
350
6C3
  3
D1
350
6C4
  3
D2
350
6C5
  0
DICTIONARY
  5
6F1
102
{ACAD_REACTORS
330
C
102
}
330
C
100
AcDbDictionary
281
     1
  0
DICTIONARY
  5
6DB
102
{ACAD_REACTORS
330
C
102
}
330
C
100
AcDbDictionary
281
     1
  3
Standard
350
6DC
  0
DICTIONARY
  5
6CA
102
{ACAD_REACTORS
330
C
102
}
330
C
100
AcDbDictionary
281
     1
  3
2dWireframe
350
6CF
  3
3D Hidden
350
6D1
  3
3dWireframe
350
6D0
  3
Basic
350
6D2
  3
Brighten
350
6D6
  3
ColorChange
350
6DA
  3
Conceptual
350
6D4
  3
Dim
350
6D5
  3
EdgeColorOff
350
6E7
  3
Facepattern
350
6D9
  3
Flat
350
6CB
  3
FlatWithEdges
350
6CC
  3
Gouraud
350
6CD
  3
GouraudWithEdges
350
6CE
  3
Hidden
350
6E4
  3
JitterOff
350
6E5
  3
Linepattern
350
6D8
  3
OverhangOff
350
6E6
  3
Realistic
350
6D3
  3
Shaded
350
6EC
  3
Shaded with edges
350
6EB
  3
Shades of Gray
350
6E8
  3
Sketchy
350
6E9
  3
Thicken
350
6D7
  3
Wireframe
350
6E3
  3
X-Ray
350
6EA
  0
XRECORD
  5
715
102
{ACAD_REACTORS
330
C
102
}
330
C
100
AcDbXrecord
280
     1
 90
        1
330
6DC
  0
DICTIONARY
  5
6DF
102
{ACAD_REACTORS
330
C
102
}
330
C
100
AcDbDictionary
281
     1
  3
CANNOSCALE
350
6E0
  3
CMLEADERSTYLE
350
6EF
  3
CTABLESTYLE
350
6E1
  3
XCLIPFRAME
350
6FD
  0
DICTIONARY
  5
6DD
102
{ACAD_REACTORS
330
C
102
}
330
C
100
AcDbDictionary
281
     1
  0
DICTIONARY
  5
8C
102
{ACAD_REACTORS
330
C
102
}
330
C
100
AcDbDictionary
281
     1
  0
DICTIONARY
  5
4A
102
{ACAD_REACTORS
330
C
102
}
330
C
100
AcDbDictionary
281
     1
1001
DRAWINGVARIABLESXDATA
1000
POLARMODE
1000
3
  0
LAYOUT
  5
BA
102
{ACAD_REACTORS
330
B8
102
}
330
B8
100
AcDbPlotSettings
  1

  2
Canon BJ S6300
  4
A4
  6

 40
4.222749710083008
 41
5.831412315368652
 42
4.222747802734375
 43
3.799407958984375
 44
209.9733276367188
 45
296.9683227539062
 46
10.0
 47
30.0
 48
0.0
 49
0.0
140
0.0
141
0.0
142
1.0
143
5.0
 70
 28320
 72
     1
 73
     1
 74
     1
  7
monochrome.ctb
 75
     0
 76
     0
 77
     2
 78
   300
147
0.2
148
116.5458684113803
149
83.69340935998139
100
AcDbLayout
  1
Model
 70
     1
 71
     0
 10
0.0
 20
0.0
 11
12.0
 21
9.0
 12
0.0
 22
0.0
 32
0.0
 14
0.0
 24
0.0
 34
0.0
 15
0.0
 25
0.0
 35
0.0
146
0.0
 13
0.0
 23
0.0
 33
0.0
 16
1.0
 26
0.0
 36
0.0
 17
0.0
 27
1.0
 37
0.0
 76
     0
330
18
331
6A3
  0
LAYOUT
  5
BB
102
{ACAD_REACTORS
330
B8
102
}
330
B8
100
AcDbPlotSettings
  1

  2
PDF
  4
ISO_expand_A0_(1189.00_x_841.00_MM)
  6

 40
5.8
 41
5.8
 42
5.8
 43
15.8
 44
1189.0
 45
841.0
 46
0.0
 47
0.0
 48
0.0
 49
0.0
140
0.0
141
0.0
142
1.0
143
1.0
 70
   692
 72
     1
 73
     0
 74
     5
  7
monochrome.ctb
 75
     0
 76
     0
 77
     2
 78
   300
147
1.0
148
0.0
149
0.0
100
AcDbLayout
  1
ﾚｲｱｳﾄ1
 70
     1
 71
     1
 10
-5.793749809265137
 20
-17.79375076293945
 11
291.2062501907349
 21
192.2062492370605
 12
0.0
 22
0.0
 32
0.0
 14
40.59400132604134
 24
18.69452620725033
 34
0.0
 15
231.7940357602959
 25
155.7237514271277
 35
0.0
146
0.0
 13
0.0
 23
0.0
 33
0.0
 16
1.0
 26
0.0
 36
0.0
 17
0.0
 27
1.0
 37
0.0
 76
     0
330
15
331
64F
  0
MATERIAL
  5
6C8
102
{ACAD_REACTORS
330
6C6
102
}
330
6C6
100
AcDbMaterial
  1
ByBlock
 72
     1
 94
      127
  0
MATERIAL
  5
6C7
102
{ACAD_REACTORS
330
6C6
102
}
330
6C6
100
AcDbMaterial
  1
ByLayer
 72
     1
 94
      127
  0
MATERIAL
  5
6C9
102
{ACAD_REACTORS
330
6C6
102
}
330
6C6
100
AcDbMaterial
  1
Global
 72
     1
 94
      127
  0
MLEADERSTYLE
  5
6ED
102
{ACAD_REACTORS
330
6E2
102
}
330
6E2
100
AcDbMLeaderStyle
179
     2
170
     2
171
     1
172
     0
 90
        2
 40
0.0
 41
0.0
173
     1
 91
-1056964608
340
12
 92
       -2
290
     1
 42
2.0
291
     1
 43
8.0
  3
Standard
341
0
 44
4.0
300

342
F
174
     1
178
     6
175
     1
176
     0
 93
-1056964608
 45
4.0
292
     0
297
     0
 46
4.0
343
0
 94
-1056964608
 47
1.0
 49
1.0
140
1.0
293
     1
141
0.0
294
     1
177
     0
142
1.0
295
     0
296
     0
143
3.75
271
     0
272
     9
273
     9
298
     0
  0
MLINESTYLE
  5
1C
102
{ACAD_REACTORS
330
1B
102
}
330
1B
100
AcDbMlineStyle
  2
STANDARD
 70
     0
  3

 62
   256
 51
90.0
 52
90.0
 71
     2
 49
0.5
 62
   256
  6
BYLAYER
 49
-0.5
 62
   256
  6
BYLAYER
  0
ACDBPLACEHOLDER
  5
B7
102
{ACAD_REACTORS
330
B6
102
}
330
B6
  0
SCALE
  5
6A5
102
{ACAD_REACTORS
330
6A4
102
}
330
6A4
100
AcDbScale
 70
     0
300
1:1
140
1.0
141
1.0
290
     1
  0
SCALE
  5
6A6
102
{ACAD_REACTORS
330
6A4
102
}
330
6A4
100
AcDbScale
 70
     0
300
1:2
140
1.0
141
2.0
290
     0
  0
SCALE
  5
6A7
102
{ACAD_REACTORS
330
6A4
102
}
330
6A4
100
AcDbScale
 70
     0
300
1:4
140
1.0
141
4.0
290
     0
  0
SCALE
  5
6A8
102
{ACAD_REACTORS
330
6A4
102
}
330
6A4
100
AcDbScale
 70
     0
300
1:5
140
1.0
141
5.0
290
     0
  0
SCALE
  5
6A9
102
{ACAD_REACTORS
330
6A4
102
}
330
6A4
100
AcDbScale
 70
     0
300
1:8
140
1.0
141
8.0
290
     0
  0
SCALE
  5
6AA
102
{ACAD_REACTORS
330
6A4
102
}
330
6A4
100
AcDbScale
 70
     0
300
1:10
140
1.0
141
10.0
290
     0
  0
SCALE
  5
6AB
102
{ACAD_REACTORS
330
6A4
102
}
330
6A4
100
AcDbScale
 70
     0
300
1:16
140
1.0
141
16.0
290
     0
  0
SCALE
  5
6AC
102
{ACAD_REACTORS
330
6A4
102
}
330
6A4
100
AcDbScale
 70
     0
300
1:20
140
1.0
141
20.0
290
     0
  0
SCALE
  5
6AD
102
{ACAD_REACTORS
330
6A4
102
}
330
6A4
100
AcDbScale
 70
     0
300
1:30
140
1.0
141
30.0
290
     0
  0
SCALE
  5
6AE
102
{ACAD_REACTORS
330
6A4
102
}
330
6A4
100
AcDbScale
 70
     0
300
1:40
140
1.0
141
40.0
290
     0
  0
SCALE
  5
6AF
102
{ACAD_REACTORS
330
6A4
102
}
330
6A4
100
AcDbScale
 70
     0
300
1:50
140
1.0
141
50.0
290
     0
  0
SCALE
  5
6B0
102
{ACAD_REACTORS
330
6A4
102
}
330
6A4
100
AcDbScale
 70
     0
300
1:100
140
1.0
141
100.0
290
     0
  0
SCALE
  5
6B1
102
{ACAD_REACTORS
330
6A4
102
}
330
6A4
100
AcDbScale
 70
     0
300
2:1
140
2.0
141
1.0
290
     0
  0
SCALE
  5
6B2
102
{ACAD_REACTORS
330
6A4
102
}
330
6A4
100
AcDbScale
 70
     0
300
4:1
140
4.0
141
1.0
290
     0
  0
SCALE
  5
6B3
102
{ACAD_REACTORS
330
6A4
102
}
330
6A4
100
AcDbScale
 70
     0
300
8:1
140
8.0
141
1.0
290
     0
  0
SCALE
  5
6B4
102
{ACAD_REACTORS
330
6A4
102
}
330
6A4
100
AcDbScale
 70
     0
300
10:1
140
10.0
141
1.0
290
     0
  0
SCALE
  5
6B5
102
{ACAD_REACTORS
330
6A4
102
}
330
6A4
100
AcDbScale
 70
     0
300
100:1
140
100.0
141
1.0
290
     0
  0
SCALE
  5
6B6
102
{ACAD_REACTORS
330
6A4
102
}
330
6A4
100
AcDbScale
 70
     0
300
1/128" = 1'-0"
140
0.0078125
141
12.0
290
     0
  0
SCALE
  5
6B7
102
{ACAD_REACTORS
330
6A4
102
}
330
6A4
100
AcDbScale
 70
     0
300
1/64" = 1'-0"
140
0.015625
141
12.0
290
     0
  0
SCALE
  5
6B8
102
{ACAD_REACTORS
330
6A4
102
}
330
6A4
100
AcDbScale
 70
     0
300
1/32" = 1'-0"
140
0.03125
141
12.0
290
     0
  0
SCALE
  5
6B9
102
{ACAD_REACTORS
330
6A4
102
}
330
6A4
100
AcDbScale
 70
     0
300
1/16" = 1'-0"
140
0.0625
141
12.0
290
     0
  0
SCALE
  5
6BA
102
{ACAD_REACTORS
330
6A4
102
}
330
6A4
100
AcDbScale
 70
     0
300
3/32" = 1'-0"
140
0.09375
141
12.0
290
     0
  0
SCALE
  5
6BB
102
{ACAD_REACTORS
330
6A4
102
}
330
6A4
100
AcDbScale
 70
     0
300
1/8" = 1'-0"
140
0.125
141
12.0
290
     0
  0
SCALE
  5
6BC
102
{ACAD_REACTORS
330
6A4
102
}
330
6A4
100
AcDbScale
 70
     0
300
3/16" = 1'-0"
140
0.1875
141
12.0
290
     0
  0
SCALE
  5
6BD
102
{ACAD_REACTORS
330
6A4
102
}
330
6A4
100
AcDbScale
 70
     0
300
1/4" = 1'-0"
140
0.25
141
12.0
290
     0
  0
SCALE
  5
6BE
102
{ACAD_REACTORS
330
6A4
102
}
330
6A4
100
AcDbScale
 70
     0
300
3/8" = 1'-0"
140
0.375
141
12.0
290
     0
  0
SCALE
  5
6BF
102
{ACAD_REACTORS
330
6A4
102
}
330
6A4
100
AcDbScale
 70
     0
300
1/2" = 1'-0"
140
0.5
141
12.0
290
     0
  0
SCALE
  5
6C0
102
{ACAD_REACTORS
330
6A4
102
}
330
6A4
100
AcDbScale
 70
     0
300
3/4" = 1'-0"
140
0.75
141
12.0
290
     0
  0
SCALE
  5
6C1
102
{ACAD_REACTORS
330
6A4
102
}
330
6A4
100
AcDbScale
 70
     0
300
1" = 1'-0"
140
1.0
141
12.0
290
     0
  0
SCALE
  5
6C2
102
{ACAD_REACTORS
330
6A4
102
}
330
6A4
100
AcDbScale
 70
     0
300
1-1/2" = 1'-0"
140
1.5
141
12.0
290
     0
  0
SCALE
  5
6C3
102
{ACAD_REACTORS
330
6A4
102
}
330
6A4
100
AcDbScale
 70
     0
300
3" = 1'-0"
140
3.0
141
12.0
290
     0
  0
SCALE
  5
6C4
102
{ACAD_REACTORS
330
6A4
102
}
330
6A4
100
AcDbScale
 70
     0
300
6" = 1'-0"
140
6.0
141
12.0
290
     0
  0
SCALE
  5
6C5
102
{ACAD_REACTORS
330
6A4
102
}
330
6A4
100
AcDbScale
 70
     0
300
1'-0" = 1'-0"
140
12.0
141
12.0
290
     0
  0
TABLESTYLE
  5
6DC
102
{ACAD_REACTORS
330
6DB
102
}
102
{ACAD_XDICTIONARY
360
713
102
}
330
6DB
100
AcDbTableStyle
  3
Standard
 70
     0
 71
     0
 40
1.5
 41
1.5
280
     0
281
     0
  7
STANDARD
140
4.5
170
     2
 62
     0
 63
   257
283
     0
 90
        4
 91
        0
  1

274
    -2
284
     1
 64
     0
275
    -2
285
     1
 65
     0
276
    -2
286
     1
 66
     0
277
    -2
287
     1
 67
     0
278
    -2
288
     1
 68
     0
279
    -2
289
     1
 69
     0
  7
STANDARD
140
6.0
170
     5
 62
     0
 63
   257
283
     0
 90
        4
 91
        0
  1

274
    -2
284
     1
 64
     0
275
    -2
285
     1
 65
     0
276
    -2
286
     1
 66
     0
277
    -2
287
     1
 67
     0
278
    -2
288
     1
 68
     0
279
    -2
289
     1
 69
     0
  7
STANDARD
140
4.5
170
     5
 62
     0
 63
   257
283
     0
 90
        4
 91
        0
  1

274
    -2
284
     1
 64
     0
275
    -2
285
     1
 65
     0
276
    -2
286
     1
 66
     0
277
    -2
287
     1
 67
     0
278
    -2
288
     1
 68
     0
279
    -2
289
     1
 69
     0
  0
VISUALSTYLE
  5
6CF
102
{ACAD_REACTORS
330
6CA
102
}
330
6CA
100
AcDbVisualStyle
  2
2dWireframe
 70
     4
177
     3
291
     0
 70
    58
 90
        0
176
     1
 90
        2
176
     1
 90
        0
176
     1
 90
        0
176
     1
 40
-0.6
176
     1
 40
-30.0
176
     1
 62
     7
420
 16777215
176
     1
 90
        1
176
     1
 90
        4
176
     1
 62
     7
176
     1
 62
   257
176
     1
 90
        1
176
     1
 90
        1
176
     1
 40
1.0
176
     1
 90
        0
176
     1
 62
   257
176
     1
 40
1.0
176
     1
 90
        1
176
     1
 90
        6
176
     1
 90
        2
176
     1
 62
     7
176
     1
 90
        5
176
     1
 90
        0
176
     1
 90
        0
176
     1
290
     0
176
     1
 90
        1
176
     1
 40
0.0
176
     1
 90
        0
176
     1
290
     1
176
     1
290
     1
176
     1
290
     0
176
     1
290
     0
176
     1
290
     0
176
     1
290
     0
176
     1
290
     0
176
     1
290
     0
176
     1
290
     0
176
     1
 90
       50
176
     1
 40
0.0
176
     1
 40
1.0
176
     1
 90
        0
176
     1
 62
    18
420
        0
176
     1
 90
       50
176
     1
 90
        3
176
     1
 62
     5
420
      255
176
     1
290
     0
176
     1
 90
       50
176
     1
 90
       50
176
     1
 90
       50
176
     1
290
     0
176
     1
 90
       50
176
     1
 62
   256
176
     0
 40
1.0
176
     0
 90
        2
176
     1
  1
strokes_ogs.tif
176
     1
290
     0
176
     1
 40
1.0
176
     1
 40
1.0
176
     1
  0
VISUALSTYLE
  5
6D1
102
{ACAD_REACTORS
330
6CA
102
}
330
6CA
100
AcDbVisualStyle
  2
3D Hidden
 70
     6
177
     3
291
     0
 70
    58
 90
        1
176
     1
 90
        2
176
     1
 90
        2
176
     1
 90
        0
176
     1
 40
-0.6
176
     1
 40
-30.0
176
     1
 62
     7
420
 16777215
176
     1
 90
        2
176
     1
 90
        2
176
     1
 62
     7
176
     1
 62
   257
176
     1
 90
        2
176
     1
 90
        1
176
     1
 40
40.0
176
     1
 90
        0
176
     1
 62
   257
176
     1
 40
1.0
176
     1
 90
        1
176
     1
 90
        6
176
     1
 90
        2
176
     1
 62
     7
176
     1
 90
        3
176
     1
 90
        0
176
     1
 90
        0
176
     1
290
     0
176
     1
 90
        1
176
     1
 40
0.0
176
     1
 90
        0
176
     1
290
     0
176
     1
290
     1
176
     1
290
     1
176
     1
290
     0
176
     1
290
     0
176
     1
290
     0
176
     1
290
     0
176
     1
290
     0
176
     1
290
     0
176
     1
 90
       50
176
     1
 40
0.0
176
     1
 40
1.0
176
     1
 90
        0
176
     1
 62
    18
420
        0
176
     1
 90
       50
176
     1
 90
        3
176
     1
 62
     5
420
      255
176
     1
290
     0
176
     1
 90
       50
176
     1
 90
       50
176
     1
 90
       50
176
     1
290
     0
176
     1
 90
       50
176
     1
 62
   256
176
     0
 40
1.0
176
     0
 90
        2
176
     1
  1
strokes_ogs.tif
176
     1
290
     0
176
     1
 40
1.0
176
     1
 40
1.0
176
     1
  0
VISUALSTYLE
  5
6D0
102
{ACAD_REACTORS
330
6CA
102
}
330
6CA
100
AcDbVisualStyle
  2
3dWireframe
 70
     5
177
     3
291
     0
 70
    58
 90
        0
176
     1
 90
        2
176
     1
 90
        0
176
     1
 90
        0
176
     1
 40
-0.6
176
     1
 40
-30.0
176
     1
 62
     7
420
 16777215
176
     1
 90
        1
176
     1
 90
        4
176
     1
 62
     7
176
     1
 62
   257
176
     1
 90
        1
176
     1
 90
        1
176
     1
 40
1.0
176
     1
 90
        0
176
     1
 62
   257
176
     1
 40
1.0
176
     1
 90
        1
176
     1
 90
        6
176
     1
 90
        2
176
     1
 62
     7
176
     1
 90
        5
176
     1
 90
        0
176
     1
 90
        0
176
     1
290
     0
176
     1
 90
        1
176
     1
 40
0.0
176
     1
 90
        0
176
     1
290
     0
176
     1
290
     1
176
     1
290
     1
176
     1
290
     0
176
     1
290
     0
176
     1
290
     0
176
     1
290
     0
176
     1
290
     0
176
     1
290
     0
176
     1
 90
       50
176
     1
 40
0.0
176
     1
 40
1.0
176
     1
 90
        0
176
     1
 62
    18
420
        0
176
     1
 90
       50
176
     1
 90
        3
176
     1
 62
     5
420
      255
176
     1
290
     0
176
     1
 90
       50
176
     1
 90
       50
176
     1
 90
       50
176
     1
290
     0
176
     1
 90
       50
176
     1
 62
   256
176
     0
 40
1.0
176
     0
 90
        2
176
     1
  1
strokes_ogs.tif
176
     1
290
     0
176
     1
 40
1.0
176
     1
 40
1.0
176
     1
  0
VISUALSTYLE
  5
6D2
102
{ACAD_REACTORS
330
6CA
102
}
330
6CA
100
AcDbVisualStyle
  2
Basic
 70
     7
177
     3
291
     1
 70
    58
 90
        1
176
     1
 90
        0
176
     1
 90
        1
176
     1
 90
        0
176
     1
 40
-0.6
176
     1
 40
-30.0
176
     1
 62
     7
420
 16777215
176
     1
 90
        0
176
     1
 90
        4
176
     1
 62
     7
176
     1
 62
   257
176
     1
 90
        1
176
     1
 90
        1
176
     1
 40
1.0
176
     1
 90
        8
176
     1
 62
     7
176
     1
 40
1.0
176
     1
 90
        1
176
     1
 90
        6
176
     1
 90
        2
176
     1
 62
     7
176
     1
 90
        5
176
     1
 90
        0
176
     1
 90
        0
176
     1
290
     0
176
     1
 90
        1
176
     1
 40
0.0
176
     1
 90
        0
176
     1
290
     0
176
     1
290
     1
176
     1
290
     1
176
     1
290
     0
176
     1
290
     0
176
     1
290
     0
176
     1
290
     0
176
     1
290
     0
176
     1
290
     0
176
     1
 90
       50
176
     1
 40
0.0
176
     1
 40
1.0
176
     1
 90
        0
176
     1
 62
    18
420
        0
176
     1
 90
       50
176
     1
 90
        3
176
     1
 62
     5
420
      255
176
     1
290
     0
176
     1
 90
       50
176
     1
 90
       50
176
     1
 90
       50
176
     1
290
     0
176
     1
 90
       50
176
     1
 62
   256
176
     0
 40
1.0
176
     0
 90
        2
176
     1
  1
strokes_ogs.tif
176
     1
290
     0
176
     1
 40
1.0
176
     1
 40
1.0
176
     1
  0
VISUALSTYLE
  5
6D6
102
{ACAD_REACTORS
330
6CA
102
}
330
6CA
100
AcDbVisualStyle
  2
Brighten
 70
    12
177
     3
291
     1
 70
    58
 90
        2
176
     1
 90
        2
176
     1
 90
        0
176
     1
 90
        0
176
     1
 40
-0.6
176
     1
 40
-30.0
176
     1
 62
     7
420
 16777215
176
     1
 90
        1
176
     1
 90
        4
176
     1
 62
     7
176
     1
 62
   257
176
     1
 90
        1
176
     1
 90
        1
176
     1
 40
1.0
176
     1
 90
        8
176
     1
 62
     7
176
     1
 40
1.0
176
     1
 90
        1
176
     1
 90
        6
176
     1
 90
        2
176
     1
 62
     7
176
     1
 90
        5
176
     1
 90
        0
176
     1
 90
        0
176
     1
290
     0
176
     1
 90
        1
176
     1
 40
50.0
176
     1
 90
        0
176
     1
290
     0
176
     1
290
     1
176
     1
290
     1
176
     1
290
     0
176
     1
290
     0
176
     1
290
     0
176
     1
290
     0
176
     1
290
     0
176
     1
290
     0
176
     1
 90
       50
176
     1
 40
0.0
176
     1
 40
1.0
176
     1
 90
        0
176
     1
 62
    18
420
        0
176
     1
 90
       50
176
     1
 90
        3
176
     1
 62
     5
420
      255
176
     1
290
     0
176
     1
 90
       50
176
     1
 90
       50
176
     1
 90
       50
176
     1
290
     0
176
     1
 90
       50
176
     1
 62
   256
176
     0
 40
1.0
176
     0
 90
        2
176
     1
  1
strokes_ogs.tif
176
     1
290
     0
176
     1
 40
1.0
176
     1
 40
1.0
176
     1
  0
VISUALSTYLE
  5
6DA
102
{ACAD_REACTORS
330
6CA
102
}
330
6CA
100
AcDbVisualStyle
  2
ColorChange
 70
    16
177
     3
291
     1
 70
    58
 90
        2
176
     1
 90
        2
176
     1
 90
        3
176
     1
 90
        0
176
     1
 40
-0.6
176
     1
 40
-30.0
176
     1
 62
     8
420
  8421504
176
     1
 90
        1
176
     1
 90
        4
176
     1
 62
     7
176
     1
 62
   257
176
     1
 90
        1
176
     1
 90
        1
176
     1
 40
1.0
176
     1
 90
        8
176
     1
 62
     8
420
  8421504
176
     1
 40
1.0
176
     1
 90
        1
176
     1
 90
        6
176
     1
 90
        2
176
     1
 62
     7
176
     1
 90
        5
176
     1
 90
        0
176
     1
 90
        0
176
     1
290
     0
176
     1
 90
        1
176
     1
 40
0.0
176
     1
 90
        0
176
     1
290
     0
176
     1
290
     1
176
     1
290
     1
176
     1
290
     0
176
     1
290
     0
176
     1
290
     0
176
     1
290
     0
176
     1
290
     0
176
     1
290
     0
176
     1
 90
       50
176
     1
 40
0.0
176
     1
 40
1.0
176
     1
 90
        0
176
     1
 62
    18
420
        0
176
     1
 90
       50
176
     1
 90
        3
176
     1
 62
     5
420
      255
176
     1
290
     0
176
     1
 90
       50
176
     1
 90
       50
176
     1
 90
       50
176
     1
290
     0
176
     1
 90
       50
176
     1
 62
   256
176
     0
 40
1.0
176
     0
 90
        2
176
     1
  1
strokes_ogs.tif
176
     1
290
     0
176
     1
 40
1.0
176
     1
 40
1.0
176
     1
  0
VISUALSTYLE
  5
6D4
102
{ACAD_REACTORS
330
6CA
102
}
330
6CA
100
AcDbVisualStyle
  2
Conceptual
 70
     9
177
     3
291
     0
 70
    58
 90
        3
176
     1
 90
        2
176
     1
 90
        0
176
     1
 90
        0
176
     1
 40
-0.6
176
     1
 40
-30.0
176
     1
 62
     7
420
 16777215
176
     1
 90
        2
176
     1
 90
        2
176
     1
 62
     7
176
     1
 62
   257
176
     1
 90
        1
176
     1
 90
        1
176
     1
 40
40.0
176
     1
 90
        8
176
     1
 62
     7
176
     1
 40
1.0
176
     1
 90
        1
176
     1
 90
        6
176
     1
 90
        2
176
     1
 62
     7
176
     1
 90
        3
176
     1
 90
        0
176
     1
 90
        0
176
     1
290
     0
176
     1
 90
        1
176
     1
 40
0.0
176
     1
 90
        0
176
     1
290
     0
176
     1
290
     1
176
     1
290
     1
176
     1
290
     0
176
     1
290
     0
176
     1
290
     0
176
     1
290
     0
176
     1
290
     0
176
     1
290
     0
176
     1
 90
       50
176
     1
 40
0.0
176
     1
 40
1.0
176
     1
 90
        0
176
     1
 62
    18
420
        0
176
     1
 90
       50
176
     1
 90
        3
176
     1
 62
     5
420
      255
176
     1
290
     0
176
     1
 90
       50
176
     1
 90
       50
176
     1
 90
       50
176
     1
290
     0
176
     1
 90
       50
176
     1
 62
   256
176
     0
 40
1.0
176
     0
 90
        2
176
     1
  1
strokes_ogs.tif
176
     1
290
     0
176
     1
 40
1.0
176
     1
 40
1.0
176
     1
  0
VISUALSTYLE
  5
6D5
102
{ACAD_REACTORS
330
6CA
102
}
330
6CA
100
AcDbVisualStyle
  2
Dim
 70
    11
177
     3
291
     1
 70
    58
 90
        2
176
     1
 90
        2
176
     1
 90
        0
176
     1
 90
        0
176
     1
 40
-0.6
176
     1
 40
-30.0
176
     1
 62
     7
420
 16777215
176
     1
 90
        1
176
     1
 90
        4
176
     1
 62
     7
176
     1
 62
   257
176
     1
 90
        1
176
     1
 90
        1
176
     1
 40
1.0
176
     1
 90
        8
176
     1
 62
     7
176
     1
 40
1.0
176
     1
 90
        1
176
     1
 90
        6
176
     1
 90
        2
176
     1
 62
     7
176
     1
 90
        5
176
     1
 90
        0
176
     1
 90
        0
176
     1
290
     0
176
     1
 90
        1
176
     1
 40
-50.0
176
     1
 90
        0
176
     1
290
     0
176
     1
290
     1
176
     1
290
     1
176
     1
290
     0
176
     1
290
     0
176
     1
290
     0
176
     1
290
     0
176
     1
290
     0
176
     1
290
     0
176
     1
 90
       50
176
     1
 40
0.0
176
     1
 40
1.0
176
     1
 90
        0
176
     1
 62
    18
420
        0
176
     1
 90
       50
176
     1
 90
        3
176
     1
 62
     5
420
      255
176
     1
290
     0
176
     1
 90
       50
176
     1
 90
       50
176
     1
 90
       50
176
     1
290
     0
176
     1
 90
       50
176
     1
 62
   256
176
     0
 40
1.0
176
     0
 90
        2
176
     1
  1
strokes_ogs.tif
176
     1
290
     0
176
     1
 40
1.0
176
     1
 40
1.0
176
     1
  0
VISUALSTYLE
  5
6E7
102
{ACAD_REACTORS
330
6CA
102
}
330
6CA
100
AcDbVisualStyle
  2
EdgeColorOff
 70
    22
177
     3
291
     1
 70
    58
 90
        2
176
     1
 90
        2
176
     1
 90
        0
176
     1
 90
        0
176
     1
 40
0.6
176
     1
 40
30.0
176
     1
 62
     7
420
 16777215
176
     1
 90
        1
176
     1
 90
        4
176
     1
 62
     7
176
     1
 62
   257
176
     1
 90
        1
176
     1
 90
        1
176
     1
 40
1.0
176
     1
 90
        8
176
     1
 62
     7
176
     1
 40
1.0
176
     1
 90
        1
176
     1
 90
        6
176
     1
 90
        2
176
     1
 62
     7
176
     1
 90
        5
176
     1
 90
        0
176
     1
 90
        0
176
     1
290
     0
176
     1
 90
        1
176
     1
 40
0.0
176
     1
 90
        0
176
     1
290
     0
176
     1
290
     1
176
     1
290
     1
176
     1
290
     0
176
     1
290
     0
176
     1
290
     0
176
     1
290
     0
176
     1
290
     0
176
     1
290
     0
176
     1
 90
       50
176
     1
 40
0.0
176
     1
 40
1.0
176
     1
 90
        0
176
     1
 62
    18
420
        0
176
     1
 90
       50
176
     1
 90
        3
176
     1
 62
     5
420
      255
176
     1
290
     0
176
     1
 90
       50
176
     1
 90
       50
176
     1
 90
       50
176
     1
290
     0
176
     1
 90
       50
176
     1
 62
   256
176
     0
 40
1.0
176
     0
 90
        2
176
     1
  1
strokes_ogs.tif
176
     1
290
     0
176
     1
 40
1.0
176
     1
 40
1.0
176
     1
  0
VISUALSTYLE
  5
6D9
102
{ACAD_REACTORS
330
6CA
102
}
330
6CA
100
AcDbVisualStyle
  2
Facepattern
 70
    15
177
     3
291
     1
 70
    58
 90
        2
176
     1
 90
        2
176
     1
 90
        0
176
     1
 90
        0
176
     1
 40
-0.6
176
     1
 40
-30.0
176
     1
 62
     7
420
 16777215
176
     1
 90
        1
176
     1
 90
        4
176
     1
 62
     7
176
     1
 62
   257
176
     1
 90
        1
176
     1
 90
        1
176
     1
 40
1.0
176
     1
 90
        8
176
     1
 62
     7
176
     1
 40
1.0
176
     1
 90
        1
176
     1
 90
        6
176
     1
 90
        2
176
     1
 62
     7
176
     1
 90
        5
176
     1
 90
        0
176
     1
 90
        0
176
     1
290
     0
176
     1
 90
        1
176
     1
 40
0.0
176
     1
 90
        0
176
     1
290
     0
176
     1
290
     1
176
     1
290
     1
176
     1
290
     0
176
     1
290
     0
176
     1
290
     0
176
     1
290
     0
176
     1
290
     0
176
     1
290
     0
176
     1
 90
       50
176
     1
 40
0.0
176
     1
 40
1.0
176
     1
 90
        0
176
     1
 62
    18
420
        0
176
     1
 90
       50
176
     1
 90
        3
176
     1
 62
     5
420
      255
176
     1
290
     0
176
     1
 90
       50
176
     1
 90
       50
176
     1
 90
       50
176
     1
290
     0
176
     1
 90
       50
176
     1
 62
   256
176
     0
 40
1.0
176
     0
 90
        2
176
     1
  1
strokes_ogs.tif
176
     1
290
     0
176
     1
 40
1.0
176
     1
 40
1.0
176
     1
  0
VISUALSTYLE
  5
6CB
102
{ACAD_REACTORS
330
6CA
102
}
330
6CA
100
AcDbVisualStyle
  2
Flat
 70
     0
177
     3
291
     1
 70
    58
 90
        2
176
     1
 90
        1
176
     1
 90
        1
176
     1
 90
        2
176
     1
 40
-0.6
176
     1
 40
30.0
176
     1
 62
     7
420
 16777215
176
     1
 90
        0
176
     1
 90
        4
176
     1
 62
     7
176
     1
 62
   257
176
     1
 90
        1
176
     1
 90
        1
176
     1
 40
1.0
176
     1
 90
        8
176
     1
 62
     7
176
     1
 40
1.0
176
     1
 90
        1
176
     1
 90
        6
176
     1
 90
        2
176
     1
 62
     7
176
     1
 90
        5
176
     1
 90
        0
176
     1
 90
        0
176
     1
290
     0
176
     1
 90
       13
176
     1
 40
0.0
176
     1
 90
        0
176
     1
290
     0
176
     1
290
     1
176
     1
290
     1
176
     1
290
     0
176
     1
290
     0
176
     1
290
     0
176
     1
290
     0
176
     1
290
     0
176
     1
290
     0
176
     1
 90
       50
176
     1
 40
0.0
176
     1
 40
1.0
176
     1
 90
        0
176
     1
 62
    18
420
        0
176
     1
 90
       50
176
     1
 90
        3
176
     1
 62
     5
420
      255
176
     1
290
     0
176
     1
 90
       50
176
     1
 90
       50
176
     1
 90
       50
176
     1
290
     0
176
     1
 90
       50
176
     1
 62
   256
176
     0
 40
1.0
176
     0
 90
        2
176
     1
  1
strokes_ogs.tif
176
     1
290
     0
176
     1
 40
1.0
176
     1
 40
1.0
176
     1
  0
VISUALSTYLE
  5
6CC
102
{ACAD_REACTORS
330
6CA
102
}
330
6CA
100
AcDbVisualStyle
  2
FlatWithEdges
 70
     1
177
     3
291
     1
 70
    58
 90
        2
176
     1
 90
        1
176
     1
 90
        1
176
     1
 90
        2
176
     1
 40
-0.6
176
     1
 40
30.0
176
     1
 62
     7
420
 16777215
176
     1
 90
        1
176
     1
 90
        4
176
     1
 62
     7
176
     1
 62
   257
176
     1
 90
        1
176
     1
 90
        1
176
     1
 40
1.0
176
     1
 90
        0
176
     1
 62
   257
176
     1
 40
1.0
176
     1
 90
        1
176
     1
 90
        6
176
     1
 90
        2
176
     1
 62
     7
176
     1
 90
        5
176
     1
 90
        0
176
     1
 90
        0
176
     1
290
     0
176
     1
 90
       13
176
     1
 40
0.0
176
     1
 90
        0
176
     1
290
     0
176
     1
290
     1
176
     1
290
     1
176
     1
290
     0
176
     1
290
     0
176
     1
290
     0
176
     1
290
     0
176
     1
290
     0
176
     1
290
     0
176
     1
 90
       50
176
     1
 40
0.0
176
     1
 40
1.0
176
     1
 90
        0
176
     1
 62
    18
420
        0
176
     1
 90
       50
176
     1
 90
        3
176
     1
 62
     5
420
      255
176
     1
290
     0
176
     1
 90
       50
176
     1
 90
       50
176
     1
 90
       50
176
     1
290
     0
176
     1
 90
       50
176
     1
 62
   256
176
     0
 40
1.0
176
     0
 90
        2
176
     1
  1
strokes_ogs.tif
176
     1
290
     0
176
     1
 40
1.0
176
     1
 40
1.0
176
     1
  0
VISUALSTYLE
  5
6CD
102
{ACAD_REACTORS
330
6CA
102
}
330
6CA
100
AcDbVisualStyle
  2
Gouraud
 70
     2
177
     3
291
     1
 70
    58
 90
        2
176
     1
 90
        2
176
     1
 90
        1
176
     1
 90
        2
176
     1
 40
-0.6
176
     1
 40
30.0
176
     1
 62
     7
420
 16777215
176
     1
 90
        0
176
     1
 90
        4
176
     1
 62
     7
176
     1
 62
   257
176
     1
 90
        1
176
     1
 90
        1
176
     1
 40
1.0
176
     1
 90
        0
176
     1
 62
     7
176
     1
 40
1.0
176
     1
 90
        1
176
     1
 90
        6
176
     1
 90
        2
176
     1
 62
     7
176
     1
 90
        5
176
     1
 90
        0
176
     1
 90
        0
176
     1
290
     0
176
     1
 90
       13
176
     1
 40
0.0
176
     1
 90
        0
176
     1
290
     0
176
     1
290
     1
176
     1
290
     1
176
     1
290
     0
176
     1
290
     0
176
     1
290
     0
176
     1
290
     0
176
     1
290
     0
176
     1
290
     0
176
     1
 90
       50
176
     1
 40
0.0
176
     1
 40
1.0
176
     1
 90
        0
176
     1
 62
    18
420
        0
176
     1
 90
       50
176
     1
 90
        3
176
     1
 62
     5
420
      255
176
     1
290
     0
176
     1
 90
       50
176
     1
 90
       50
176
     1
 90
       50
176
     1
290
     0
176
     1
 90
       50
176
     1
 62
   256
176
     0
 40
1.0
176
     0
 90
        2
176
     1
  1
strokes_ogs.tif
176
     1
290
     0
176
     1
 40
1.0
176
     1
 40
1.0
176
     1
  0
VISUALSTYLE
  5
6CE
102
{ACAD_REACTORS
330
6CA
102
}
330
6CA
100
AcDbVisualStyle
  2
GouraudWithEdges
 70
     3
177
     3
291
     1
 70
    58
 90
        2
176
     1
 90
        2
176
     1
 90
        1
176
     1
 90
        2
176
     1
 40
-0.6
176
     1
 40
30.0
176
     1
 62
     7
420
 16777215
176
     1
 90
        1
176
     1
 90
        4
176
     1
 62
     7
176
     1
 62
   257
176
     1
 90
        1
176
     1
 90
        1
176
     1
 40
1.0
176
     1
 90
        0
176
     1
 62
   257
176
     1
 40
1.0
176
     1
 90
        1
176
     1
 90
        6
176
     1
 90
        2
176
     1
 62
     7
176
     1
 90
        5
176
     1
 90
        0
176
     1
 90
        0
176
     1
290
     0
176
     1
 90
       13
176
     1
 40
0.0
176
     1
 90
        0
176
     1
290
     0
176
     1
290
     1
176
     1
290
     1
176
     1
290
     0
176
     1
290
     0
176
     1
290
     0
176
     1
290
     0
176
     1
290
     0
176
     1
290
     0
176
     1
 90
       50
176
     1
 40
0.0
176
     1
 40
1.0
176
     1
 90
        0
176
     1
 62
    18
420
        0
176
     1
 90
       50
176
     1
 90
        3
176
     1
 62
     5
420
      255
176
     1
290
     0
176
     1
 90
       50
176
     1
 90
       50
176
     1
 90
       50
176
     1
290
     0
176
     1
 90
       50
176
     1
 62
   256
176
     0
 40
1.0
176
     0
 90
        2
176
     1
  1
strokes_ogs.tif
176
     1
290
     0
176
     1
 40
1.0
176
     1
 40
1.0
176
     1
  0
VISUALSTYLE
  5
6E4
102
{ACAD_REACTORS
330
6CA
102
}
330
6CA
100
AcDbVisualStyle
  2
Hidden
 70
     6
177
     3
291
     0
 70
    58
 90
        1
176
     1
 90
        2
176
     1
 90
        2
176
     1
 90
        0
176
     1
 40
0.6
176
     1
 40
30.0
176
     1
 62
     7
420
 16777215
176
     1
 90
        2
176
     1
 90
        2
176
     1
 62
     7
176
     1
 62
   257
176
     1
 90
        2
176
     1
 90
        1
176
     1
 40
40.0
176
     1
 90
        0
176
     1
 62
   257
176
     1
 40
1.0
176
     1
 90
        1
176
     1
 90
        6
176
     1
 90
        2
176
     1
 62
     7
176
     1
 90
        3
176
     1
 90
        0
176
     1
 90
        0
176
     1
290
     0
176
     1
 90
        1
176
     1
 40
0.0
176
     1
 90
        0
176
     1
290
     0
176
     1
290
     1
176
     1
290
     1
176
     1
290
     0
176
     1
290
     0
176
     1
290
     0
176
     1
290
     0
176
     1
290
     0
176
     1
290
     0
176
     1
 90
       50
176
     1
 40
0.0
176
     1
 40
1.0
176
     1
 90
        0
176
     1
 62
    18
420
        0
176
     1
 90
       50
176
     1
 90
        3
176
     1
 62
     5
420
      255
176
     1
290
     0
176
     1
 90
       50
176
     1
 90
       50
176
     1
 90
       50
176
     1
290
     0
176
     1
 90
       50
176
     1
 62
   256
176
     0
 40
1.0
176
     0
 90
        2
176
     1
  1
strokes_ogs.tif
176
     1
290
     0
176
     1
 40
1.0
176
     1
 40
1.0
176
     1
  0
VISUALSTYLE
  5
6E5
102
{ACAD_REACTORS
330
6CA
102
}
330
6CA
100
AcDbVisualStyle
  2
JitterOff
 70
    20
177
     3
291
     1
 70
    58
 90
        2
176
     1
 90
        2
176
     1
 90
        0
176
     1
 90
        0
176
     1
 40
0.6
176
     1
 40
30.0
176
     1
 62
     7
420
 16777215
176
     1
 90
        1
176
     1
 90
        4
176
     1
 62
     7
176
     1
 62
   257
176
     1
 90
        1
176
     1
 90
        1
176
     1
 40
1.0
176
     1
 90
       10
176
     1
 62
     7
176
     1
 40
1.0
176
     1
 90
        1
176
     1
 90
        6
176
     1
 90
        2
176
     1
 62
     7
176
     1
 90
        5
176
     1
 90
        0
176
     1
 90
        0
176
     1
290
     0
176
     1
 90
        1
176
     1
 40
0.0
176
     1
 90
        0
176
     1
290
     0
176
     1
290
     1
176
     1
290
     1
176
     1
290
     0
176
     1
290
     0
176
     1
290
     0
176
     1
290
     0
176
     1
290
     0
176
     1
290
     0
176
     1
 90
       50
176
     1
 40
0.0
176
     1
 40
1.0
176
     1
 90
        0
176
     1
 62
    18
420
        0
176
     1
 90
       50
176
     1
 90
        3
176
     1
 62
     5
420
      255
176
     1
290
     0
176
     1
 90
       50
176
     1
 90
       50
176
     1
 90
       50
176
     1
290
     0
176
     1
 90
       50
176
     1
 62
   256
176
     0
 40
1.0
176
     0
 90
        2
176
     1
  1
strokes_ogs.tif
176
     1
290
     0
176
     1
 40
1.0
176
     1
 40
1.0
176
     1
  0
VISUALSTYLE
  5
6D8
102
{ACAD_REACTORS
330
6CA
102
}
330
6CA
100
AcDbVisualStyle
  2
Linepattern
 70
    14
177
     3
291
     1
 70
    58
 90
        2
176
     1
 90
        2
176
     1
 90
        0
176
     1
 90
        0
176
     1
 40
-0.6
176
     1
 40
-30.0
176
     1
 62
     7
420
 16777215
176
     1
 90
        1
176
     1
 90
        4
176
     1
 62
     7
176
     1
 62
   257
176
     1
 90
        7
176
     1
 90
        7
176
     1
 40
1.0
176
     1
 90
        8
176
     1
 62
     7
176
     1
 40
1.0
176
     1
 90
        1
176
     1
 90
        6
176
     1
 90
        2
176
     1
 62
     7
176
     1
 90
        5
176
     1
 90
        0
176
     1
 90
        0
176
     1
290
     0
176
     1
 90
        1
176
     1
 40
0.0
176
     1
 90
        0
176
     1
290
     0
176
     1
290
     1
176
     1
290
     1
176
     1
290
     0
176
     1
290
     0
176
     1
290
     0
176
     1
290
     0
176
     1
290
     0
176
     1
290
     0
176
     1
 90
       50
176
     1
 40
0.0
176
     1
 40
1.0
176
     1
 90
        0
176
     1
 62
    18
420
        0
176
     1
 90
       50
176
     1
 90
        3
176
     1
 62
     5
420
      255
176
     1
290
     0
176
     1
 90
       50
176
     1
 90
       50
176
     1
 90
       50
176
     1
290
     0
176
     1
 90
       50
176
     1
 62
   256
176
     0
 40
1.0
176
     0
 90
        2
176
     1
  1
strokes_ogs.tif
176
     1
290
     0
176
     1
 40
1.0
176
     1
 40
1.0
176
     1
  0
VISUALSTYLE
  5
6E6
102
{ACAD_REACTORS
330
6CA
102
}
330
6CA
100
AcDbVisualStyle
  2
OverhangOff
 70
    21
177
     3
291
     1
 70
    58
 90
        2
176
     1
 90
        2
176
     1
 90
        0
176
     1
 90
        0
176
     1
 40
0.6
176
     1
 40
30.0
176
     1
 62
     7
420
 16777215
176
     1
 90
        1
176
     1
 90
        4
176
     1
 62
     7
176
     1
 62
   257
176
     1
 90
        1
176
     1
 90
        1
176
     1
 40
1.0
176
     1
 90
        9
176
     1
 62
     7
176
     1
 40
1.0
176
     1
 90
        1
176
     1
 90
        6
176
     1
 90
        2
176
     1
 62
     7
176
     1
 90
        5
176
     1
 90
        0
176
     1
 90
        0
176
     1
290
     0
176
     1
 90
        1
176
     1
 40
0.0
176
     1
 90
        0
176
     1
290
     0
176
     1
290
     1
176
     1
290
     1
176
     1
290
     0
176
     1
290
     0
176
     1
290
     0
176
     1
290
     0
176
     1
290
     0
176
     1
290
     0
176
     1
 90
       50
176
     1
 40
0.0
176
     1
 40
1.0
176
     1
 90
        0
176
     1
 62
    18
420
        0
176
     1
 90
       50
176
     1
 90
        3
176
     1
 62
     5
420
      255
176
     1
290
     0
176
     1
 90
       50
176
     1
 90
       50
176
     1
 90
       50
176
     1
290
     0
176
     1
 90
       50
176
     1
 62
   256
176
     0
 40
1.0
176
     0
 90
        2
176
     1
  1
strokes_ogs.tif
176
     1
290
     0
176
     1
 40
1.0
176
     1
 40
1.0
176
     1
  0
VISUALSTYLE
  5
6D3
102
{ACAD_REACTORS
330
6CA
102
}
330
6CA
100
AcDbVisualStyle
  2
Realistic
 70
     8
177
     3
291
     0
 70
    58
 90
        2
176
     1
 90
        2
176
     1
 90
        0
176
     1
 90
        0
176
     1
 40
-0.6
176
     1
 40
-30.0
176
     1
 62
     7
420
 16777215
176
     1
 90
        1
176
     1
 90
        0
176
     1
 62
     7
176
     1
 62
   257
176
     1
 90
        1
176
     1
 90
        1
176
     1
 40
1.0
176
     1
 90
        8
176
     1
 62
     8
420
  7895160
176
     1
 40
1.0
176
     1
 90
        1
176
     1
 90
        6
176
     1
 90
        2
176
     1
 62
     7
176
     1
 90
        5
176
     1
 90
        0
176
     1
 90
        0
176
     1
290
     0
176
     1
 90
       13
176
     1
 40
0.0
176
     1
 90
        0
176
     1
290
     0
176
     1
290
     1
176
     1
290
     1
176
     1
290
     0
176
     1
290
     0
176
     1
290
     0
176
     1
290
     0
176
     1
290
     0
176
     1
290
     0
176
     1
 90
       50
176
     1
 40
0.0
176
     1
 40
1.0
176
     1
 90
        0
176
     1
 62
    18
420
        0
176
     1
 90
       50
176
     1
 90
        3
176
     1
 62
     5
420
      255
176
     1
290
     0
176
     1
 90
       50
176
     1
 90
       50
176
     1
 90
       50
176
     1
290
     0
176
     1
 90
       50
176
     1
 62
   256
176
     0
 40
1.0
176
     0
 90
        2
176
     1
  1
strokes_ogs.tif
176
     1
290
     0
176
     1
 40
1.0
176
     1
 40
1.0
176
     1
  0
VISUALSTYLE
  5
6EC
102
{ACAD_REACTORS
330
6CA
102
}
330
6CA
100
AcDbVisualStyle
  2
Shaded
 70
    27
177
     3
291
     0
 70
    58
 90
        2
176
     1
 90
        2
176
     1
 90
        1
176
     1
 90
        2
176
     1
 40
0.6
176
     1
 40
30.0
176
     1
 62
     7
420
 16777215
176
     1
 90
        0
176
     1
 90
        4
176
     1
 62
     7
176
     1
 62
   257
176
     1
 90
        1
176
     1
 90
        1
176
     1
 40
1.0
176
     1
 90
        8
176
     1
 62
   257
176
     1
 40
1.0
176
     1
 90
        1
176
     1
 90
        6
176
     1
 90
        2
176
     1
 62
     8
420
  7895160
176
     1
 90
        3
176
     1
 90
        0
176
     1
 90
        0
176
     1
290
     0
176
     1
 90
        5
176
     1
 40
0.0
176
     1
 90
        0
176
     1
290
     0
176
     1
290
     1
176
     1
290
     1
176
     1
290
     0
176
     1
290
     0
176
     1
290
     0
176
     1
290
     0
176
     1
290
     0
176
     1
290
     0
176
     1
 90
       50
176
     1
 40
0.0
176
     1
 40
1.0
176
     1
 90
        0
176
     1
 62
    18
420
        0
176
     1
 90
       50
176
     1
 90
        3
176
     1
 62
     5
420
      255
176
     1
290
     0
176
     1
 90
       50
176
     1
 90
       50
176
     1
 90
       50
176
     1
290
     0
176
     1
 90
       50
176
     1
 62
   256
176
     0
 40
1.0
176
     0
 90
        2
176
     1
  1
strokes_ogs.tif
176
     1
290
     0
176
     1
 40
1.0
176
     1
 40
1.0
176
     1
  0
VISUALSTYLE
  5
6EB
102
{ACAD_REACTORS
330
6CA
102
}
330
6CA
100
AcDbVisualStyle
  2
Shaded with edges
 70
    26
177
     3
291
     0
 70
    58
 90
        2
176
     1
 90
        2
176
     1
 90
        1
176
     1
 90
        2
176
     1
 40
0.6
176
     1
 40
30.0
176
     1
 62
     7
420
 16777215
176
     1
 90
        1
176
     1
 90
       10
176
     1
 62
     7
176
     1
 62
   257
176
     1
 90
        2
176
     1
 90
        1
176
     1
 40
1.0
176
     1
 90
        8
176
     1
 62
   257
176
     1
 40
1.0
176
     1
 90
        1
176
     1
 90
        6
176
     1
 90
        2
176
     1
 62
     7
176
     1
 90
        3
176
     1
 90
        0
176
     1
 90
        0
176
     1
290
     0
176
     1
 90
        5
176
     1
 40
0.0
176
     1
 90
        0
176
     1
290
     0
176
     1
290
     1
176
     1
290
     1
176
     1
290
     0
176
     1
290
     0
176
     1
290
     0
176
     1
290
     0
176
     1
290
     0
176
     1
290
     0
176
     1
 90
       50
176
     1
 40
0.0
176
     1
 40
1.0
176
     1
 90
        0
176
     1
 62
    18
420
        0
176
     1
 90
       50
176
     1
 90
        3
176
     1
 62
     5
420
      255
176
     1
290
     0
176
     1
 90
       50
176
     1
 90
       50
176
     1
 90
       50
176
     1
290
     0
176
     1
 90
       50
176
     1
 62
   256
176
     0
 40
1.0
176
     0
 90
        2
176
     1
  1
strokes_ogs.tif
176
     1
290
     0
176
     1
 40
1.0
176
     1
 40
1.0
176
     1
  0
VISUALSTYLE
  5
6E8
102
{ACAD_REACTORS
330
6CA
102
}
330
6CA
100
AcDbVisualStyle
  2
Shades of Gray
 70
    23
177
     3
291
     0
 70
    58
 90
        2
176
     1
 90
        2
176
     1
 90
        3
176
     1
 90
        0
176
     1
 40
0.6
176
     1
 40
30.0
176
     1
 62
     7
420
 16777215
176
     1
 90
        2
176
     1
 90
        2
176
     1
 62
     7
176
     1
 62
     7
176
     1
 90
        1
176
     1
 90
        1
176
     1
 40
40.0
176
     1
 90
        8
176
     1
 62
     7
176
     1
 40
1.0
176
     1
 90
        1
176
     1
 90
        6
176
     1
 90
        2
176
     1
 62
     7
176
     1
 90
        3
176
     1
 90
        0
176
     1
 90
        0
176
     1
290
     0
176
     1
 90
        1
176
     1
 40
0.0
176
     1
 90
        0
176
     1
290
     0
176
     1
290
     1
176
     1
290
     1
176
     1
290
     0
176
     1
290
     0
176
     1
290
     0
176
     1
290
     0
176
     1
290
     0
176
     1
290
     0
176
     1
 90
       50
176
     1
 40
0.0
176
     1
 40
1.0
176
     1
 90
        0
176
     1
 62
    18
420
        0
176
     1
 90
       50
176
     1
 90
        3
176
     1
 62
     5
420
      255
176
     1
290
     0
176
     1
 90
       50
176
     1
 90
       50
176
     1
 90
       50
176
     1
290
     0
176
     1
 90
       50
176
     1
 62
   256
176
     0
 40
1.0
176
     0
 90
        2
176
     1
  1
strokes_ogs.tif
176
     1
290
     0
176
     1
 40
1.0
176
     1
 40
1.0
176
     1
  0
VISUALSTYLE
  5
6E9
102
{ACAD_REACTORS
330
6CA
102
}
330
6CA
100
AcDbVisualStyle
  2
Sketchy
 70
    24
177
     3
291
     0
 70
    58
 90
        1
176
     1
 90
        2
176
     1
 90
        2
176
     1
 90
        0
176
     1
 40
0.6
176
     1
 40
30.0
176
     1
 62
     7
420
 16777215
176
     1
 90
        2
176
     1
 90
        2
176
     1
 62
     7
176
     1
 62
     7
176
     1
 90
        1
176
     1
 90
        1
176
     1
 40
40.0
176
     1
 90
       11
176
     1
 62
     7
176
     1
 40
1.0
176
     1
 90
        1
176
     1
 90
        6
176
     1
 90
        2
176
     1
 62
     7
176
     1
 90
        6
176
     1
 90
        0
176
     1
 90
        0
176
     1
290
     0
176
     1
 90
        1
176
     1
 40
0.0
176
     1
 90
        0
176
     1
290
     0
176
     1
290
     1
176
     1
290
     1
176
     1
290
     0
176
     1
290
     0
176
     1
290
     0
176
     1
290
     0
176
     1
290
     0
176
     1
290
     0
176
     1
 90
       50
176
     1
 40
0.0
176
     1
 40
1.0
176
     1
 90
        0
176
     1
 62
    18
420
        0
176
     1
 90
       50
176
     1
 90
        3
176
     1
 62
     5
420
      255
176
     1
290
     0
176
     1
 90
       50
176
     1
 90
       50
176
     1
 90
       50
176
     1
290
     0
176
     1
 90
       50
176
     1
 62
   256
176
     0
 40
1.0
176
     0
 90
        2
176
     1
  1
strokes_ogs.tif
176
     1
290
     0
176
     1
 40
1.0
176
     1
 40
1.0
176
     1
  0
VISUALSTYLE
  5
6D7
102
{ACAD_REACTORS
330
6CA
102
}
330
6CA
100
AcDbVisualStyle
  2
Thicken
 70
    13
177
     3
291
     1
 70
    58
 90
        2
176
     1
 90
        2
176
     1
 90
        0
176
     1
 90
        0
176
     1
 40
-0.6
176
     1
 40
-30.0
176
     1
 62
     7
420
 16777215
176
     1
 90
        1
176
     1
 90
        4
176
     1
 62
     7
176
     1
 62
   257
176
     1
 90
        1
176
     1
 90
        1
176
     1
 40
1.0
176
     1
 90
       12
176
     1
 62
     7
176
     1
 40
1.0
176
     1
 90
        1
176
     1
 90
        6
176
     1
 90
        2
176
     1
 62
     7
176
     1
 90
        5
176
     1
 90
        0
176
     1
 90
        0
176
     1
290
     0
176
     1
 90
        1
176
     1
 40
0.0
176
     1
 90
        0
176
     1
290
     0
176
     1
290
     1
176
     1
290
     1
176
     1
290
     0
176
     1
290
     0
176
     1
290
     0
176
     1
290
     0
176
     1
290
     0
176
     1
290
     0
176
     1
 90
       50
176
     1
 40
0.0
176
     1
 40
1.0
176
     1
 90
        0
176
     1
 62
    18
420
        0
176
     1
 90
       50
176
     1
 90
        3
176
     1
 62
     5
420
      255
176
     1
290
     0
176
     1
 90
       50
176
     1
 90
       50
176
     1
 90
       50
176
     1
290
     0
176
     1
 90
       50
176
     1
 62
   256
176
     0
 40
1.0
176
     0
 90
        2
176
     1
  1
strokes_ogs.tif
176
     1
290
     0
176
     1
 40
1.0
176
     1
 40
1.0
176
     1
  0
VISUALSTYLE
  5
6E3
102
{ACAD_REACTORS
330
6CA
102
}
330
6CA
100
AcDbVisualStyle
  2
Wireframe
 70
     5
177
     3
291
     0
 70
    58
 90
        0
176
     1
 90
        2
176
     1
 90
        0
176
     1
 90
        0
176
     1
 40
0.6
176
     1
 40
30.0
176
     1
 62
     7
420
 16777215
176
     1
 90
        1
176
     1
 90
        4
176
     1
 62
     7
176
     1
 62
   257
176
     1
 90
        1
176
     1
 90
        1
176
     1
 40
1.0
176
     1
 90
        0
176
     1
 62
   257
176
     1
 40
1.0
176
     1
 90
        1
176
     1
 90
        6
176
     1
 90
        2
176
     1
 62
     7
176
     1
 90
        3
176
     1
 90
        0
176
     1
 90
        0
176
     1
290
     0
176
     1
 90
        1
176
     1
 40
0.0
176
     1
 90
        0
176
     1
290
     0
176
     1
290
     1
176
     1
290
     1
176
     1
290
     0
176
     1
290
     0
176
     1
290
     0
176
     1
290
     0
176
     1
290
     0
176
     1
290
     0
176
     1
 90
       50
176
     1
 40
0.0
176
     1
 40
1.0
176
     1
 90
        0
176
     1
 62
    18
420
        0
176
     1
 90
       50
176
     1
 90
        3
176
     1
 62
     5
420
      255
176
     1
290
     0
176
     1
 90
       50
176
     1
 90
       50
176
     1
 90
       50
176
     1
290
     0
176
     1
 90
       50
176
     1
 62
   256
176
     0
 40
1.0
176
     0
 90
        2
176
     1
  1
strokes_ogs.tif
176
     1
290
     0
176
     1
 40
1.0
176
     1
 40
1.0
176
     1
  0
VISUALSTYLE
  5
6EA
102
{ACAD_REACTORS
330
6CA
102
}
330
6CA
100
AcDbVisualStyle
  2
X-Ray
 70
    25
177
     3
291
     0
 70
    58
 90
        2
176
     1
 90
        2
176
     1
 90
        1
176
     1
 90
        1
176
     1
 40
0.5
176
     1
 40
30.0
176
     1
 62
     7
420
 16777215
176
     1
 90
        1
176
     1
 90
        0
176
     1
 62
     7
176
     1
 62
   257
176
     1
 90
        1
176
     1
 90
        1
176
     1
 40
1.0
176
     1
 90
        8
176
     1
 62
     7
176
     1
 40
1.0
176
     1
 90
        1
176
     1
 90
        6
176
     1
 90
        2
176
     1
 62
     7
176
     1
 90
        3
176
     1
 90
        0
176
     1
 90
        0
176
     1
290
     0
176
     1
 90
       13
176
     1
 40
0.0
176
     1
 90
        0
176
     1
290
     0
176
     1
290
     1
176
     1
290
     1
176
     1
290
     0
176
     1
290
     0
176
     1
290
     0
176
     1
290
     0
176
     1
290
     0
176
     1
290
     0
176
     1
 90
       50
176
     1
 40
0.0
176
     1
 40
1.0
176
     1
 90
        0
176
     1
 62
    18
420
        0
176
     1
 90
       50
176
     1
 90
        3
176
     1
 62
     5
420
      255
176
     1
290
     0
176
     1
 90
       50
176
     1
 90
       50
176
     1
 90
       50
176
     1
290
     0
176
     1
 90
       50
176
     1
 62
   256
176
     0
 40
1.0
176
     0
 90
        2
176
     1
  1
strokes_ogs.tif
176
     1
290
     0
176
     1
 40
1.0
176
     1
 40
1.0
176
     1
  0
DICTIONARYVAR
  5
6E0
102
{ACAD_REACTORS
330
6DF
102
}
330
6DF
100
DictionaryVariables
280
     0
  1
1:1
  0
DICTIONARYVAR
  5
6EF
102
{ACAD_REACTORS
330
6DF
102
}
330
6DF
100
DictionaryVariables
280
     0
  1
Standard
  0
DICTIONARYVAR
  5
6E1
102
{ACAD_REACTORS
330
6DF
102
}
330
6DF
100
DictionaryVariables
280
     0
  1
Standard
  0
DICTIONARYVAR
  5
6FD
102
{ACAD_REACTORS
330
6DF
102
}
330
6DF
100
DictionaryVariables
280
     0
  1
0
  0
DICTIONARY
  5
713
330
6DC
100
AcDbDictionary
280
     1
281
     1
  3
ACAD_ROUNDTRIP_2008_TABLESTYLE_CELLSTYLEMAP
360
714
  0
CELLSTYLEMAP
  5
714
102
{ACAD_REACTORS
330
713
102
}
330
713
100
AcDbCellStyleMap
 90
        3
300
CELLSTYLE
  1
TABLEFORMAT_BEGIN
 90
        5
170
     1
 91
        0
 92
        0
 62
   257
 93
        1
300
CONTENTFORMAT
  1
CONTENTFORMAT_BEGIN
 90
        0
 91
        0
 92
        4
 93
        0
300

 40
0.0
140
1.0
 94
        5
 62
     0
340
F
144
6.0
309
CONTENTFORMAT_END
171
     1
301
MARGIN
  1
CELLMARGIN_BEGIN
 40
1.5
 40
1.5
 40
1.5
 40
1.5
 40
1.5
 40
1.5
309
CELLMARGIN_END
 94
        6
 95
        1
302
GRIDFORMAT
  1
GRIDFORMAT_BEGIN
 90
        0
 91
        1
 62
     0
 92
       -2
340
12
 93
        0
 40
0.045
309
GRIDFORMAT_END
 95
        2
302
GRIDFORMAT
  1
GRIDFORMAT_BEGIN
 90
        0
 91
        1
 62
     0
 92
       -2
340
12
 93
        0
 40
0.045
309
GRIDFORMAT_END
 95
        4
302
GRIDFORMAT
  1
GRIDFORMAT_BEGIN
 90
        0
 91
        1
 62
     0
 92
       -2
340
12
 93
        0
 40
0.045
309
GRIDFORMAT_END
 95
        8
302
GRIDFORMAT
  1
GRIDFORMAT_BEGIN
 90
        0
 91
        1
 62
     0
 92
       -2
340
12
 93
        0
 40
0.045
309
GRIDFORMAT_END
 95
       16
302
GRIDFORMAT
  1
GRIDFORMAT_BEGIN
 90
        0
 91
        1
 62
     0
 92
       -2
340
12
 93
        0
 40
0.045
309
GRIDFORMAT_END
 95
       32
302
GRIDFORMAT
  1
GRIDFORMAT_BEGIN
 90
        0
 91
        1
 62
     0
 92
       -2
340
12
 93
        0
 40
0.045
309
GRIDFORMAT_END
309
TABLEFORMAT_END
  1
CELLSTYLE_BEGIN
 90
        1
 91
        1
300
_TITLE
309
CELLSTYLE_END
300
CELLSTYLE
  1
TABLEFORMAT_BEGIN
 90
        5
170
     1
 91
        0
 92
        0
 62
   257
 93
        1
300
CONTENTFORMAT
  1
CONTENTFORMAT_BEGIN
 90
        0
 91
        0
 92
        4
 93
        0
300

 40
0.0
140
1.0
 94
        5
 62
     0
340
F
144
4.5
309
CONTENTFORMAT_END
171
     1
301
MARGIN
  1
CELLMARGIN_BEGIN
 40
1.5
 40
1.5
 40
1.5
 40
1.5
 40
1.5
 40
1.5
309
CELLMARGIN_END
 94
        6
 95
        1
302
GRIDFORMAT
  1
GRIDFORMAT_BEGIN
 90
        0
 91
        1
 62
     0
 92
       -2
340
12
 93
        0
 40
0.045
309
GRIDFORMAT_END
 95
        2
302
GRIDFORMAT
  1
GRIDFORMAT_BEGIN
 90
        0
 91
        1
 62
     0
 92
       -2
340
12
 93
        0
 40
0.045
309
GRIDFORMAT_END
 95
        4
302
GRIDFORMAT
  1
GRIDFORMAT_BEGIN
 90
        0
 91
        1
 62
     0
 92
       -2
340
12
 93
        0
 40
0.045
309
GRIDFORMAT_END
 95
        8
302
GRIDFORMAT
  1
GRIDFORMAT_BEGIN
 90
        0
 91
        1
 62
     0
 92
       -2
340
12
 93
        0
 40
0.045
309
GRIDFORMAT_END
 95
       16
302
GRIDFORMAT
  1
GRIDFORMAT_BEGIN
 90
        0
 91
        1
 62
     0
 92
       -2
340
12
 93
        0
 40
0.045
309
GRIDFORMAT_END
 95
       32
302
GRIDFORMAT
  1
GRIDFORMAT_BEGIN
 90
        0
 91
        1
 62
     0
 92
       -2
340
12
 93
        0
 40
0.045
309
GRIDFORMAT_END
309
TABLEFORMAT_END
  1
CELLSTYLE_BEGIN
 90
        2
 91
        1
300
_HEADER
309
CELLSTYLE_END
300
CELLSTYLE
  1
TABLEFORMAT_BEGIN
 90
        5
170
     1
 91
        0
 92
        0
 62
   257
 93
        1
300
CONTENTFORMAT
  1
CONTENTFORMAT_BEGIN
 90
        0
 91
        0
 92
        4
 93
        0
300

 40
0.0
140
1.0
 94
        2
 62
     0
340
F
144
4.5
309
CONTENTFORMAT_END
171
     1
301
MARGIN
  1
CELLMARGIN_BEGIN
 40
1.5
 40
1.5
 40
1.5
 40
1.5
 40
1.5
 40
1.5
309
CELLMARGIN_END
 94
        6
 95
        1
302
GRIDFORMAT
  1
GRIDFORMAT_BEGIN
 90
        0
 91
        1
 62
     0
 92
       -2
340
12
 93
        0
 40
0.045
309
GRIDFORMAT_END
 95
        2
302
GRIDFORMAT
  1
GRIDFORMAT_BEGIN
 90
        0
 91
        1
 62
     0
 92
       -2
340
12
 93
        0
 40
0.045
309
GRIDFORMAT_END
 95
        4
302
GRIDFORMAT
  1
GRIDFORMAT_BEGIN
 90
        0
 91
        1
 62
     0
 92
       -2
340
12
 93
        0
 40
0.045
309
GRIDFORMAT_END
 95
        8
302
GRIDFORMAT
  1
GRIDFORMAT_BEGIN
 90
        0
 91
        1
 62
     0
 92
       -2
340
12
 93
        0
 40
0.045
309
GRIDFORMAT_END
 95
       16
302
GRIDFORMAT
  1
GRIDFORMAT_BEGIN
 90
        0
 91
        1
 62
     0
 92
       -2
340
12
 93
        0
 40
0.045
309
GRIDFORMAT_END
 95
       32
302
GRIDFORMAT
  1
GRIDFORMAT_BEGIN
 90
        0
 91
        1
 62
     0
 92
       -2
340
12
 93
        0
 40
0.045
309
GRIDFORMAT_END
309
TABLEFORMAT_END
  1
CELLSTYLE_BEGIN
 90
        3
 91
        2
300
_DATA
309
CELLSTYLE_END
  0
ENDSEC
  0
EOF
