  0
SECTION
  2
HEADER
  9
$ACADVER
  1
AC1027
  9
$ACADMAINTVER
 70
     8
  9
$DWGCODEPAGE
  3
ANSI_932
  9
$REQUIREDVERSIONS
160
                 0
  9
$LASTSAVEDBY
  1
thuthumi
  9
$INSBASE
 10
0.0
 20
0.0
 30
0.0
  9
$EXTMIN
 10
-689.0949054790601
 20
-622.5010917560957
 30
0.0
  9
$EXTMAX
 10
1645.895003009733
 20
830.3910828729804
 30
0.0
  9
$LIMMIN
 10
0.0
 20
0.0
  9
$LIMMAX
 10
420.0
 20
297.0
  9
$ORTHOMODE
 70
     0
  9
$REGENMODE
 70
     1
  9
$FILLMODE
 70
     1
  9
$QTEXTMODE
 70
     0
  9
$MIRRTEXT
 70
     1
  9
$LTSCALE
 40
1.0
  9
$ATTMODE
 70
     1
  9
$TEXTSIZE
 40
20.0
  9
$TRACEWID
 40
1.0
  9
$TEXTSTYLE
  7
STANDARD
  9
$CLAYER
  8
注釈文字
  9
$CELTYPE
  6
BYLAYER
  9
$CECOLOR
 62
   256
  9
$CELTSCALE
 40
1.0
  9
$DISPSILH
 70
     0
  9
$DIMSCALE
 40
0.0
  9
$DIMASZ
 40
18.0
  9
$DIMEXO
 40
0.625
  9
$DIMDLI
 40
6.0
  9
$DIMRND
 40
0.0
  9
$DIMDLE
 40
0.0
  9
$DIMEXE
 40
1.25
  9
$DIMTP
 40
0.0
  9
$DIMTM
 40
0.0
  9
$DIMTXT
 40
5.0
  9
$DIMCEN
 40
1.5
  9
$DIMTSZ
 40
0.0
  9
$DIMTOL
 70
     0
  9
$DIMLIM
 70
     0
  9
$DIMTIH
 70
     0
  9
$DIMTOH
 70
     0
  9
$DIMSE1
 70
     0
  9
$DIMSE2
 70
     0
  9
$DIMTAD
 70
     3
  9
$DIMZIN
 70
     8
  9
$DIMBLK
  1

  9
$DIMASO
 70
     1
  9
$DIMSHO
 70
     1
  9
$DIMPOST
  1

  9
$DIMAPOST
  1

  9
$DIMALT
 70
     0
  9
$DIMALTD
 70
     4
  9
$DIMALTF
 40
0.0394
  9
$DIMLFAC
 40
1.0
  9
$DIMTOFL
 70
     1
  9
$DIMTVP
 40
0.0
  9
$DIMTIX
 70
     0
  9
$DIMSOXD
 70
     0
  9
$DIMSAH
 70
     1
  9
$DIMBLK1
  1
OPEN
  9
$DIMBLK2
  1
OPEN
  9
$DIMSTYLE
  2
STANDARD
  9
$DIMCLRD
 70
     0
  9
$DIMCLRE
 70
     0
  9
$DIMCLRT
 70
     0
  9
$DIMTFAC
 40
1.0
  9
$DIMGAP
 40
1.0
  9
$DIMJUST
 70
     0
  9
$DIMSD1
 70
     0
  9
$DIMSD2
 70
     0
  9
$DIMTOLJ
 70
     1
  9
$DIMTZIN
 70
     8
  9
$DIMALTZ
 70
     0
  9
$DIMALTTZ
 70
     0
  9
$DIMUPT
 70
     0
  9
$DIMDEC
 70
     2
  9
$DIMTDEC
 70
     2
  9
$DIMALTU
 70
     8
  9
$DIMALTTD
 70
     4
  9
$DIMTXSTY
  7
STANDARD
  9
$DIMAUNIT
 70
     0
  9
$DIMADEC
 70
     0
  9
$DIMALTRND
 40
0.0
  9
$DIMAZIN
 70
     0
  9
$DIMDSEP
 70
    46
  9
$DIMATFIT
 70
     3
  9
$DIMFRAC
 70
     0
  9
$DIMLDRBLK
  1
OPEN
  9
$DIMLUNIT
 70
     6
  9
$DIMLWD
 70
    -2
  9
$DIMLWE
 70
    -2
  9
$DIMTMOVE
 70
     0
  9
$DIMFXL
 40
1.0
  9
$DIMFXLON
 70
     0
  9
$DIMJOGANG
 40
0.7853981633974483
  9
$DIMTFILL
 70
     0
  9
$DIMTFILLCLR
 70
     0
  9
$DIMARCSYM
 70
     0
  9
$DIMLTYPE
  6

  9
$DIMLTEX1
  6

  9
$DIMLTEX2
  6

  9
$DIMTXTDIRECTION
 70
     0
  9
$LUNITS
 70
     2
  9
$LUPREC
 70
     3
  9
$SKETCHINC
 40
1.0
  9
$FILLETRAD
 40
20.0
  9
$AUNITS
 70
     0
  9
$AUPREC
 70
     3
  9
$MENU
  1
acad
  9
$ELEVATION
 40
0.0
  9
$PELEVATION
 40
0.0
  9
$THICKNESS
 40
0.0
  9
$LIMCHECK
 70
     0
  9
$CHAMFERA
 40
10.0
  9
$CHAMFERB
 40
10.0
  9
$CHAMFERC
 40
20.0
  9
$CHAMFERD
 40
0.0
  9
$SKPOLY
 70
     0
  9
$TDCREATE
 40
2450926.747469757
  9
$TDUCREATE
 40
2450926.372469757
  9
$TDUPDATE
 40
2457472.724945868
  9
$TDUUPDATE
 40
2457472.349945868
  9
$TDINDWG
 40
0.1556710648
  9
$TDUSRTIMER
 40
2457472.348858449
  9
$USRTIMER
 70
     1
  9
$ANGBASE
 50
0.0
  9
$ANGDIR
 70
     0
  9
$PDMODE
 70
     0
  9
$PDSIZE
 40
0.0
  9
$PLINEWID
 40
0.0
  9
$SPLFRAME
 70
     0
  9
$SPLINETYPE
 70
     6
  9
$SPLINESEGS
 70
     8
  9
$HANDSEED
  5
A46
  9
$SURFTAB1
 70
     6
  9
$SURFTAB2
 70
     6
  9
$SURFTYPE
 70
     6
  9
$SURFU
 70
     6
  9
$SURFV
 70
     6
  9
$UCSBASE
  2

  9
$UCSNAME
  2

  9
$UCSORG
 10
0.0
 20
0.0
 30
0.0
  9
$UCSXDIR
 10
1.0
 20
0.0
 30
0.0
  9
$UCSYDIR
 10
0.0
 20
1.0
 30
0.0
  9
$UCSORTHOREF
  2

  9
$UCSORTHOVIEW
 70
     0
  9
$UCSORGTOP
 10
0.0
 20
0.0
 30
0.0
  9
$UCSORGBOTTOM
 10
0.0
 20
0.0
 30
0.0
  9
$UCSORGLEFT
 10
0.0
 20
0.0
 30
0.0
  9
$UCSORGRIGHT
 10
0.0
 20
0.0
 30
0.0
  9
$UCSORGFRONT
 10
0.0
 20
0.0
 30
0.0
  9
$UCSORGBACK
 10
0.0
 20
0.0
 30
0.0
  9
$PUCSBASE
  2

  9
$PUCSNAME
  2

  9
$PUCSORG
 10
0.0
 20
0.0
 30
0.0
  9
$PUCSXDIR
 10
1.0
 20
0.0
 30
0.0
  9
$PUCSYDIR
 10
0.0
 20
1.0
 30
0.0
  9
$PUCSORTHOREF
  2

  9
$PUCSORTHOVIEW
 70
     0
  9
$PUCSORGTOP
 10
0.0
 20
0.0
 30
0.0
  9
$PUCSORGBOTTOM
 10
0.0
 20
0.0
 30
0.0
  9
$PUCSORGLEFT
 10
0.0
 20
0.0
 30
0.0
  9
$PUCSORGRIGHT
 10
0.0
 20
0.0
 30
0.0
  9
$PUCSORGFRONT
 10
0.0
 20
0.0
 30
0.0
  9
$PUCSORGBACK
 10
0.0
 20
0.0
 30
0.0
  9
$USERI1
 70
     0
  9
$USERI2
 70
     0
  9
$USERI3
 70
     0
  9
$USERI4
 70
     0
  9
$USERI5
 70
     0
  9
$USERR1
 40
0.0
  9
$USERR2
 40
0.0
  9
$USERR3
 40
0.0
  9
$USERR4
 40
0.0
  9
$USERR5
 40
0.0
  9
$WORLDVIEW
 70
     1
  9
$SHADEDGE
 70
     3
  9
$SHADEDIF
 70
    70
  9
$TILEMODE
 70
     1
  9
$MAXACTVP
 70
    48
  9
$PINSBASE
 10
0.0
 20
0.0
 30
0.0
  9
$PLIMCHECK
 70
     0
  9
$PEXTMIN
 10
-4.735256577541008
 20
-1.698844327248025
 30
-0.0015258207003583
  9
$PEXTMAX
 10
249.805402505909
 20
206.9502357643144
 30
0.0000000349246037
  9
$PLIMMIN
 10
-17.79376220703125
 20
-5.793749809265136
  9
$PLIMMAX
 10
261.6062316894531
 20
210.1062440872192
  9
$UNITMODE
 70
     0
  9
$VISRETAIN
 70
     1
  9
$PLINEGEN
 70
     0
  9
$PSLTSCALE
 70
     1
  9
$TREEDEPTH
 70
  3020
  9
$CMLSTYLE
  2
STANDARD
  9
$CMLJUST
 70
     0
  9
$CMLSCALE
 40
20.0
  9
$PROXYGRAPHICS
 70
     1
  9
$MEASUREMENT
 70
     1
  9
$CELWEIGHT
370
    -1
  9
$ENDCAPS
280
     0
  9
$JOINSTYLE
280
     0
  9
$LWDISPLAY
290
     0
  9
$INSUNITS
 70
     0
  9
$HYPERLINKBASE
  1

  9
$STYLESHEET
  1
monochrome.ctb
  9
$XEDIT
290
     1
  9
$CEPSNTYPE
380
     0
  9
$PSTYLEMODE
290
     1
  9
$FINGERPRINTGUID
  2
{4DF8BC20-888D-11D4-97DC-AFDF1B97A630}
  9
$VERSIONGUID
  2
{40E702A4-44DC-4CDF-81F8-C045E5078464}
  9
$EXTNAMES
290
     1
  9
$PSVPSCALE
 40
0.0
  9
$OLESTARTUP
290
     0
  9
$SORTENTS
280
   127
  9
$INDEXCTL
280
     0
  9
$HIDETEXT
280
     1
  9
$XCLIPFRAME
280
     2
  9
$HALOGAP
280
     0
  9
$OBSCOLOR
 70
   257
  9
$OBSLTYPE
280
     0
  9
$INTERSECTIONDISPLAY
280
     0
  9
$INTERSECTIONCOLOR
 70
   257
  9
$DIMASSOC
280
     2
  9
$PROJECTNAME
  1

  9
$CAMERADISPLAY
290
     0
  9
$LENSLENGTH
 40
50.0
  9
$CAMERAHEIGHT
 40
0.0
  9
$STEPSPERSEC
 40
2.0
  9
$STEPSIZE
 40
6.0
  9
$3DDWFPREC
 40
2.0
  9
$PSOLWIDTH
 40
0.25
  9
$PSOLHEIGHT
 40
4.0
  9
$LOFTANG1
 40
1.570796326794897
  9
$LOFTANG2
 40
1.570796326794897
  9
$LOFTMAG1
 40
0.0
  9
$LOFTMAG2
 40
0.0
  9
$LOFTPARAM
 70
     7
  9
$LOFTNORMALS
280
     1
  9
$LATITUDE
 40
37.795
  9
$LONGITUDE
 40
-122.394
  9
$NORTHDIRECTION
 40
0.0
  9
$TIMEZONE
 70
 -8000
  9
$LIGHTGLYPHDISPLAY
280
     1
  9
$TILEMODELIGHTSYNCH
280
     1
  9
$SOLIDHIST
280
     0
  9
$SHOWHIST
280
     1
  9
$DWFFRAME
280
     2
  9
$DGNFRAME
280
     2
  9
$REALWORLDSCALE
290
     1
  9
$INTERFERECOLOR
 62
   256
  9
$CSHADOW
280
     0
  9
$SHADOWPLANELOCATION
 40
0.0
  0
ENDSEC
  0
SECTION
  2
CLASSES
  0
CLASS
  1
ACDBDICTIONARYWDFLT
  2
AcDbDictionaryWithDefault
  3
ObjectDBX Classes
 90
        0
 91
        4
280
     0
281
     0
  0
CLASS
  1
ACDBPLACEHOLDER
  2
AcDbPlaceHolder
  3
ObjectDBX Classes
 90
        0
 91
        1
280
     0
281
     0
  0
CLASS
  1
LAYOUT
  2
AcDbLayout
  3
ObjectDBX Classes
 90
        0
 91
        1
280
     0
281
     0
  0
CLASS
  1
SCALE
  2
AcDbScale
  3
ObjectDBX Classes
 90
     1153
 91
        4
280
     0
281
     0
  0
CLASS
  1
VISUALSTYLE
  2
AcDbVisualStyle
  3
ObjectDBX Classes
 90
     4095
 91
        4
280
     0
281
     0
  0
CLASS
  1
MATERIAL
  2
AcDbMaterial
  3
ObjectDBX Classes
 90
     1153
 91
        4
280
     0
281
     0
  0
CLASS
  1
TABLESTYLE
  2
AcDbTableStyle
  3
ObjectDBX Classes
 90
     4095
 91
        4
280
     0
281
     0
  0
CLASS
  1
MLEADERSTYLE
  2
AcDbMLeaderStyle
  3
ACDB_MLEADERSTYLE_CLASS
 90
     4095
 91
        4
280
     0
281
     0
  0
CLASS
  1
SUN
  2
AcDbSun
  3
SCENEOE
 90
     1153
 91
        4
280
     0
281
     0
  0
CLASS
  1
RASTERVARIABLES
  2
AcDbRasterVariables
  3
ISM
 90
        0
 91
        4
280
     0
281
     0
  0
CLASS
  1
DICTIONARYVAR
  2
AcDbDictionaryVar
  3
ObjectDBX Classes
 90
        0
 91
        4
280
     0
281
     0
  0
CLASS
  1
CELLSTYLEMAP
  2
AcDbCellStyleMap
  3
ObjectDBX Classes
 90
     1152
 91
        4
280
     0
281
     0
  0
ENDSEC
  0
SECTION
  2
TABLES
  0
TABLE
  2
VPORT
  5
8
330
0
100
AcDbSymbolTable
 70
     1
  0
VPORT
  5
9B6
330
8
100
AcDbSymbolTableRecord
100
AcDbViewportTableRecord
  2
*Active
 70
     0
 10
0.0
 20
0.0
 11
1.0
 21
1.0
 12
185.033491617823
 22
59.99856112942763
 13
0.0
 23
0.0
 14
10.0
 24
10.0
 15
10.0
 25
10.0
 16
0.0
 26
0.0
 36
1.0
 17
0.0
 27
0.0
 37
0.0
 40
2101.793527494341
 41
1.843253968253968
 42
50.0
 43
0.0
 44
0.0
 50
0.0
 51
0.0
 71
    16
 72
   100
 73
     1
 74
     1
 75
     0
 76
     0
 77
     0
 78
     0
281
     0
 65
     1
110
0.0
120
0.0
130
0.0
111
1.0
121
0.0
131
0.0
112
0.0
122
1.0
132
0.0
 79
     0
146
0.0
348
A07
 60
     3
 61
     5
292
     1
282
     1
141
0.0
142
0.0
 63
   256
361
A23
  0
ENDTAB
  0
TABLE
  2
LTYPE
  5
5
330
0
100
AcDbSymbolTable
 70
     4
  0
LTYPE
  5
12
330
5
100
AcDbSymbolTableRecord
100
AcDbLinetypeTableRecord
  2
BYBLOCK
 70
     0
  3

 72
    65
 73
     0
 40
0.0
  0
LTYPE
  5
13
330
5
100
AcDbSymbolTableRecord
100
AcDbLinetypeTableRecord
  2
BYLAYER
 70
     0
  3

 72
    65
 73
     0
 40
0.0
  0
LTYPE
  5
14
330
5
100
AcDbSymbolTableRecord
100
AcDbLinetypeTableRecord
  2
CONTINUOUS
 70
     0
  3
Solid line
 72
    65
 73
     0
 40
0.0
  0
LTYPE
  5
22
330
5
100
AcDbSymbolTableRecord
100
AcDbLinetypeTableRecord
  2
PHANTOM
 70
     0
  3
Phantom ______  __  __  ______  __  __  ______
 72
    65
 73
     6
 40
63.5
 49
31.75
 74
     0
 49
-6.349999999999999
 74
     0
 49
6.349999999999999
 74
     0
 49
-6.349999999999999
 74
     0
 49
6.349999999999999
 74
     0
 49
-6.349999999999999
 74
     0
  0
LTYPE
  5
23
330
5
100
AcDbSymbolTableRecord
100
AcDbLinetypeTableRecord
  2
CENTER
 70
     0
  3
Center ____ _ ____ _ ____ _ ____ _ ____ _ ____
 72
    65
 73
     4
 40
50.8
 49
31.75
 74
     0
 49
-6.349999999999999
 74
     0
 49
6.349999999999999
 74
     0
 49
-6.349999999999999
 74
     0
  0
LTYPE
  5
24
330
5
100
AcDbSymbolTableRecord
100
AcDbLinetypeTableRecord
  2
HIDDEN
 70
     0
  3
Hidden __ __ __ __ __ __ __ __ __ __ __ __ __ _
 72
    65
 73
     2
 40
9.524999999999999
 49
6.349999999999999
 74
     0
 49
-3.174999999999999
 74
     0
  0
ENDTAB
  0
TABLE
  2
LAYER
  5
2
330
0
100
AcDbSymbolTable
 70
    12
  0
LAYER
  5
E
330
2
100
AcDbSymbolTableRecord
100
AcDbLayerTableRecord
  2
0
 70
     0
 62
     7
  6
CONTINUOUS
370
    -3
390
B7
347
A1E
348
0
  0
LAYER
  5
25
330
2
100
AcDbSymbolTableRecord
100
AcDbLayerTableRecord
  2
中心線
 70
     0
 62
     1
  6
CENTER
370
    -3
390
B7
347
A1E
348
0
  0
LAYER
  5
26
330
2
100
AcDbSymbolTableRecord
100
AcDbLayerTableRecord
  2
寸法線
 70
     0
 62
     6
  6
CONTINUOUS
370
    -3
390
B7
347
A1E
348
0
  0
LAYER
  5
27
330
2
100
AcDbSymbolTableRecord
100
AcDbLayerTableRecord
  2
隠れ線
 70
     0
 62
     2
  6
HIDDEN
370
    -3
390
B7
347
A1E
348
0
  0
LAYER
  5
28
330
2
100
AcDbSymbolTableRecord
100
AcDbLayerTableRecord
  2
実体線
 70
     0
 62
     3
  6
CONTINUOUS
370
    -3
390
B7
347
A1E
348
0
  0
LAYER
  5
29
330
2
100
AcDbSymbolTableRecord
100
AcDbLayerTableRecord
  2
想像線
 70
     0
 62
     5
  6
PHANTOM
370
    -3
390
B7
347
A1E
348
0
  0
LAYER
  5
2A
330
2
100
AcDbSymbolTableRecord
100
AcDbLayerTableRecord
  2
注釈文字
 70
     0
 62
     4
  6
CONTINUOUS
370
    -3
390
B7
347
A1E
348
0
  0
LAYER
  5
2B
330
2
100
AcDbSymbolTableRecord
100
AcDbLayerTableRecord
  2
ビューポート
 70
     0
 62
    -7
  6
CONTINUOUS
370
    -3
390
B7
347
A1E
348
0
  0
LAYER
  5
5C
330
2
100
AcDbSymbolTableRecord
100
AcDbLayerTableRecord
  2
A
 70
     0
 62
     4
  6
CONTINUOUS
370
    -3
390
B7
347
A1E
348
0
  0
LAYER
  5
1D3
330
2
100
AcDbSymbolTableRecord
100
AcDbLayerTableRecord
  2
Defpoints
 70
     0
 62
     7
  6
CONTINUOUS
290
     0
370
    -3
390
B7
347
A1E
348
0
  0
LAYER
  5
1D4
330
2
100
AcDbSymbolTableRecord
100
AcDbLayerTableRecord
  2
Ｂ
 70
     0
 62
    -2
  6
CONTINUOUS
370
    -3
390
B7
347
A1E
348
0
  0
LAYER
  5
1D5
330
2
100
AcDbSymbolTableRecord
100
AcDbLayerTableRecord
  2
外形
 70
     0
 62
     3
  6
CONTINUOUS
370
    -3
390
B7
347
A1E
348
0
  0
ENDTAB
  0
TABLE
  2
STYLE
  5
3
330
0
100
AcDbSymbolTable
 70
     2
  0
STYLE
  5
F
330
3
100
AcDbSymbolTableRecord
100
AcDbTextStyleTableRecord
  2
STANDARD
 70
     0
 40
20.0
 41
1.0
 50
0.0
 71
     0
 42
20.0
  3
txt.shx
  4
bigfont.shx
  0
STYLE
  5
21
330
3
100
AcDbSymbolTableRecord
100
AcDbTextStyleTableRecord
  2

 70
     1
 40
0.0
 41
1.0
 50
0.0
 71
     0
 42
2.5
  3
ltypeshp.shx
  4

  0
ENDTAB
  0
TABLE
  2
VIEW
  5
6
330
0
100
AcDbSymbolTable
 70
     0
  0
ENDTAB
  0
TABLE
  2
UCS
  5
7
330
0
100
AcDbSymbolTable
 70
     0
  0
ENDTAB
  0
TABLE
  2
APPID
  5
9
330
0
100
AcDbSymbolTable
 70
     6
  0
APPID
  5
10
330
9
100
AcDbSymbolTableRecord
100
AcDbRegAppTableRecord
  2
ACAD
 70
     0
  0
APPID
  5
4B
330
9
100
AcDbSymbolTableRecord
100
AcDbRegAppTableRecord
  2
DRAWINGVARIABLESXDATA
 70
     0
  0
APPID
  5
68
330
9
100
AcDbSymbolTableRecord
100
AcDbRegAppTableRecord
  2
CONTENTBLOCKDESCRIPTION
 70
     0
  0
APPID
  5
69
330
9
100
AcDbSymbolTableRecord
100
AcDbRegAppTableRecord
  2
CONTENTBLOCKICON
 70
     0
  0
APPID
  5
8D
330
9
100
AcDbSymbolTableRecord
100
AcDbRegAppTableRecord
  2
CONTENTTABDATA
 70
     0
  0
APPID
  5
8E
330
9
100
AcDbSymbolTableRecord
100
AcDbRegAppTableRecord
  2
CONTENTCURRENTTAB
 70
     0
  0
ENDTAB
  0
TABLE
  2
DIMSTYLE
  5
A
330
0
100
AcDbSymbolTable
 70
     6
100
AcDbDimStyleTable
  0
DIMSTYLE
105
1D
330
A
100
AcDbSymbolTableRecord
100
AcDbDimStyleTableRecord
  2
STANDARD
 70
     0
 40
0.0
 41
18.0
 42
0.625
 43
6.0
 44
1.25
 73
     0
 74
     0
 77
     3
 78
     8
140
5.0
141
1.5
143
0.0394
147
1.0
171
     4
172
     1
173
     1
178
     0
271
     2
272
     2
273
     8
274
     4
277
     6
284
     8
340
F
341
2D
343
2D
344
2D
  0
DIMSTYLE
105
33
330
A
100
AcDbSymbolTableRecord
100
AcDbDimStyleTableRecord
  2
STANDARD$4
 70
     0
 40
0.0
 41
3.0
 42
0.625
 43
6.0
 44
1.25
 73
     0
 74
     0
 77
     3
 78
     8
140
3.0
141
2.5
143
0.0394
147
1.0
171
     4
172
     1
173
     1
178
     0
271
     3
272
     2
273
     8
274
     4
277
     6
289
     0
340
F
341
2D
343
2D
344
2D
  0
DIMSTYLE
105
34
102
{ACAD_REACTORS
330
3D2
102
}
330
A
100
AcDbSymbolTableRecord
100
AcDbDimStyleTableRecord
  2
STANDARD$3
 70
     0
 40
0.0
 41
3.0
 42
0.625
 43
6.0
 44
1.25
 73
     0
 74
     0
 77
     3
 78
     8
140
3.0
141
2.5
143
0.0394
147
1.0
171
     4
172
     1
173
     1
178
     0
271
     3
272
     2
273
     8
274
     4
277
     6
289
     0
340
F
341
2D
343
2D
344
2D
  0
DIMSTYLE
105
35
102
{ACAD_REACTORS
330
418
330
728
330
78A
330
7F4
330
841
330
84E
330
7CC
330
7E7
330
7B2
330
880
330
77D
330
742
330
7BF
102
}
330
A
100
AcDbSymbolTableRecord
100
AcDbDimStyleTableRecord
  2
STANDARD$0
 70
     0
 40
0.0
 41
18.0
 42
0.625
 43
6.0
 44
1.25
 73
     0
 74
     0
 77
     3
 78
     8
140
5.0
141
2.5
143
0.0394
147
1.0
171
     4
172
     1
173
     1
178
     0
271
     2
272
     2
273
     8
274
     4
277
     6
284
     8
340
F
341
2D
343
2D
344
2D
  0
DIMSTYLE
105
36
330
A
100
AcDbSymbolTableRecord
100
AcDbDimStyleTableRecord
  2
STANDARD$2
 70
     0
 40
0.0
 41
3.0
 42
0.625
 43
6.0
 44
1.25
 73
     0
 74
     0
 77
     3
 78
     8
140
3.0
141
2.5
143
0.0394
147
1.0
171
     4
172
     1
173
     1
178
     0
271
     3
272
     2
273
     8
274
     4
277
     6
340
F
341
2D
343
2D
344
2D
  0
DIMSTYLE
105
5D
330
A
100
AcDbSymbolTableRecord
100
AcDbDimStyleTableRecord
  2
STANDARD_WS
 70
     0
 41
2.5
 42
0.625
 43
3.75
 44
1.25
 73
     0
 74
     0
 77
     1
 78
     8
140
2.5
141
2.5
143
0.0394
147
0.625
171
     4
172
     1
178
     0
273
     8
274
     4
340
F
  0
ENDTAB
  0
TABLE
  2
BLOCK_RECORD
  5
1
330
0
100
AcDbSymbolTable
 70
    18
  0
BLOCK_RECORD
  5
18
330
1
100
AcDbSymbolTableRecord
100
AcDbBlockTableRecord
  2
*MODEL_SPACE
340
BA
 70
     0
280
     1
281
     0
  0
BLOCK_RECORD
  5
15
330
1
100
AcDbSymbolTableRecord
100
AcDbBlockTableRecord
  2
*PAPER_SPACE
340
BB
 70
     0
280
     1
281
     0
  0
BLOCK_RECORD
  5
2D
330
1
100
AcDbSymbolTableRecord
100
AcDbBlockTableRecord
  2
_OPEN
340
0
102
{BLKREFS
331
920
331
921
331
89E
331
89F
331
8A9
331
8AA
331
964
331
965
331
929
331
92A
331
8C5
331
8C6
331
906
331
907
331
96D
331
96E
331
8F2
331
8F3
331
8FB
331
8FC
331
8CE
331
8CF
331
8D7
331
8D8
331
8E0
331
8E1
331
90F
331
910
102
}
 70
     0
280
     1
281
     0
  0
BLOCK_RECORD
  5
5E
330
1
100
AcDbSymbolTableRecord
100
AcDbBlockTableRecord
  2
仕上　１
340
0
310
2800000020000000200000000100040000000000000200000000000000000000000000000000000000000000000080000080000000808000800000008000800080800000C0C0C000808080000000FF0000FF000000FFFF00FF000000FF00FF00FFFF0000FFFFFF00FFFFFFFFFFFFFFFFFFFFFFFFFFFFFFFFFFFFFFFFFFFFFF
310
FFFFFFFFFFFFFFFFFFFFFFFFFFFFFFFFFFFFFFFFFFFFFFFFFFFFFFFFFFFFFFFFFFFFFFFFFFFFFFFFFFFFFFFFFFFFFFFFF00FFFFFFFFFFFFFFFFFFFFFFFFFFFFFF00FFFFFFFFFFFFFFFFFFFFFFFFFFFFF0000FFFFFFFFFFFFFFFFFFFFFFFFFFFF0FF00FFFFFFFFFFFFFFFFFFFFFFFFFF0FFFF0FFFFFFFFFFFFFFFFFFFFFFFFF
310
00FFFF00FFFFFFFFFFFFFFFFFFFFFFFF0FFFFFF0FFFFFFFFFFFFFFFFFFFFFFF00FFFFFF00FFFFFFFFFFFFFFFFFFFFFF0FFFFFFFF0FFFFFFFFFFFFFFFFFFFFF00FFFFFFFFF0FFFFFFFFFFFFFFFFFFFF0FFFFFFFFFF00FFFFFFFFFFFFFFFFFF0FFFFFFFFFFFF0FFFFFFFFFFFFFFFFF00FFFFFFFFFFFF00FFFFFFFFFFFFFFFF0F
310
FFFFFFFFFFFFF0FFFFFFFFFFFFFFF00FFFFFFFFFFFFFF00FFFFFFFFFFFFFF0FFFFFFFFFFFFFFFF0FFFFFFFFFFFFF00FFFFFFFFFFFFFFFFF0FFFFFFFFFFF00FFFFFFFFFFFFFFFFFF00FFFFFFFFFF0FFFFFFFFFFFFFFFFFFFF0FFFFFFFFF00FFFFFFFFFFFFFFFFFFFF00FFFFFFFF0FFFFFFFFFFFFFFFFFFFFFF0FFFFFFF00FFF
310
FFFFFFFFFFFFFFFFFFF00FFFFFF0FFFFFFFFFFFFFFFFFFFFFFFF00FFFF00FFFFFFFFFFFFFFFFFFFFFFFFF0FFFF0000000000000000000000000000FFFFFFFFFFFFFFFFFFFFFFFFFFFFFFFFFFFFFFFFFFFFFFFFFFFFFFFFFFFFFFFFFFFFFFFFFFFFFFFFFFFFFFFFFFFFFFFFFF
 70
     0
280
     1
281
     0
  0
BLOCK_RECORD
  5
6B
330
1
100
AcDbSymbolTableRecord
100
AcDbBlockTableRecord
  2
仕上　２
340
0
310
2800000020000000200000000100040000000000000200000000000000000000000000000000000000000000000080000080000000808000800000008000800080800000C0C0C000808080000000FF0000FF000000FFFF00FF000000FF00FF00FFFF0000FFFFFF00FFFFFFFFFFFFFFFFFFFFFFFFFFFFFFFFFFFFFFFFFFFFFF
310
FFFFFFFFFFFFFFFFFFFFFFFFFFFFFFFFFFFFFFFFFFFFFFFFFFFFFFFFFFFFFFFFFFFFFFFFFFFFFFFFFFFFFFFFFFFFFFFFFFFFFFFFFFFFFFFFFFFFFFFFFFFFFFFFFFFFFFFFFFFFFFFFFFFFFFFFFFFFFFFFFFFFFFFFFFFFFFFFFFFFFFFFFFFFFFFFFFFFFFFFFFFFFFFFFFFFFFFFFFFFFFFFFFFFFFFFFFFFFFFFFFFFFFFFFF0FFF
310
FFFFFFFFFFF0FFFFFFFFFFFFFFF00FFFFFFFFFFFFFF00FFFFFFFFFFFFFF000FFFFFFFFFFFF000FFFFFFFFFFFFF0FF00FFFFFFFFFF00FF0FFFFFFFFFFF00FFF0FFFFFFFFFF0FFF00FFFFFFFFFF0FFFF00FFFFFFFF00FFFF0FFFFFFFFF00FFFFF0FFFFFFFF0FFFFF00FFFFFFFF0FFFFFF00FFFFFF00FFFFFF0FFFFFFF0FFFFFF
310
FF0FFFFFF0FFFFFFF00FFFFF00FFFFFFFFF0FFFF00FFFFFFFF00FFFF0FFFFFFFFFF00FFF0FFFFFFFFFF0FFF00FFFFFFFFFFF0FF0FFFFFFFFFFF00FF0FFFFFFFFFFFF0000FFFFFFFFFFFF0F00FFFFFFFFFFFFF00FFFFFFFFFFFFF0000000000000000000000000000000000FFFFFFFFFFFFFFFFFFFFFFFFFFFFFFFFFFFFFFFF
310
FFFFFFFFFFFFFFFFFFFFFFFFFFFFFFFFFFFFFFFFFFFFFFFFFFFFFFFFFFFFFFFFFFFFFFFFFFFFFFFFFFFFFFFFFFFFFFFFFFFFFFFFFFFFFFFFFFFFFFFFFFFFFFFFFFFFFFFFFFFFFFFFFFFFFFFFFFFFFFFFFFFFFFFFFFFFFFFFFFFFFFFFFFFFFFFFFFFFFFFFFFFFFFFFFFFFFFFF
 70
     0
280
     1
281
     0
  0
BLOCK_RECORD
  5
79
330
1
100
AcDbSymbolTableRecord
100
AcDbBlockTableRecord
  2
仕上　３
340
0
310
2800000020000000200000000100040000000000000200000000000000000000000000000000000000000000000080000080000000808000800000008000800080800000C0C0C000808080000000FF0000FF000000FFFF00FF000000FF00FF00FFFF0000FFFFFF00FFFFFFFFFFFFFFFFFFFFFFFFFFFFFFFFFFFFFFFFFFFFFF
310
FFFFFFFFFFFFFFFFFFFFFFFFFFFFFFFFFFFFFFFFFFFFFFFFFFFFFFFFFFFFFFFFFFFFFFFFFFFFFFFFFFFFFFFFFFFFFFFFFFFFFFFFFFFFFFFFFFFFFFFFFFFFFFFFFFFFFFFFFFFFFFFFFFFFFFFFFFFFFFFFFFFFFFFFFFFFFFFFFFFFFFFFFFFFFFFFFFFFFFFFFFFFFFFFFFFFFFFFFFFFFFFFFFFFFFFFFFFFFFFFFFFFFFFFFFFFFF
310
FFFFFFFFFFFFFFFFFFFFFFFFFFFFFFFFFFFFFFFFFFFFFFFFFFFFFFFFFFFFFFFFFFFFFFFFFFFFFFFFFFFFFFFFF0FFFFFFFFF00FFFFFFFFF0FFFFFFFFF000FFFFFFFF000FFFFFFF000FFFFFFF00F00FFFFFF00F0FFFFFF00F0FFFFFFF0FFF0FFFFF00FF00FFFFF0FFF0FFFFF00FFF00FFFF0FFFF0FFFF00FFF00FFFF0FFFFF0F
310
FF00FFFF00FFF0FFFFF0FFF00FFFFF00FF0FFFFFF0FF00FFFFF00FF0FFFFFFF000FFFFFFF0000FFFFFFF0F0FFFFFFFFF00FFFFFFFF00FFFFFFFFF000000000000000000000000000000000FFFFFFFFFFFFFFFFFFFFFFFFFFFFFFFFFFFFFFFFFFFFFFFFFFFFFFFFFFFFFFFFFFFFFFFFFFFFFFFFFFFFFFFFFFFFFFFFFFFFFFFF
310
FFFFFFFFFFFFFFFFFFFFFFFFFFFFFFFFFFFFFFFFFFFFFFFFFFFFFFFFFFFFFFFFFFFFFFFFFFFFFFFFFFFFFFFFFFFFFFFFFFFFFFFFFFFFFFFFFFFFFFFFFFFFFFFFFFFFFFFFFFFFFFFFFFFFFFFFFFFFFFFFFFFFFFFFFFFFFFFFFFFFFFFFFFFFFFFFFFFFFFFFFFFFFFFFFFFFFFFF
 70
     0
280
     1
281
     0
  0
BLOCK_RECORD
  5
545
330
1
100
AcDbSymbolTableRecord
100
AcDbBlockTableRecord
  2
*D4
340
0
 70
     0
280
     1
281
     0
  0
BLOCK_RECORD
  5
55C
330
1
100
AcDbSymbolTableRecord
100
AcDbBlockTableRecord
  2
*D5
340
0
 70
     0
280
     1
281
     0
  0
BLOCK_RECORD
  5
729
330
1
100
AcDbSymbolTableRecord
100
AcDbBlockTableRecord
  2
*D6
340
0
 70
     0
280
     1
281
     0
  0
BLOCK_RECORD
  5
743
330
1
100
AcDbSymbolTableRecord
100
AcDbBlockTableRecord
  2
*D7
340
0
 70
     0
280
     1
281
     0
  0
BLOCK_RECORD
  5
77E
330
1
100
AcDbSymbolTableRecord
100
AcDbBlockTableRecord
  2
*D8
340
0
 70
     0
280
     1
281
     0
  0
BLOCK_RECORD
  5
78B
330
1
100
AcDbSymbolTableRecord
100
AcDbBlockTableRecord
  2
*D9
340
0
 70
     0
280
     1
281
     0
  0
BLOCK_RECORD
  5
7B3
330
1
100
AcDbSymbolTableRecord
100
AcDbBlockTableRecord
  2
*D10
340
0
 70
     0
280
     1
281
     0
  0
BLOCK_RECORD
  5
7C0
330
1
100
AcDbSymbolTableRecord
100
AcDbBlockTableRecord
  2
*D11
340
0
 70
     0
280
     1
281
     0
  0
BLOCK_RECORD
  5
7CD
330
1
100
AcDbSymbolTableRecord
100
AcDbBlockTableRecord
  2
*D12
340
0
 70
     0
280
     1
281
     0
  0
BLOCK_RECORD
  5
7E8
330
1
100
AcDbSymbolTableRecord
100
AcDbBlockTableRecord
  2
*D13
340
0
 70
     0
280
     1
281
     0
  0
BLOCK_RECORD
  5
7F5
330
1
100
AcDbSymbolTableRecord
100
AcDbBlockTableRecord
  2
*D14
340
0
 70
     0
280
     1
281
     0
  0
BLOCK_RECORD
  5
842
330
1
100
AcDbSymbolTableRecord
100
AcDbBlockTableRecord
  2
*D15
340
0
 70
     0
280
     1
281
     0
  0
BLOCK_RECORD
  5
84F
330
1
100
AcDbSymbolTableRecord
100
AcDbBlockTableRecord
  2
*D16
340
0
 70
     0
280
     1
281
     0
  0
BLOCK_RECORD
  5
881
330
1
100
AcDbSymbolTableRecord
100
AcDbBlockTableRecord
  2
*D17
340
0
 70
     0
280
     1
281
     0
  0
ENDTAB
  0
ENDSEC
  0
SECTION
  2
BLOCKS
  0
BLOCK
  5
19
330
18
100
AcDbEntity
  8
0
100
AcDbBlockBegin
  2
*MODEL_SPACE
 70
     0
 10
0.0
 20
0.0
 30
0.0
  3
*MODEL_SPACE
  1
*MODEL_SPACE
  0
ENDBLK
  5
1A
330
18
100
AcDbEntity
  8
0
100
AcDbBlockEnd
  0
BLOCK
  5
16
330
15
100
AcDbEntity
 67
     1
  8
0
100
AcDbBlockBegin
  2
*PAPER_SPACE
 70
     0
 10
0.0
 20
0.0
 30
0.0
  3
*PAPER_SPACE
  1
*PAPER_SPACE
  0
ENDBLK
  5
17
330
15
100
AcDbEntity
 67
     1
  8
0
100
AcDbBlockEnd
  0
BLOCK
  5
2E
330
2D
100
AcDbEntity
  8
0
100
AcDbBlockBegin
  2
_OPEN
 70
     0
 10
0.0
 20
0.0
 30
0.0
  3
_OPEN
  1
_OPEN
  0
LINE
  5
2F
330
2D
100
AcDbEntity
  8
0
  6
ByBlock
 62
     0
100
AcDbLine
 10
-1.0
 20
0.1666666666666666
 30
0.0
 11
0.0
 21
0.0
 31
0.0
  0
LINE
  5
30
330
2D
100
AcDbEntity
  8
0
  6
ByBlock
 62
     0
100
AcDbLine
 10
0.0
 20
0.0
 30
0.0
 11
-1.0
 21
-0.1666666666666666
 31
0.0
  0
LINE
  5
31
330
2D
100
AcDbEntity
  8
0
  6
ByBlock
 62
     0
100
AcDbLine
 10
0.0
 20
0.0
 30
0.0
 11
-1.0
 21
0.0
 31
0.0
  0
ENDBLK
  5
32
330
2D
100
AcDbEntity
  8
0
100
AcDbBlockEnd
  0
BLOCK
  5
64
330
5E
100
AcDbEntity
  8
0
100
AcDbBlockBegin
  2
仕上　１
 70
     0
 10
0.0
 20
0.0
 30
0.0
  3
仕上　１
  1
仕上　１
  0
LINE
  5
5F
330
5E
100
AcDbEntity
  8
0
100
AcDbLine
 10
4.999958538888336
 20
8.660284968743781
 30
0.0
 11
-5.000041461111663
 21
8.660284968743781
 31
0.0
  0
LINE
  5
60
330
5E
100
AcDbEntity
  8
0
100
AcDbLine
 10
-0.0000414611116639
 20
0.0000309308993849
 30
0.0
 11
4.999958538888336
 21
8.660284968743781
 31
0.0
  0
LINE
  5
61
330
5E
100
AcDbEntity
  8
A
100
AcDbLine
 10
-0.0000414611116639
 20
0.0000309308993849
 30
0.0
 11
4.999958538888336
 21
8.660284968743781
 31
0.0
  0
LINE
  5
62
330
5E
100
AcDbEntity
  8
0
100
AcDbLine
 10
-5.000041461111663
 20
8.660284968743781
 30
0.0
 11
-0.0000414611116639
 21
0.0000309308993849
 31
0.0
  0
LINE
  5
63
330
5E
100
AcDbEntity
  8
A
100
AcDbLine
 10
-5.000041461111663
 20
8.660284968743781
 30
0.0
 11
-0.0000414611116639
 21
0.0000309308993849
 31
0.0
  0
ENDBLK
  5
65
330
5E
100
AcDbEntity
  8
0
100
AcDbBlockEnd
  0
BLOCK
  5
75
330
6B
100
AcDbEntity
  8
0
100
AcDbBlockBegin
  2
仕上　２
 70
     0
 10
0.0
 20
0.0
 30
0.0
  3
仕上　２
  1
仕上　２
  0
LINE
  5
6C
330
6B
100
AcDbEntity
  8
0
100
AcDbLine
 10
15.00000311254626
 20
8.660284968743781
 30
0.0
 11
-4.999996887453733
 21
8.660284968743781
 31
0.0
  0
LINE
  5
6D
330
6B
100
AcDbEntity
  8
0
100
AcDbLine
 10
-4.999996887453733
 20
8.660284968743781
 30
0.0
 11
0.0000031125462669
 21
0.0000309308993849
 31
0.0
  0
LINE
  5
6E
330
6B
100
AcDbEntity
  8
A
100
AcDbLine
 10
-4.999996887453733
 20
8.660284968743781
 30
0.0
 11
0.0000031125462669
 21
0.0000309308993849
 31
0.0
  0
LINE
  5
6F
330
6B
100
AcDbEntity
  8
0
100
AcDbLine
 10
10.00000311254626
 20
0.0000309308993849
 30
0.0
 11
15.00000311254626
 21
8.660284968743781
 31
0.0
  0
LINE
  5
70
330
6B
100
AcDbEntity
  8
0
100
AcDbLine
 10
5.000003112546266
 20
8.660284968743781
 30
0.0
 11
10.00000311254626
 21
0.0000309308993849
 31
0.0
  0
LINE
  5
71
330
6B
100
AcDbEntity
  8
0
100
AcDbLine
 10
0.0000031125462669
 20
0.0000309308993849
 30
0.0
 11
5.000003112546266
 21
8.660284968743781
 31
0.0
  0
LINE
  5
72
330
6B
100
AcDbEntity
  8
A
100
AcDbLine
 10
10.00000311254626
 20
0.0000309308993849
 30
0.0
 11
15.00000311254626
 21
8.660284968743781
 31
0.0
  0
LINE
  5
73
330
6B
100
AcDbEntity
  8
A
100
AcDbLine
 10
5.000003112546266
 20
8.660284968743781
 30
0.0
 11
10.00000311254626
 21
0.0000309308993849
 31
0.0
  0
LINE
  5
74
330
6B
100
AcDbEntity
  8
A
100
AcDbLine
 10
0.0000031125462669
 20
0.0000309308993849
 30
0.0
 11
5.000003112546266
 21
8.660284968743781
 31
0.0
  0
ENDBLK
  5
76
330
6B
100
AcDbEntity
  8
0
100
AcDbBlockEnd
  0
BLOCK
  5
88
330
79
100
AcDbEntity
  8
0
100
AcDbBlockBegin
  2
仕上　３
 70
     0
 10
0.0
 20
0.0
 30
0.0
  3
仕上　３
  1
仕上　３
  0
LINE
  5
7A
330
79
100
AcDbEntity
  8
0
100
AcDbLine
 10
25.0000345892401
 20
8.660284968743781
 30
0.0
 11
-4.999965410759898
 21
8.660284968743781
 31
0.0
  0
LINE
  5
7B
330
79
100
AcDbEntity
  8
0
100
AcDbLine
 10
-4.999965410759898
 20
8.660284968743781
 30
0.0
 11
0.0000345892401015
 21
0.0000309308993849
 31
0.0
  0
LINE
  5
7C
330
79
100
AcDbEntity
  8
A
100
AcDbLine
 10
25.0000345892401
 20
8.660284968743781
 30
0.0
 11
-4.999965410759898
 21
8.660284968743781
 31
0.0
  0
LINE
  5
7D
330
79
100
AcDbEntity
  8
A
100
AcDbLine
 10
-4.999965410759898
 20
8.660284968743781
 30
0.0
 11
0.0000345892401015
 21
0.0000309308993849
 31
0.0
  0
LINE
  5
7E
330
79
100
AcDbEntity
  8
0
100
AcDbLine
 10
15.0000345892401
 20
8.660284968743781
 30
0.0
 11
20.0000345892401
 21
0.0000309308993849
 31
0.0
  0
LINE
  5
7F
330
79
100
AcDbEntity
  8
A
100
AcDbLine
 10
15.0000345892401
 20
8.660284968743781
 30
0.0
 11
20.0000345892401
 21
0.0000309308993849
 31
0.0
  0
LINE
  5
80
330
79
100
AcDbEntity
  8
0
100
AcDbLine
 10
10.0000345892401
 20
0.0000309308993849
 30
0.0
 11
15.0000345892401
 21
8.660284968743781
 31
0.0
  0
LINE
  5
81
330
79
100
AcDbEntity
  8
0
100
AcDbLine
 10
5.000034589240101
 20
8.660284968743781
 30
0.0
 11
10.0000345892401
 21
0.0000309308993849
 31
0.0
  0
LINE
  5
82
330
79
100
AcDbEntity
  8
0
100
AcDbLine
 10
0.0000345892401015
 20
0.0000309308993849
 30
0.0
 11
5.000034589240101
 21
8.660284968743781
 31
0.0
  0
LINE
  5
83
330
79
100
AcDbEntity
  8
A
100
AcDbLine
 10
10.0000345892401
 20
0.0000309308993849
 30
0.0
 11
15.0000345892401
 21
8.660284968743781
 31
0.0
  0
LINE
  5
84
330
79
100
AcDbEntity
  8
A
100
AcDbLine
 10
5.000034589240101
 20
8.660284968743781
 30
0.0
 11
10.0000345892401
 21
0.0000309308993849
 31
0.0
  0
LINE
  5
85
330
79
100
AcDbEntity
  8
A
100
AcDbLine
 10
0.0000345892401015
 20
0.0000309308993849
 30
0.0
 11
5.000034589240101
 21
8.660284968743781
 31
0.0
  0
LINE
  5
86
330
79
100
AcDbEntity
  8
0
100
AcDbLine
 10
20.0000345892401
 20
0.0000309308993849
 30
0.0
 11
25.0000345892401
 21
8.660284968743781
 31
0.0
  0
LINE
  5
87
330
79
100
AcDbEntity
  8
A
100
AcDbLine
 10
20.0000345892401
 20
0.0000309308993849
 30
0.0
 11
25.0000345892401
 21
8.660284968743781
 31
0.0
  0
ENDBLK
  5
89
330
79
100
AcDbEntity
  8
0
100
AcDbBlockEnd
  0
BLOCK
  5
54E
330
545
100
AcDbEntity
  8
0
100
AcDbBlockBegin
  2
*D4
 70
     1
 10
0.0
 20
0.0
 30
0.0
  3
*D4
  1
*D4
  0
LINE
  5
91D
330
545
100
AcDbEntity
  8
寸法線
 62
     0
370
    -2
100
AcDbLine
 10
-157.7770215961679
 20
338.1367173578549
 30
0.0
 11
-159.5272427131517
 21
335.700177589728
 31
0.0
  0
LINE
  5
91E
330
545
100
AcDbEntity
  8
寸法線
 62
     0
370
    -2
100
AcDbLine
 10
-8.424819613558157
 20
546.0547775713577
 30
0.0
 11
37.77890463270091
 21
610.376485536804
 31
0.0
  0
LINE
  5
91F
330
545
100
AcDbEntity
  8
寸法線
 62
     0
370
    -2
100
AcDbLine
 10
-156.0268004791842
 20
340.5732571259819
 30
0.0
 11
-10.17504073054186
 21
543.6182378032308
 31
0.0
  0
INSERT
  5
920
330
545
100
AcDbEntity
  8
寸法線
 62
     0
370
    -2
100
AcDbBlockReference
  2
_OPEN
 10
-156.0268004791842
 20
340.5732571259819
 30
0.0
 41
3.0
 42
3.0
 43
3.0
 50
54.30946584130601
  0
INSERT
  5
921
330
545
100
AcDbEntity
  8
寸法線
 62
     0
370
    -2
100
AcDbBlockReference
  2
_OPEN
 10
-10.17504073054186
 20
543.6182378032308
 30
0.0
 41
3.0
 42
3.0
 43
3.0
 50
234.309465841306
  0
MTEXT
  5
922
330
545
100
AcDbEntity
  8
寸法線
 62
     0
100
AcDbMText
 10
7.842272079097483
 20
587.5554857482206
 30
0.0
 40
20.0
 41
0.0
 46
0.0
 71
     5
 72
     1
  1
\A1;∅250
 11
0.5834070389945694
 21
0.8121799227089949
 31
0.0
 73
     1
 44
1.0
  0
POINT
  5
923
330
545
100
AcDbEntity
  8
Defpoints
 62
     0
100
AcDbPoint
 10
-10.17504073054186
 20
543.6182378032308
 30
0.0
  0
POINT
  5
924
330
545
100
AcDbEntity
  8
Defpoints
 62
     0
100
AcDbPoint
 10
-156.0268004791842
 20
340.5732571259819
 30
0.0
  0
ENDBLK
  5
54F
330
545
100
AcDbEntity
  8
0
100
AcDbBlockEnd
  0
BLOCK
  5
566
330
55C
100
AcDbEntity
  8
0
100
AcDbBlockBegin
  2
*D5
 70
     1
 10
0.0
 20
0.0
 30
0.0
  3
*D5
  1
*D5
  0
LINE
  5
89B
330
55C
100
AcDbEntity
  8
寸法線
 62
     0
370
    -2
100
AcDbLine
 10
-430.1009206048634
 20
604.9918148544344
 30
0.0
 11
-430.1009206048634
 21
712.2669026371019
 31
0.0
  0
LINE
  5
89C
330
55C
100
AcDbEntity
  8
寸法線
 62
     0
370
    -2
100
AcDbLine
 10
-23.1009206048634
 20
627.8471975528097
 30
0.0
 11
-23.1009206048634
 21
712.2669026371019
 31
0.0
  0
LINE
  5
89D
330
55C
100
AcDbEntity
  8
寸法線
 62
     0
370
    -2
100
AcDbLine
 10
-412.1009206048634
 20
711.0169026371019
 30
0.0
 11
-41.1009206048634
 21
711.0169026371019
 31
0.0
  0
INSERT
  5
89E
330
55C
100
AcDbEntity
  8
寸法線
 62
     0
370
    -2
100
AcDbBlockReference
  2
_OPEN
 10
-430.1009206048634
 20
711.0169026371019
 30
0.0
 41
18.0
 42
18.0
 43
18.0
 50
180.0
  0
INSERT
  5
89F
330
55C
100
AcDbEntity
  8
寸法線
 62
     0
370
    -2
100
AcDbBlockReference
  2
_OPEN
 10
-23.1009206048634
 20
711.0169026371019
 30
0.0
 41
18.0
 42
18.0
 43
18.0
  0
MTEXT
  5
8A0
330
55C
100
AcDbEntity
  8
寸法線
 62
     0
100
AcDbMText
 10
-226.6009206048634
 20
722.0169026371019
 30
0.0
 40
20.0
 41
0.0
 46
0.0
 71
     5
 72
     1
  1
\A1;390
 73
     1
 44
1.0
  0
POINT
  5
8A1
330
55C
100
AcDbEntity
  8
Defpoints
 62
     0
100
AcDbPoint
 10
-430.1009206048634
 20
604.3668148544344
 30
0.0
  0
POINT
  5
8A2
330
55C
100
AcDbEntity
  8
Defpoints
 62
     0
100
AcDbPoint
 10
-23.1009206048634
 20
627.2221975528097
 30
0.0
  0
POINT
  5
8A3
330
55C
100
AcDbEntity
  8
Defpoints
 62
     0
100
AcDbPoint
 10
-23.1009206048634
 20
711.0169026371019
 30
0.0
  0
ENDBLK
  5
567
330
55C
100
AcDbEntity
  8
0
100
AcDbBlockEnd
  0
BLOCK
  5
733
330
729
100
AcDbEntity
  8
0
100
AcDbBlockBegin
  2
*D6
 70
     1
 10
0.0
 20
0.0
 30
0.0
  3
*D6
  1
*D6
  0
LINE
  5
8A4
330
729
100
AcDbEntity
  8
寸法線
 62
     0
370
    -2
100
AcDbLine
 10
-430.1009206048634
 20
587.7207474646053
 30
0.0
 11
-430.1009206048634
 21
712.2669026371019
 31
0.0
  0
LINE
  5
8A5
330
729
100
AcDbEntity
  8
寸法線
 62
     0
370
    -2
100
AcDbLine
 10
-455.1009206048634
 20
572.7207474646053
 30
0.0
 11
-455.1009206048634
 21
712.2669026371019
 31
0.0
  0
LINE
  5
8A6
330
729
100
AcDbEntity
  8
寸法線
 62
     0
370
    -2
100
AcDbLine
 10
-412.1009206048634
 20
711.0169026371019
 30
0.0
 11
-394.1009206048634
 21
711.0169026371019
 31
0.0
  0
LINE
  5
8A7
330
729
100
AcDbEntity
  8
寸法線
 62
     0
370
    -2
100
AcDbLine
 10
-473.1009206048634
 20
711.0169026371019
 30
0.0
 11
-526.4342539381967
 21
711.0169026371019
 31
0.0
  0
LINE
  5
8A8
330
729
100
AcDbEntity
  8
寸法線
 62
     0
370
    -2
100
AcDbLine
 10
-430.1009206048634
 20
711.0169026371019
 30
0.0
 11
-455.1009206048634
 21
711.0169026371019
 31
0.0
  0
INSERT
  5
8A9
330
729
100
AcDbEntity
  8
寸法線
 62
     0
370
    -2
100
AcDbBlockReference
  2
_OPEN
 10
-430.1009206048634
 20
711.0169026371019
 30
0.0
 41
18.0
 42
18.0
 43
18.0
 50
180.0
  0
INSERT
  5
8AA
330
729
100
AcDbEntity
  8
寸法線
 62
     0
370
    -2
100
AcDbBlockReference
  2
_OPEN
 10
-455.1009206048634
 20
711.0169026371019
 30
0.0
 41
18.0
 42
18.0
 43
18.0
  0
MTEXT
  5
8AB
330
729
100
AcDbEntity
  8
寸法線
 62
     0
100
AcDbMText
 10
-508.7675872715301
 20
722.0169026371019
 30
0.0
 40
20.0
 41
0.0
 46
0.0
 71
     5
 72
     1
  1
\A1;25
 73
     1
 44
1.0
  0
POINT
  5
8AC
330
729
100
AcDbEntity
  8
Defpoints
 62
     0
100
AcDbPoint
 10
-430.1009206048634
 20
587.0957474646053
 30
0.0
  0
POINT
  5
8AD
330
729
100
AcDbEntity
  8
Defpoints
 62
     0
100
AcDbPoint
 10
-455.1009206048634
 20
572.0957474646053
 30
0.0
  0
POINT
  5
8AE
330
729
100
AcDbEntity
  8
Defpoints
 62
     0
100
AcDbPoint
 10
-455.1009206048634
 20
711.0169026371019
 30
0.0
  0
ENDBLK
  5
734
330
729
100
AcDbEntity
  8
0
100
AcDbBlockEnd
  0
BLOCK
  5
74D
330
743
100
AcDbEntity
  8
0
100
AcDbBlockBegin
  2
*D7
 70
     1
 10
0.0
 20
0.0
 30
0.0
  3
*D7
  1
*D7
  0
LINE
  5
961
330
743
100
AcDbEntity
  8
寸法線
 62
     0
370
    -2
100
AcDbLine
 10
-455.1009206048634
 20
587.7207474646053
 30
0.0
 11
-455.1009206048634
 21
750.0623390958913
 31
0.0
  0
LINE
  5
962
330
743
100
AcDbEntity
  8
寸法線
 62
     0
370
    -2
100
AcDbLine
 10
41.8990793951366
 20
533.6235917067374
 30
0.0
 11
41.8990793951366
 21
750.0623390958913
 31
0.0
  0
LINE
  5
963
330
743
100
AcDbEntity
  8
寸法線
 62
     0
370
    -2
100
AcDbLine
 10
-437.1009206048634
 20
748.8123390958913
 30
0.0
 11
23.8990793951366
 21
748.8123390958913
 31
0.0
  0
INSERT
  5
964
330
743
100
AcDbEntity
  8
寸法線
 62
     0
370
    -2
100
AcDbBlockReference
  2
_OPEN
 10
-455.1009206048634
 20
748.8123390958913
 30
0.0
 41
18.0
 42
18.0
 43
18.0
 50
180.0
  0
INSERT
  5
965
330
743
100
AcDbEntity
  8
寸法線
 62
     0
370
    -2
100
AcDbBlockReference
  2
_OPEN
 10
41.8990793951366
 20
748.8123390958913
 30
0.0
 41
18.0
 42
18.0
 43
18.0
  0
MTEXT
  5
966
330
743
100
AcDbEntity
  8
寸法線
 62
     0
100
AcDbMText
 10
-211.3345279406321
 20
759.8123390958913
 30
0.0
 40
20.0
 41
0.0
 46
0.0
 71
     5
 72
     1
  1
\A1;480
 73
     1
 44
1.0
  0
POINT
  5
967
330
743
100
AcDbEntity
  8
Defpoints
 62
     0
100
AcDbPoint
 10
-455.1009206048634
 20
587.0957474646053
 30
0.0
  0
POINT
  5
968
330
743
100
AcDbEntity
  8
Defpoints
 62
     0
100
AcDbPoint
 10
41.8990793951366
 20
532.9985917067374
 30
0.0
  0
POINT
  5
969
330
743
100
AcDbEntity
  8
Defpoints
 62
     0
100
AcDbPoint
 10
41.8990793951366
 20
748.8123390958913
 30
0.0
  0
ENDBLK
  5
74E
330
743
100
AcDbEntity
  8
0
100
AcDbBlockEnd
  0
BLOCK
  5
788
330
77E
100
AcDbEntity
  8
0
100
AcDbBlockBegin
  2
*D8
 70
     1
 10
0.0
 20
0.0
 30
0.0
  3
*D8
  1
*D8
  0
LINE
  5
925
330
77E
100
AcDbEntity
  8
寸法線
 62
     0
370
    -2
100
AcDbLine
 10
-152.9759206048634
 20
-400.1899304362432
 30
0.0
 11
116.0308467906142
 21
-400.1899304362432
 31
0.0
  0
LINE
  5
926
330
77E
100
AcDbEntity
  8
寸法線
 62
     0
370
    -2
100
AcDbLine
 10
34.22310488922812
 20
-440.689930436243
 30
0.0
 11
116.0308467906142
 21
-440.689930436243
 31
0.0
  0
LINE
  5
927
330
77E
100
AcDbEntity
  8
寸法線
 62
     0
370
    -2
100
AcDbLine
 10
114.7808467906142
 20
-422.689930436243
 30
0.0
 11
114.7808467906142
 21
-418.1899304362432
 31
0.0
  0
LINE
  5
928
330
77E
100
AcDbEntity
  8
寸法線
 62
     0
370
    -2
100
AcDbLine
 10
114.7808467906142
 20
-400.1899304362432
 30
0.0
 11
114.7808467906142
 21
-323.5232637695766
 31
0.0
  0
INSERT
  5
929
330
77E
100
AcDbEntity
  8
寸法線
 62
     0
370
    -2
100
AcDbBlockReference
  2
_OPEN
 10
114.7808467906142
 20
-440.689930436243
 30
0.0
 41
18.0
 42
18.0
 43
18.0
 50
270.0
  0
INSERT
  5
92A
330
77E
100
AcDbEntity
  8
寸法線
 62
     0
370
    -2
100
AcDbBlockReference
  2
_OPEN
 10
114.7808467906142
 20
-400.1899304362432
 30
0.0
 41
18.0
 42
18.0
 43
18.0
 50
90.0
  0
MTEXT
  5
92B
330
77E
100
AcDbEntity
  8
寸法線
 62
     0
100
AcDbMText
 10
103.7808467906143
 20
-352.8565971029099
 30
0.0
 40
20.0
 41
0.0
 46
0.0
 71
     5
 72
     1
  1
\A1;40.5
 11
1.000000000000000E-16
 21
1.0
 31
0.0
 73
     1
 44
1.0
  0
POINT
  5
92C
330
77E
100
AcDbEntity
  8
Defpoints
 62
     0
100
AcDbPoint
 10
-153.6009206048634
 20
-400.1899304362432
 30
0.0
  0
POINT
  5
92D
330
77E
100
AcDbEntity
  8
Defpoints
 62
     0
100
AcDbPoint
 10
33.59810488922812
 20
-440.689930436243
 30
0.0
  0
POINT
  5
92E
330
77E
100
AcDbEntity
  8
Defpoints
 62
     0
100
AcDbPoint
 10
114.7808467906142
 20
-440.689930436243
 30
0.0
  0
ENDBLK
  5
789
330
77E
100
AcDbEntity
  8
0
100
AcDbBlockEnd
  0
BLOCK
  5
795
330
78B
100
AcDbEntity
  8
0
100
AcDbBlockBegin
  2
*D9
 70
     1
 10
0.0
 20
0.0
 30
0.0
  3
*D9
  1
*D9
  0
LINE
  5
8C2
330
78B
100
AcDbEntity
  8
寸法線
 62
     0
370
    -2
100
AcDbLine
 10
-160.4759206048637
 20
-504.6899304362431
 30
0.0
 11
116.5623525826431
 21
-504.6899304362431
 31
0.0
  0
LINE
  5
8C3
330
78B
100
AcDbEntity
  8
寸法線
 62
     0
370
    -2
100
AcDbLine
 10
62.12552973770562
 20
-440.689930436243
 30
0.0
 11
116.5623525826431
 21
-440.689930436243
 31
0.0
  0
LINE
  5
8C4
330
78B
100
AcDbEntity
  8
寸法線
 62
     0
370
    -2
100
AcDbLine
 10
115.3123525826431
 20
-486.6899304362432
 30
0.0
 11
115.3123525826431
 21
-458.6899304362431
 31
0.0
  0
INSERT
  5
8C5
330
78B
100
AcDbEntity
  8
寸法線
 62
     0
370
    -2
100
AcDbBlockReference
  2
_OPEN
 10
115.3123525826431
 20
-504.6899304362431
 30
0.0
 41
18.0
 42
18.0
 43
18.0
 50
270.0
  0
INSERT
  5
8C6
330
78B
100
AcDbEntity
  8
寸法線
 62
     0
370
    -2
100
AcDbBlockReference
  2
_OPEN
 10
115.3123525826431
 20
-440.689930436243
 30
0.0
 41
18.0
 42
18.0
 43
18.0
 50
90.0
  0
MTEXT
  5
8C7
330
78B
100
AcDbEntity
  8
寸法線
 62
     0
100
AcDbMText
 10
104.3123525826432
 20
-472.6899304362431
 30
0.0
 40
20.0
 41
0.0
 46
0.0
 71
     5
 72
     1
  1
\A1;64
 11
1.000000000000000E-16
 21
1.0
 31
0.0
 73
     1
 44
1.0
  0
POINT
  5
8C8
330
78B
100
AcDbEntity
  8
Defpoints
 62
     0
100
AcDbPoint
 10
-161.1009206048637
 20
-504.6899304362431
 30
0.0
  0
POINT
  5
8C9
330
78B
100
AcDbEntity
  8
Defpoints
 62
     0
100
AcDbPoint
 10
61.50052973770562
 20
-440.689930436243
 30
0.0
  0
POINT
  5
8CA
330
78B
100
AcDbEntity
  8
Defpoints
 62
     0
100
AcDbPoint
 10
115.3123525826431
 20
-440.689930436243
 30
0.0
  0
ENDBLK
  5
796
330
78B
100
AcDbEntity
  8
0
100
AcDbBlockEnd
  0
BLOCK
  5
7BD
330
7B3
100
AcDbEntity
  8
0
100
AcDbBlockBegin
  2
*D10
 70
     1
 10
0.0
 20
0.0
 30
0.0
  3
*D10
  1
*D10
  0
LINE
  5
901
330
7B3
100
AcDbEntity
  8
寸法線
 62
     0
370
    -2
100
AcDbLine
 10
-430.1009206048637
 20
92.11086853147344
 30
0.0
 11
-430.1009206048637
 21
143.6181695734467
 31
0.0
  0
LINE
  5
902
330
7B3
100
AcDbEntity
  8
寸法線
 62
     0
370
    -2
100
AcDbLine
 10
-455.1009206048637
 20
85.63506956375684
 30
0.0
 11
-455.1009206048637
 21
143.6181695734467
 31
0.0
  0
LINE
  5
903
330
7B3
100
AcDbEntity
  8
寸法線
 62
     0
370
    -2
100
AcDbLine
 10
-412.1009206048637
 20
142.3681695734467
 30
0.0
 11
-394.1009206048637
 21
142.3681695734467
 31
0.0
  0
LINE
  5
904
330
7B3
100
AcDbEntity
  8
寸法線
 62
     0
370
    -2
100
AcDbLine
 10
-473.1009206048637
 20
142.3681695734467
 30
0.0
 11
-526.4342539381971
 21
142.3681695734467
 31
0.0
  0
LINE
  5
905
330
7B3
100
AcDbEntity
  8
寸法線
 62
     0
370
    -2
100
AcDbLine
 10
-430.1009206048637
 20
142.3681695734467
 30
0.0
 11
-455.1009206048637
 21
142.3681695734467
 31
0.0
  0
INSERT
  5
906
330
7B3
100
AcDbEntity
  8
寸法線
 62
     0
370
    -2
100
AcDbBlockReference
  2
_OPEN
 10
-430.1009206048637
 20
142.3681695734467
 30
0.0
 41
18.0
 42
18.0
 43
18.0
 50
180.0
  0
INSERT
  5
907
330
7B3
100
AcDbEntity
  8
寸法線
 62
     0
370
    -2
100
AcDbBlockReference
  2
_OPEN
 10
-455.1009206048637
 20
142.3681695734467
 30
0.0
 41
18.0
 42
18.0
 43
18.0
  0
MTEXT
  5
908
330
7B3
100
AcDbEntity
  8
寸法線
 62
     0
100
AcDbMText
 10
-508.7675872715304
 20
153.3681695734467
 30
0.0
 40
20.0
 41
0.0
 46
0.0
 71
     5
 72
     1
  1
\A1;25
 73
     1
 44
1.0
  0
POINT
  5
909
330
7B3
100
AcDbEntity
  8
Defpoints
 62
     0
100
AcDbPoint
 10
-430.1009206048637
 20
91.48586853147344
 30
0.0
  0
POINT
  5
90A
330
7B3
100
AcDbEntity
  8
Defpoints
 62
     0
100
AcDbPoint
 10
-455.1009206048637
 20
85.01006956375684
 30
0.0
  0
POINT
  5
90B
330
7B3
100
AcDbEntity
  8
Defpoints
 62
     0
100
AcDbPoint
 10
-455.1009206048637
 20
142.3681695734467
 30
0.0
  0
ENDBLK
  5
7BE
330
7B3
100
AcDbEntity
  8
0
100
AcDbBlockEnd
  0
BLOCK
  5
7CA
330
7C0
100
AcDbEntity
  8
0
100
AcDbBlockBegin
  2
*D11
 70
     1
 10
0.0
 20
0.0
 30
0.0
  3
*D11
  1
*D11
  0
LINE
  5
96A
330
7C0
100
AcDbEntity
  8
寸法線
 62
     0
370
    -2
100
AcDbLine
 10
-455.1009206048637
 20
86.26006956375684
 30
0.0
 11
-455.1009206048637
 21
184.249328601079
 31
0.0
  0
LINE
  5
96B
330
7C0
100
AcDbEntity
  8
寸法線
 62
     0
370
    -2
100
AcDbLine
 10
41.89907939513629
 20
79.6169125632623
 30
0.0
 11
41.89907939513628
 21
184.249328601079
 31
0.0
  0
LINE
  5
96C
330
7C0
100
AcDbEntity
  8
寸法線
 62
     0
370
    -2
100
AcDbLine
 10
-437.1009206048637
 20
182.999328601079
 30
0.0
 11
23.89907939513628
 21
182.999328601079
 31
0.0
  0
INSERT
  5
96D
330
7C0
100
AcDbEntity
  8
寸法線
 62
     0
370
    -2
100
AcDbBlockReference
  2
_OPEN
 10
-455.1009206048637
 20
182.999328601079
 30
0.0
 41
18.0
 42
18.0
 43
18.0
 50
180.0
  0
INSERT
  5
96E
330
7C0
100
AcDbEntity
  8
寸法線
 62
     0
370
    -2
100
AcDbBlockReference
  2
_OPEN
 10
41.89907939513628
 20
182.999328601079
 30
0.0
 41
18.0
 42
18.0
 43
18.0
  0
MTEXT
  5
96F
330
7C0
100
AcDbEntity
  8
寸法線
 62
     0
100
AcDbMText
 10
-214.1101961730337
 20
193.999328601079
 30
0.0
 40
20.0
 41
0.0
 46
0.0
 71
     5
 72
     1
  1
\A1;480
 73
     1
 44
1.0
  0
POINT
  5
970
330
7C0
100
AcDbEntity
  8
Defpoints
 62
     0
100
AcDbPoint
 10
-455.1009206048637
 20
85.63506956375684
 30
0.0
  0
POINT
  5
971
330
7C0
100
AcDbEntity
  8
Defpoints
 62
     0
100
AcDbPoint
 10
41.89907939513629
 20
78.9919125632623
 30
0.0
  0
POINT
  5
972
330
7C0
100
AcDbEntity
  8
Defpoints
 62
     0
100
AcDbPoint
 10
41.89907939513629
 20
182.999328601079
 30
0.0
  0
ENDBLK
  5
7CB
330
7C0
100
AcDbEntity
  8
0
100
AcDbBlockEnd
  0
BLOCK
  5
7D7
330
7CD
100
AcDbEntity
  8
0
100
AcDbBlockBegin
  2
*D12
 70
     1
 10
0.0
 20
0.0
 30
0.0
  3
*D12
  1
*D12
  0
LINE
  5
8EF
330
7CD
100
AcDbEntity
  8
寸法線
 62
     0
370
    -2
100
AcDbLine
 10
-430.1009206048637
 20
58.6350695637568
 30
0.0
 11
-430.1009206048637
 21
143.6181695734467
 31
0.0
  0
LINE
  5
8F0
330
7CD
100
AcDbEntity
  8
寸法線
 62
     0
370
    -2
100
AcDbLine
 10
-132.1009206048634
 20
-51.06617943804986
 30
0.0
 11
-132.1009206048634
 21
143.6181695734467
 31
0.0
  0
LINE
  5
8F1
330
7CD
100
AcDbEntity
  8
寸法線
 62
     0
370
    -2
100
AcDbLine
 10
-412.1009206048637
 20
142.3681695734467
 30
0.0
 11
-150.1009206048634
 21
142.3681695734467
 31
0.0
  0
INSERT
  5
8F2
330
7CD
100
AcDbEntity
  8
寸法線
 62
     0
370
    -2
100
AcDbBlockReference
  2
_OPEN
 10
-430.1009206048637
 20
142.3681695734467
 30
0.0
 41
18.0
 42
18.0
 43
18.0
 50
180.0
  0
INSERT
  5
8F3
330
7CD
100
AcDbEntity
  8
寸法線
 62
     0
370
    -2
100
AcDbBlockReference
  2
_OPEN
 10
-132.1009206048634
 20
142.3681695734467
 30
0.0
 41
18.0
 42
18.0
 43
18.0
  0
MTEXT
  5
8F4
330
7CD
100
AcDbEntity
  8
寸法線
 62
     0
100
AcDbMText
 10
-284.2420106699573
 20
153.3681695734467
 30
0.0
 40
20.0
 41
0.0
 46
0.0
 71
     5
 72
     1
  1
\A1;300
 73
     1
 44
1.0
  0
POINT
  5
8F5
330
7CD
100
AcDbEntity
  8
Defpoints
 62
     0
100
AcDbPoint
 10
-430.1009206048637
 20
58.0100695637568
 30
0.0
  0
POINT
  5
8F6
330
7CD
100
AcDbEntity
  8
Defpoints
 62
     0
100
AcDbPoint
 10
-132.1009206048634
 20
-51.69117943804986
 30
0.0
  0
POINT
  5
8F7
330
7CD
100
AcDbEntity
  8
Defpoints
 62
     0
100
AcDbPoint
 10
-132.1009206048634
 20
142.3681695734467
 30
0.0
  0
ENDBLK
  5
7D8
330
7CD
100
AcDbEntity
  8
0
100
AcDbBlockEnd
  0
BLOCK
  5
7F2
330
7E8
100
AcDbEntity
  8
0
100
AcDbBlockBegin
  2
*D13
 70
     1
 10
0.0
 20
0.0
 30
0.0
  3
*D13
  1
*D13
  0
LINE
  5
8F8
330
7E8
100
AcDbEntity
  8
寸法線
 62
     0
370
    -2
100
AcDbLine
 10
-132.1009206048634
 20
69.74401795546783
 30
0.0
 11
-132.1009206048634
 21
143.6181695734467
 31
0.0
  0
LINE
  5
8F9
330
7E8
100
AcDbEntity
  8
寸法線
 62
     0
370
    -2
100
AcDbLine
 10
41.89963924348433
 20
77.34104646505567
 30
0.0
 11
41.89963924348433
 21
143.6181695734467
 31
0.0
  0
LINE
  5
8FA
330
7E8
100
AcDbEntity
  8
寸法線
 62
     0
370
    -2
100
AcDbLine
 10
-114.1009206048634
 20
142.3681695734467
 30
0.0
 11
23.89963924348433
 21
142.3681695734467
 31
0.0
  0
INSERT
  5
8FB
330
7E8
100
AcDbEntity
  8
寸法線
 62
     0
370
    -2
100
AcDbBlockReference
  2
_OPEN
 10
-132.1009206048634
 20
142.3681695734467
 30
0.0
 41
18.0
 42
18.0
 43
18.0
 50
180.0
  0
INSERT
  5
8FC
330
7E8
100
AcDbEntity
  8
寸法線
 62
     0
370
    -2
100
AcDbBlockReference
  2
_OPEN
 10
41.89963924348433
 20
142.3681695734467
 30
0.0
 41
18.0
 42
18.0
 43
18.0
  0
MTEXT
  5
8FD
330
7E8
100
AcDbEntity
  8
寸法線
 62
     0
100
AcDbMText
 10
-45.96838667114115
 20
153.3681695734467
 30
0.0
 40
20.0
 41
0.0
 46
0.0
 71
     5
 72
     1
  1
\A1;155
 73
     1
 44
1.0
  0
POINT
  5
8FE
330
7E8
100
AcDbEntity
  8
Defpoints
 62
     0
100
AcDbPoint
 10
-132.1009206048634
 20
69.11901795546783
 30
0.0
  0
POINT
  5
8FF
330
7E8
100
AcDbEntity
  8
Defpoints
 62
     0
100
AcDbPoint
 10
41.89963924348433
 20
76.71604646505567
 30
0.0
  0
POINT
  5
900
330
7E8
100
AcDbEntity
  8
Defpoints
 62
     0
100
AcDbPoint
 10
41.89963924348433
 20
142.3681695734467
 30
0.0
  0
ENDBLK
  5
7F3
330
7E8
100
AcDbEntity
  8
0
100
AcDbBlockEnd
  0
BLOCK
  5
7FF
330
7F5
100
AcDbEntity
  8
0
100
AcDbBlockBegin
  2
*D14
 70
     1
 10
0.0
 20
0.0
 30
0.0
  3
*D14
  1
*D14
  0
LINE
  5
8CB
330
7F5
100
AcDbEntity
  8
寸法線
 62
     0
370
    -2
100
AcDbLine
 10
-422.7259206048637
 20
-504.6899304362431
 30
0.0
 11
-546.0523574966826
 21
-504.6899304362431
 31
0.0
  0
LINE
  5
8CC
330
7F5
100
AcDbEntity
  8
寸法線
 62
     0
370
    -2
100
AcDbLine
 10
-422.7259206048637
 20
85.31006956375688
 30
0.0
 11
-546.0523574966824
 21
85.31006956375693
 31
0.0
  0
LINE
  5
8CD
330
7F5
100
AcDbEntity
  8
寸法線
 62
     0
370
    -2
100
AcDbLine
 10
-544.8023574966826
 20
-486.6899304362431
 30
0.0
 11
-544.8023574966824
 21
67.31006956375693
 31
0.0
  0
INSERT
  5
8CE
330
7F5
100
AcDbEntity
  8
寸法線
 62
     0
370
    -2
100
AcDbBlockReference
  2
_OPEN
 10
-544.8023574966826
 20
-504.6899304362431
 30
0.0
 41
18.0
 42
18.0
 43
18.0
 50
270.0
  0
INSERT
  5
8CF
330
7F5
100
AcDbEntity
  8
寸法線
 62
     0
370
    -2
100
AcDbBlockReference
  2
_OPEN
 10
-544.8023574966824
 20
85.31006956375693
 30
0.0
 41
18.0
 42
18.0
 43
18.0
 50
90.0
  0
MTEXT
  5
8D0
330
7F5
100
AcDbEntity
  8
寸法線
 62
     0
100
AcDbMText
 10
-555.8023574966824
 20
-217.5604163038624
 30
0.0
 40
20.0
 41
0.0
 46
0.0
 71
     5
 72
     1
  1
\A1;590
 11
1.000000000000000E-16
 21
1.0
 31
0.0
 73
     1
 44
1.0
  0
POINT
  5
8D1
330
7F5
100
AcDbEntity
  8
Defpoints
 62
     0
100
AcDbPoint
 10
-422.1009206048637
 20
-504.6899304362431
 30
0.0
  0
POINT
  5
8D2
330
7F5
100
AcDbEntity
  8
Defpoints
 62
     0
100
AcDbPoint
 10
-422.1009206048637
 20
85.31006956375688
 30
0.0
  0
POINT
  5
8D3
330
7F5
100
AcDbEntity
  8
Defpoints
 62
     0
100
AcDbPoint
 10
-544.8023574966824
 20
85.31006956375693
 30
0.0
  0
ENDBLK
  5
800
330
7F5
100
AcDbEntity
  8
0
100
AcDbBlockEnd
  0
BLOCK
  5
84C
330
842
100
AcDbEntity
  8
0
100
AcDbBlockBegin
  2
*D15
 70
     1
 10
0.0
 20
0.0
 30
0.0
  3
*D15
  1
*D15
  0
LINE
  5
8D4
330
842
100
AcDbEntity
  8
寸法線
 62
     0
370
    -2
100
AcDbLine
 10
301.6249458466343
 20
41.75969634797138
 30
0.0
 11
301.6249458466343
 21
181.9361980322169
 31
0.0
  0
LINE
  5
8D5
330
842
100
AcDbEntity
  8
寸法線
 62
     0
370
    -2
100
AcDbLine
 10
597.6249458466341
 20
41.75969634797139
 30
0.0
 11
597.6249458466341
 21
181.9361980322169
 31
0.0
  0
LINE
  5
8D6
330
842
100
AcDbEntity
  8
寸法線
 62
     0
370
    -2
100
AcDbLine
 10
319.6249458466343
 20
180.6861980322169
 30
0.0
 11
579.6249458466341
 21
180.6861980322169
 31
0.0
  0
INSERT
  5
8D7
330
842
100
AcDbEntity
  8
寸法線
 62
     0
370
    -2
100
AcDbBlockReference
  2
_OPEN
 10
301.6249458466343
 20
180.6861980322169
 30
0.0
 41
18.0
 42
18.0
 43
18.0
 50
180.0
  0
INSERT
  5
8D8
330
842
100
AcDbEntity
  8
寸法線
 62
     0
370
    -2
100
AcDbBlockReference
  2
_OPEN
 10
597.6249458466341
 20
180.6861980322169
 30
0.0
 41
18.0
 42
18.0
 43
18.0
  0
MTEXT
  5
8D9
330
842
100
AcDbEntity
  8
寸法線
 62
     0
100
AcDbMText
 10
449.6249458466342
 20
191.6861980322169
 30
0.0
 40
20.0
 41
0.0
 46
0.0
 71
     5
 72
     1
  1
\A1;300
 73
     1
 44
1.0
  0
POINT
  5
8DA
330
842
100
AcDbEntity
  8
Defpoints
 62
     0
100
AcDbPoint
 10
301.6249458466343
 20
41.13469634797138
 30
0.0
  0
POINT
  5
8DB
330
842
100
AcDbEntity
  8
Defpoints
 62
     0
100
AcDbPoint
 10
597.6249458466341
 20
41.13469634797139
 30
0.0
  0
POINT
  5
8DC
330
842
100
AcDbEntity
  8
Defpoints
 62
     0
100
AcDbPoint
 10
597.6249458466341
 20
180.6861980322169
 30
0.0
  0
ENDBLK
  5
84D
330
842
100
AcDbEntity
  8
0
100
AcDbBlockEnd
  0
BLOCK
  5
859
330
84F
100
AcDbEntity
  8
0
100
AcDbBlockBegin
  2
*D16
 70
     1
 10
0.0
 20
0.0
 30
0.0
  3
*D16
  1
*D16
  0
LINE
  5
8DD
330
84F
100
AcDbEntity
  8
寸法線
 62
     0
370
    -2
100
AcDbLine
 10
-384.5701598041268
 20
294.0957474646053
 30
0.0
 11
-546.0523574966822
 21
294.0957474646053
 31
0.0
  0
LINE
  5
8DE
330
84F
100
AcDbEntity
  8
寸法線
 62
     0
370
    -2
100
AcDbLine
 10
-384.5701598041268
 20
590.0957474646053
 30
0.0
 11
-546.0523574966822
 21
590.0957474646053
 31
0.0
  0
LINE
  5
8DF
330
84F
100
AcDbEntity
  8
寸法線
 62
     0
370
    -2
100
AcDbLine
 10
-544.8023574966822
 20
312.0957474646053
 30
0.0
 11
-544.8023574966822
 21
572.0957474646053
 31
0.0
  0
INSERT
  5
8E0
330
84F
100
AcDbEntity
  8
寸法線
 62
     0
370
    -2
100
AcDbBlockReference
  2
_OPEN
 10
-544.8023574966822
 20
294.0957474646053
 30
0.0
 41
18.0
 42
18.0
 43
18.0
 50
270.0
  0
INSERT
  5
8E1
330
84F
100
AcDbEntity
  8
寸法線
 62
     0
370
    -2
100
AcDbBlockReference
  2
_OPEN
 10
-544.8023574966822
 20
590.0957474646053
 30
0.0
 41
18.0
 42
18.0
 43
18.0
 50
90.0
  0
MTEXT
  5
8E2
330
84F
100
AcDbEntity
  8
寸法線
 62
     0
100
AcDbMText
 10
-555.8023574966822
 20
442.0957474646053
 30
0.0
 40
20.0
 41
0.0
 46
0.0
 71
     5
 72
     1
  1
\A1;300
 11
0.0
 21
1.0
 31
0.0
 73
     1
 44
1.0
  0
POINT
  5
8E3
330
84F
100
AcDbEntity
  8
Defpoints
 62
     0
100
AcDbPoint
 10
-383.9451598041268
 20
294.0957474646053
 30
0.0
  0
POINT
  5
8E4
330
84F
100
AcDbEntity
  8
Defpoints
 62
     0
100
AcDbPoint
 10
-383.9451598041268
 20
590.0957474646053
 30
0.0
  0
POINT
  5
8E5
330
84F
100
AcDbEntity
  8
Defpoints
 62
     0
100
AcDbPoint
 10
-544.8023574966822
 20
590.0957474646053
 30
0.0
  0
ENDBLK
  5
85A
330
84F
100
AcDbEntity
  8
0
100
AcDbBlockEnd
  0
BLOCK
  5
88B
330
881
100
AcDbEntity
  8
0
100
AcDbBlockBegin
  2
*D17
 70
     1
 10
0.0
 20
0.0
 30
0.0
  3
*D17
  1
*D17
  0
LINE
  5
90C
330
881
100
AcDbEntity
  8
寸法線
 62
     0
370
    -2
100
AcDbLine
 10
-23.1009206048634
 20
475.6517006088852
 30
0.0
 11
-23.10092060486339
 21
712.2669026371019
 31
0.0
  0
LINE
  5
90D
330
881
100
AcDbEntity
  8
寸法線
 62
     0
370
    -2
100
AcDbLine
 10
41.89907939513656
 20
442.7207474646053
 30
0.0
 11
41.89907939513658
 21
712.2669026371019
 31
0.0
  0
LINE
  5
90E
330
881
100
AcDbEntity
  8
寸法線
 62
     0
370
    -2
100
AcDbLine
 10
-5.100920604863389
 20
711.0169026371019
 30
0.0
 11
23.89907939513658
 21
711.0169026371019
 31
0.0
  0
INSERT
  5
90F
330
881
100
AcDbEntity
  8
寸法線
 62
     0
370
    -2
100
AcDbBlockReference
  2
_OPEN
 10
-23.10092060486339
 20
711.0169026371019
 30
0.0
 41
18.0
 42
18.0
 43
18.0
 50
180.0
  0
INSERT
  5
910
330
881
100
AcDbEntity
  8
寸法線
 62
     0
370
    -2
100
AcDbBlockReference
  2
_OPEN
 10
41.89907939513658
 20
711.0169026371019
 30
0.0
 41
18.0
 42
18.0
 43
18.0
  0
MTEXT
  5
911
330
881
100
AcDbEntity
  8
寸法線
 62
     0
100
AcDbMText
 10
9.399079395136596
 20
722.0169026371019
 30
0.0
 40
20.0
 41
0.0
 46
0.0
 71
     5
 72
     1
  1
\A1;65
 73
     1
 44
1.0
  0
POINT
  5
912
330
881
100
AcDbEntity
  8
Defpoints
 62
     0
100
AcDbPoint
 10
-23.1009206048634
 20
475.0267006088852
 30
0.0
  0
POINT
  5
913
330
881
100
AcDbEntity
  8
Defpoints
 62
     0
100
AcDbPoint
 10
41.89907939513656
 20
442.0957474646053
 30
0.0
  0
POINT
  5
914
330
881
100
AcDbEntity
  8
Defpoints
 62
     0
100
AcDbPoint
 10
41.89907939513658
 20
711.0169026371019
 30
0.0
  0
ENDBLK
  5
88C
330
881
100
AcDbEntity
  8
0
100
AcDbBlockEnd
  0
ENDSEC
  0
SECTION
  2
ENTITIES
  0
ARC
  5
352
330
18
100
AcDbEntity
  8
ビューポート
  6
CENTER
100
AcDbCircle
 10
-203.3019733147026
 20
304.1994047224218
 30
0.0
 40
282.9557713257974
100
AcDbArc
 50
0.7159036285464074
 51
91.17431239054709
  0
LINE
  5
353
330
18
100
AcDbEntity
  8
ビューポート
  6
CENTER
100
AcDbLine
 10
-477.9002564939232
 20
442.0957474646053
 30
0.0
 11
91.35132237026187
 21
442.0957474646053
 31
0.0
  0
LINE
  5
356
330
18
100
AcDbEntity
  8
ビューポート
100
AcDbLine
 10
-396.1009206048637
 20
-504.6899304362431
 30
0.0
 11
641.3393941116705
 21
-504.6899304362431
 31
0.0
  0
LINE
  5
35B
330
18
100
AcDbEntity
  8
Ｂ
  6
HIDDEN
100
AcDbLine
 10
-414.1009206048637
 20
-189.6899304362434
 30
0.0
 11
-414.1009206048638
 21
-454.6899304362431
 31
0.0
  0
LINE
  5
35C
330
18
100
AcDbEntity
  8
Ｂ
  6
HIDDEN
100
AcDbLine
 10
-229.1009206048638
 20
-189.6899304362433
 30
0.0
 11
-229.1009206048638
 21
-454.6899304362431
 31
0.0
  0
LINE
  5
35D
330
18
100
AcDbEntity
  8
外形
100
AcDbLine
 10
-132.1009206048634
 20
-71.98993043624307
 30
0.0
 11
-132.1009206048634
 21
-400.1899304362432
 31
0.0
  0
LINE
  5
35F
330
18
100
AcDbEntity
  8
外形
100
AcDbLine
 10
-430.1009206048638
 20
-484.689930436243
 30
0.0
 11
-430.1009206048637
 21
-176.6899304362432
 31
0.0
  0
LINE
  5
360
330
18
100
AcDbEntity
  8
外形
100
AcDbLine
 10
42.00142517738015
 20
-440.689930436243
 30
0.0
 11
-207.9985748226198
 21
-440.689930436243
 31
0.0
  0
LINE
  5
361
330
18
100
AcDbEntity
  8
外形
100
AcDbLine
 10
-207.9985748226198
 20
-450.689930436243
 30
0.0
 11
42.00142517738015
 21
-450.689930436243
 31
0.0
  0
LINE
  5
362
330
18
100
AcDbEntity
  8
Ｂ
  6
HIDDEN
100
AcDbLine
 10
-427.6009206048638
 20
-454.6899304362431
 30
0.0
 11
-156.6009206048638
 21
-454.6899304362431
 31
0.0
  0
LINE
  5
363
330
18
100
AcDbEntity
  8
外形
100
AcDbLine
 10
-187.1009206048637
 20
-504.6899304362431
 30
0.0
 11
-161.1009206048637
 21
-504.6899304362431
 31
0.0
  0
LINE
  5
364
330
18
100
AcDbEntity
  8
外形
100
AcDbLine
 10
-132.1009206048634
 20
-400.1899304362432
 30
0.0
 11
-187.6009206048637
 21
-400.1899304362432
 31
0.0
  0
LINE
  5
366
330
18
100
AcDbEntity
  8
外形
100
AcDbLine
 10
-187.1009206048637
 20
-504.6899304362431
 30
0.0
 11
-161.1009206048637
 21
-504.6899304362431
 31
0.0
  0
LINE
  5
367
330
18
100
AcDbEntity
  8
外形
100
AcDbLine
 10
-430.1009206048638
 20
-484.6010345885264
 30
0.0
 11
-154.1009206048638
 21
-484.6010345885264
 31
0.0
  0
LINE
  5
368
330
18
100
AcDbEntity
  8
外形
100
AcDbLine
 10
-429.1009206048638
 20
-484.689930436243
 30
0.0
 11
-155.1009206048638
 21
-484.689930436243
 31
0.0
  0
LINE
  5
369
330
18
100
AcDbEntity
  8
外形
100
AcDbLine
 10
-422.1009206048637
 20
-504.6899304362431
 30
0.0
 11
-396.1009206048637
 21
-504.6899304362431
 31
0.0
  0
LINE
  5
36A
330
18
100
AcDbEntity
  8
外形
100
AcDbLine
 10
-422.1009206048637
 20
-504.6899304362431
 30
0.0
 11
-396.1009206048637
 21
-504.6899304362431
 31
0.0
  0
LINE
  5
36B
330
18
100
AcDbEntity
  8
外形
100
AcDbLine
 10
-429.1009206048638
 20
-484.689930436243
 30
0.0
 11
-430.1009206048638
 21
-484.689930436243
 31
0.0
  0
LINE
  5
36C
330
18
100
AcDbEntity
  8
外形
100
AcDbLine
 10
-425.100920604864
 20
-484.689930436243
 30
0.0
 11
-422.1009206048637
 21
-504.6899304362431
 31
0.0
  0
LINE
  5
36D
330
18
100
AcDbEntity
  8
外形
100
AcDbLine
 10
-425.100920604864
 20
-484.689930436243
 30
0.0
 11
-422.1009206048637
 21
-504.6899304362431
 31
0.0
  0
LINE
  5
36E
330
18
100
AcDbEntity
  8
外形
100
AcDbLine
 10
-396.1009206048637
 20
-504.6899304362431
 30
0.0
 11
-393.1009206048637
 21
-484.689930436243
 31
0.0
  0
LINE
  5
36F
330
18
100
AcDbEntity
  8
外形
100
AcDbLine
 10
-396.1009206048637
 20
-504.6899304362431
 30
0.0
 11
-393.1009206048637
 21
-484.689930436243
 31
0.0
  0
LINE
  5
370
330
18
100
AcDbEntity
  8
外形
100
AcDbLine
 10
-209.1009206048638
 20
-449.689930436243
 30
0.0
 11
-209.1009206048638
 21
-484.6010345885264
 31
0.0
  0
LINE
  5
371
330
18
100
AcDbEntity
  8
外形
100
AcDbLine
 10
-190.1009206048639
 20
-484.689930436243
 30
0.0
 11
-187.1009206048637
 21
-504.6899304362431
 31
0.0
  0
LINE
  5
372
330
18
100
AcDbEntity
  8
外形
100
AcDbLine
 10
-190.1009206048639
 20
-484.689930436243
 30
0.0
 11
-187.1009206048637
 21
-504.6899304362431
 31
0.0
  0
LINE
  5
375
330
18
100
AcDbEntity
  8
外形
100
AcDbLine
 10
-207.9985748226198
 20
-440.689930436243
 30
0.0
 11
-207.9985748226198
 21
-450.689930436243
 31
0.0
  0
LINE
  5
376
330
18
100
AcDbEntity
  8
外形
100
AcDbLine
 10
-208.1009206048638
 20
-449.689930436243
 30
0.0
 11
-209.1009206048638
 21
-449.689930436243
 31
0.0
  0
LINE
  5
37C
330
18
100
AcDbEntity
  8
外形
100
AcDbLine
 10
-161.1009206048637
 20
-504.6899304362431
 30
0.0
 11
-158.1009206048637
 21
-484.689930436243
 31
0.0
  0
LINE
  5
37D
330
18
100
AcDbEntity
  8
外形
100
AcDbLine
 10
-161.1009206048637
 20
-504.6899304362431
 30
0.0
 11
-158.1009206048637
 21
-484.689930436243
 31
0.0
  0
LINE
  5
37F
330
18
100
AcDbEntity
  8
ビューポート
  6
CENTER
100
AcDbLine
 10
-83.10092060486386
 20
-492.92235845625
 30
0.0
 11
-83.10092060486386
 21
-403.9169801165402
 31
0.0
  0
LINE
  5
380
330
18
100
AcDbEntity
  8
Ｂ
  6
HIDDEN
100
AcDbLine
 10
-86.14714320667942
 20
-419.9957432980534
 30
0.0
 11
-80.51995423438098
 21
-419.9957432980534
 31
0.0
  0
LINE
  5
381
330
18
100
AcDbEntity
  8
外形
  6
CENTER
100
AcDbLine
 10
-86.04479742443549
 20
-435.5000412847015
 30
0.0
 11
-80.41760845213707
 21
-435.5000412847015
 31
0.0
  0
LINE
  5
384
330
18
100
AcDbEntity
  8
Ｂ
  6
HIDDEN
100
AcDbLine
 10
-88.10092060486375
 20
-424.1856324495948
 30
0.0
 11
-86.14714320667942
 21
-419.9957432980534
 31
0.0
  0
LINE
  5
385
330
18
100
AcDbEntity
  8
外形
  6
CENTER
100
AcDbLine
 10
-87.99857482261984
 20
-440.689930436243
 30
0.0
 11
-86.04479742443549
 21
-435.5000412847015
 31
0.0
  0
LINE
  5
389
330
18
100
AcDbEntity
  8
Ｂ
  6
HIDDEN
100
AcDbLine
 10
-80.51995423438098
 20
-419.9957432980534
 30
0.0
 11
-78.10092060486375
 21
-424.1856324495948
 31
0.0
  0
LINE
  5
38A
330
18
100
AcDbEntity
  8
外形
  6
CENTER
100
AcDbLine
 10
-80.41760845213707
 20
-435.5000412847015
 30
0.0
 11
-77.99857482261984
 21
-439.6899304362429
 31
0.0
  0
LINE
  5
38D
330
18
100
AcDbEntity
  8
外形
100
AcDbLine
 10
-23.10092060486386
 20
-450.689930436243
 30
0.0
 11
-23.10092060486386
 21
-483.1899304362431
 31
0.0
  0
LINE
  5
38F
330
18
100
AcDbEntity
  8
外形
100
AcDbLine
 10
42.00142517738015
 20
-450.689930436243
 30
0.0
 11
42.00142517738015
 21
-440.689930436243
 31
0.0
  0
CIRCLE
  5
390
330
18
100
AcDbEntity
  8
ビューポート
  6
CENTER
100
AcDbCircle
 10
-217.1009206048635
 20
-121.6899304362432
 30
0.0
 40
48.0
  0
LINE
  5
391
330
18
100
AcDbEntity
  8
ビューポート
  6
CENTER
100
AcDbLine
 10
-401.1904216631379
 20
-121.6899304362431
 30
0.0
 11
-163.4587946984242
 21
-121.6899304362432
 31
0.0
  0
LINE
  5
392
330
18
100
AcDbEntity
  8
Ｂ
  6
HIDDEN
100
AcDbLine
 10
-347.1866285470067
 20
-172.1899304362436
 30
0.0
 11
-163.4587946984242
 21
-172.1899304362437
 31
0.0
  0
LINE
  5
393
330
18
100
AcDbEntity
  8
Ｂ
  6
HIDDEN
100
AcDbLine
 10
-231.1968103973989
 20
-71.98993043624318
 30
0.0
 11
-163.4587946984242
 21
-71.98993043624307
 31
0.0
  0
CIRCLE
  5
398
330
18
100
AcDbEntity
  8
ビューポート
  6
CENTER
100
AcDbCircle
 10
-274.1009206048635
 20
-121.6899304362432
 30
0.0
 40
48.0
  0
CIRCLE
  5
399
330
18
100
AcDbEntity
  8
ビューポート
  6
CENTER
100
AcDbCircle
 10
-331.1009206048635
 20
-121.6899304362431
 30
0.0
 40
48.0
  0
ARC
  5
39A
330
18
100
AcDbEntity
  8
Ｂ
  6
HIDDEN
100
AcDbCircle
 10
-331.1009206048638
 20
-121.689930436243
 30
0.0
 40
52.99999999999982
100
AcDbArc
 50
191.1329389184331
 51
252.3318210198358
  0
LINE
  5
39B
330
18
100
AcDbEntity
  8
外形
100
AcDbLine
 10
-430.1009206048637
 20
-176.6899304362432
 30
0.0
 11
-430.1009206048637
 21
-71.98993043624318
 31
0.0
  0
LINE
  5
39C
330
18
100
AcDbEntity
  8
Ｂ
  6
HIDDEN
100
AcDbLine
 10
-429.1009206048638
 20
-189.6899304362433
 30
0.0
 11
-209.1009206048637
 21
-189.6899304362433
 31
0.0
  0
LINE
  5
39D
330
18
100
AcDbEntity
  8
Ｂ
  6
HIDDEN
100
AcDbLine
 10
-429.1009206048637
 20
-174.6899304362433
 30
0.0
 11
-209.1009206048637
 21
-174.6899304362433
 31
0.0
  0
LINE
  5
39E
330
18
100
AcDbEntity
  8
Ｂ
  6
HIDDEN
100
AcDbLine
 10
-429.1009206048637
 20
-189.6899304362433
 30
0.0
 11
-414.1009206048637
 21
-189.6899304362434
 31
0.0
  0
LINE
  5
39F
330
18
100
AcDbEntity
  8
Ｂ
  6
HIDDEN
100
AcDbLine
 10
-429.1009206048637
 20
-174.6899304362433
 30
0.0
 11
-429.1009206048638
 21
-189.6899304362433
 31
0.0
  0
LINE
  5
3A0
330
18
100
AcDbEntity
  8
Ｂ
100
AcDbLine
 10
-349.1009206048635
 20
-192.5354682998448
 30
0.0
 11
-349.1009206048635
 21
-178.205862575266
 31
0.0
  0
LINE
  5
3A1
330
18
100
AcDbEntity
  8
Ｂ
  6
HIDDEN
100
AcDbLine
 10
-229.1009206048638
 20
-178.6899304362433
 30
0.0
 11
-229.1009206048638
 21
-189.6899304362433
 31
0.0
  0
LINE
  5
3A2
330
18
100
AcDbEntity
  8
外形
100
AcDbLine
 10
-418.6009206048634
 20
78.01006956375682
 30
0.0
 11
-273.0117636937277
 21
78.01006956374648
 31
0.0
  0
LINE
  5
3A3
330
18
100
AcDbEntity
  8
外形
100
AcDbLine
 10
-417.9009206048634
 20
76.51006956375682
 30
0.0
 11
-253.6009206048634
 21
76.5100695637451
 31
0.0
  0
LINE
  5
3A4
330
18
100
AcDbEntity
  8
外形
100
AcDbLine
 10
-417.9009206048634
 20
76.5100695637567
 30
0.0
 11
-253.6009206048635
 21
76.51006956375682
 31
0.0
  0
LINE
  5
3A5
330
18
100
AcDbEntity
  8
外形
100
AcDbLine
 10
-419.1009206048637
 20
75.31006956375666
 30
0.0
 11
-253.6009206048631
 21
75.31006956375666
 31
0.0
  0
LINE
  5
3A6
330
18
100
AcDbEntity
  8
Ｂ
  6
HIDDEN
100
AcDbLine
 10
-409.1009206048635
 20
25.31006956375665
 30
0.0
 11
-390.9638967734747
 21
-84.48993043624289
 31
0.0
  0
LINE
  5
3A7
330
18
100
AcDbEntity
  8
Ｂ
  6
HIDDEN
100
AcDbLine
 10
-407.7833045712824
 20
25.31006956375665
 30
0.0
 11
-389.6812772872751
 21
-84.2780643143139
 31
0.0
  0
LINE
  5
3A8
330
18
100
AcDbEntity
  8
外形
100
AcDbLine
 10
-430.1009206048637
 20
-71.98993043624318
 30
0.0
 11
-430.1009206048637
 21
14.31006956375665
 31
0.0
  0
LINE
  5
3A9
330
18
100
AcDbEntity
  8
Ｂ
  6
HIDDEN
100
AcDbLine
 10
-390.9638967734747
 20
-84.48993043624289
 30
0.0
 11
-383.1035575949474
 21
-131.9234902312301
 31
0.0
  0
LINE
  5
3AA
330
18
100
AcDbEntity
  8
ビューポート
  6
CENTER
100
AcDbLine
 10
-331.1009206048635
 20
-150.4960995326167
 30
0.0
 11
-331.1009206048635
 21
-75.05170391804438
 31
0.0
  0
LINE
  5
3B2
330
18
100
AcDbEntity
  8
Ｂ
  6
HIDDEN
100
AcDbLine
 10
-231.1968103973989
 20
-71.98993043624318
 30
0.0
 11
-189.5511788202528
 21
0.1424193686684703
 31
0.0
  0
LINE
  5
3B3
330
18
100
AcDbEntity
  8
Ｂ
  6
HIDDEN
100
AcDbLine
 10
-190.3266545868473
 20
0.7992559408883153
 30
0.0
 11
-232.3515109357781
 21
-71.98993043624318
 31
0.0
  0
LINE
  5
3B4
330
18
100
AcDbEntity
  8
ビューポート
  6
CENTER
100
AcDbLine
 10
-274.1009206048635
 20
-75.77021974399611
 30
0.0
 11
-274.1009206048635
 21
-151.9161938696371
 31
0.0
  0
LINE
  5
3B5
330
18
100
AcDbEntity
  8
ビューポート
  6
CENTER
100
AcDbLine
 10
-274.1009206048635
 20
-139.7090822956594
 30
0.0
 11
-274.1009206048635
 21
-75.77021974399611
 31
0.0
  0
LINE
  5
3B6
330
18
100
AcDbEntity
  8
ビューポート
  6
CENTER
100
AcDbLine
 10
-217.1009206048635
 20
-150.8900588508976
 30
0.0
 11
-217.1009206048635
 21
-80.79984428387195
 31
0.0
  0
LINE
  5
3B7
330
18
100
AcDbEntity
  8
Ｂ
  6
HIDDEN
100
AcDbLine
 10
-232.3515109357781
 20
-71.98993043624318
 30
0.0
 11
-231.1968103973989
 21
-71.98993043624318
 31
0.0
  0
LINE
  5
3BB
330
18
100
AcDbEntity
  8
外形
100
AcDbLine
 10
-232.1009206048635
 20
75.31006956375666
 30
0.0
 11
-232.1009206048634
 21
76.51006956375682
 31
0.0
  0
LINE
  5
3C5
330
18
100
AcDbEntity
  8
Ｂ
  6
HIDDEN
100
AcDbLine
 10
-163.4587946984242
 20
-71.98993043624307
 30
0.0
 11
-163.4587946984242
 21
-172.1899304362437
 31
0.0
  0
LINE
  5
3C6
330
18
100
AcDbEntity
  8
寸法線
  6
CENTER
100
AcDbLine
 10
67.69008935433021
 20
442.0957474646053
 30
0.0
 11
-458.421996184375
 21
442.0957474646053
 31
0.0
  0
LINE
  5
3C8
330
18
100
AcDbEntity
  8
外形
100
AcDbLine
 10
-430.1009206048634
 20
587.0957474646053
 30
0.0
 11
-430.1009206048634
 21
297.0957474646053
 31
0.0
  0
LINE
  5
3C9
330
18
100
AcDbEntity
  8
寸法線
  6
CENTER
100
AcDbLine
 10
-83.10092060486335
 20
610.3733125861387
 30
0.0
 11
-83.1009206048634
 21
299.8771307827897
 31
0.0
  0
LINE
  5
3CA
330
18
100
AcDbEntity
  8
ビューポート
  6
CENTER
100
AcDbLine
 10
-83.10092060486335
 20
610.3733125861387
 30
0.0
 11
-83.10092060486335
 21
287.3398919587427
 31
0.0
  0
DIMENSION
  5
3D2
330
18
100
AcDbEntity
  8
寸法線
100
AcDbDimension
280
     0
  2
*D4
 10
-156.0268004791842
 20
340.5732571259819
 30
0.0
 11
16.77625122889645
 21
581.1380083192802
 31
0.0
 70
   163
 71
     5
 42
250.0000000000001
 73
     0
 74
     0
 75
     0
  3
STANDARD$3
100
AcDbDiametricDimension
 15
-10.17504073054186
 25
543.6182378032308
 35
0.0
 40
0.0
1001
ACAD
1000
DSTYLE
1002
{
1070
    40
1040
1.0
1070
   288
1070
     1
1002
}
  0
LINE
  5
3EB
330
18
100
AcDbEntity
  8
ビューポート
  6
CENTER
100
AcDbLine
 10
-331.1009206048635
 20
517.0957474646053
 30
0.0
 11
-331.1009206048635
 21
367.0957474646053
 31
0.0
  0
LINE
  5
3EF
330
18
100
AcDbEntity
  8
ビューポート
  6
CENTER
100
AcDbLine
 10
-274.1009206048635
 20
517.0957474646053
 30
0.0
 11
-274.1009206048635
 21
367.0957474646053
 31
0.0
  0
CIRCLE
  5
414
330
18
100
AcDbEntity
  8
外形
100
AcDbCircle
 10
-83.10092060486335
 20
442.0957474646053
 30
0.0
 40
5.0
  0
DIMENSION
  5
418
330
18
100
AcDbEntity
  8
寸法線
100
AcDbDimension
280
     0
  2
*D5
 10
-23.1009206048634
 20
711.0169026371019
 30
0.0
 11
-226.6009206048634
 21
722.0169026371019
 31
0.0
 70
    32
  1
390
 71
     5
 42
407.0
 73
     0
 74
     0
 75
     0
  3
STANDARD$0
100
AcDbAlignedDimension
 13
-430.1009206048634
 23
604.3668148544344
 33
0.0
 14
-23.1009206048634
 24
627.2221975528097
 34
0.0
100
AcDbRotatedDimension
1001
ACAD
1000
DSTYLE
1002
{
1070
    40
1040
1.0
1002
}
  0
LINE
  5
432
330
18
100
AcDbEntity
  8
寸法線
  6
CENTER
100
AcDbLine
 10
449.6249458466343
 20
59.35359173297877
 30
0.0
 11
449.6249458466343
 21
-529.9133699117702
 31
0.0
  0
LINE
  5
433
330
18
100
AcDbEntity
  8
ビューポート
  6
CENTER
100
AcDbLine
 10
427.1249458466343
 20
-354.0745425141389
 30
0.0
 11
427.1249458466353
 21
-395.1899304362431
 31
0.0
  0
LINE
  5
434
330
18
100
AcDbEntity
  8
ビューポート
  6
CENTER
100
AcDbLine
 10
449.6249458466343
 20
59.35359173297877
 30
0.0
 11
449.6249458466343
 21
-529.9133699117702
 31
0.0
  0
CIRCLE
  5
435
330
18
100
AcDbEntity
  8
Ｂ
  6
HIDDEN
100
AcDbCircle
 10
427.0868243880017
 20
-372.6899304362433
 30
0.0
 40
25.5
  0
CIRCLE
  5
436
330
18
100
AcDbEntity
  8
Ｂ
  6
HIDDEN
100
AcDbCircle
 10
472.1249458466343
 20
-372.6899304362432
 30
0.0
 40
25.5
  0
LINE
  5
437
330
18
100
AcDbEntity
  8
外形
100
AcDbLine
 10
301.624945902504
 20
-483.1905094167807
 30
0.0
 11
301.624945902504
 21
25.30949058321934
 31
0.0
  0
LINE
  5
438
330
18
100
AcDbEntity
  8
外形
100
AcDbLine
 10
597.6249458466343
 20
-484.6899304362432
 30
0.0
 11
597.6249458466341
 21
25.31006956375688
 31
0.0
  0
LINE
  5
439
330
18
100
AcDbEntity
  8
外形
100
AcDbLine
 10
574.7272916288784
 20
-450.689930436243
 30
0.0
 11
324.7272916288784
 21
-450.689930436243
 31
0.0
  0
LINE
  5
43A
330
18
100
AcDbEntity
  8
外形
100
AcDbLine
 10
324.7272916288784
 20
-440.689930436243
 30
0.0
 11
574.7272916288784
 21
-440.689930436243
 31
0.0
  0
LINE
  5
43B
330
18
100
AcDbEntity
  8
外形
100
AcDbLine
 10
389.6249458466343
 20
-454.6899304362429
 30
0.0
 11
304.6249458466343
 21
-454.6899304362429
 31
0.0
  0
LINE
  5
43C
330
18
100
AcDbEntity
  8
外形
100
AcDbLine
 10
594.6249458466343
 20
-484.6899304362432
 30
0.0
 11
305.6249458466343
 21
-484.6899304362432
 31
0.0
  0
LINE
  5
43D
330
18
100
AcDbEntity
  8
外形
100
AcDbLine
 10
304.6249458466343
 20
-400.1899304362432
 30
0.0
 11
594.6249458466343
 21
-400.1899304362432
 31
0.0
  0
LINE
  5
43E
330
18
100
AcDbEntity
  8
外形
100
AcDbLine
 10
304.6249458466343
 20
-484.6899304362432
 30
0.0
 11
594.6249458466343
 21
-484.6899304362432
 31
0.0
  0
LINE
  5
43F
330
18
100
AcDbEntity
  8
外形
100
AcDbLine
 10
304.6249458466343
 20
-484.6899304362432
 30
0.0
 11
304.6249458466343
 21
-450.689930436243
 31
0.0
  0
LINE
  5
440
330
18
100
AcDbEntity
  8
外形
100
AcDbLine
 10
311.6249458466345
 20
-504.6899304362431
 30
0.0
 11
337.6249458466345
 21
-504.6899304362431
 31
0.0
  0
LINE
  5
441
330
18
100
AcDbEntity
  8
外形
100
AcDbLine
 10
305.6249458466343
 20
-484.6899304362432
 30
0.0
 11
304.6249458466343
 21
-484.6899304362432
 31
0.0
  0
LINE
  5
442
330
18
100
AcDbEntity
  8
外形
100
AcDbLine
 10
308.6249458466343
 20
-484.689930436243
 30
0.0
 11
311.6249458466345
 21
-504.6899304362431
 31
0.0
  0
LINE
  5
443
330
18
100
AcDbEntity
  8
外形
100
AcDbLine
 10
337.6249458466345
 20
-504.6899304362431
 30
0.0
 11
340.6249458466345
 21
-484.689930436243
 31
0.0
  0
LINE
  5
444
330
18
100
AcDbEntity
  8
外形
100
AcDbLine
 10
324.7272916288784
 20
-450.689930436243
 30
0.0
 11
324.7272916288784
 21
-440.689930436243
 31
0.0
  0
LINE
  5
448
330
18
100
AcDbEntity
  8
外形
100
AcDbLine
 10
389.6249458466343
 20
-485.189930436243
 30
0.0
 11
509.6249458466343
 21
-485.189930436243
 31
0.0
  0
LINE
  5
44A
330
18
100
AcDbEntity
  8
外形
100
AcDbLine
 10
389.6249458466343
 20
-454.6899304362429
 30
0.0
 11
389.6249458466343
 21
-485.189930436243
 31
0.0
  0
LINE
  5
44C
330
18
100
AcDbEntity
  8
外形
  6
CENTER
100
AcDbLine
 10
446.6810690270627
 20
-435.5000412847015
 30
0.0
 11
452.308257999361
 21
-435.5000412847015
 31
0.0
  0
LINE
  5
44F
330
18
100
AcDbEntity
  8
Ｂ
  6
HIDDEN
100
AcDbLine
 10
446.5787232448187
 20
-419.9957432980534
 30
0.0
 11
452.2059122171172
 21
-419.9957432980534
 31
0.0
  0
LINE
  5
451
330
18
100
AcDbEntity
  8
外形
  6
CENTER
100
AcDbLine
 10
444.7272916288783
 20
-440.689930436243
 30
0.0
 11
446.6810690270627
 21
-435.5000412847015
 31
0.0
  0
LINE
  5
454
330
18
100
AcDbEntity
  8
Ｂ
  6
HIDDEN
100
AcDbLine
 10
444.6249458466344
 20
-424.1856324495948
 30
0.0
 11
446.5787232448187
 21
-419.9957432980534
 31
0.0
  0
LINE
  5
455
330
18
100
AcDbEntity
  8
Ｂ
  6
HIDDEN
100
AcDbLine
 10
444.6249458466344
 20
-450.689930436243
 30
0.0
 11
444.6249458466344
 21
-424.1856324495948
 31
0.0
  0
LINE
  5
457
330
18
100
AcDbEntity
  8
外形
  6
CENTER
100
AcDbLine
 10
452.308257999361
 20
-435.5000412847015
 30
0.0
 11
454.7272916288783
 21
-439.6899304362429
 31
0.0
  0
LINE
  5
45A
330
18
100
AcDbEntity
  8
Ｂ
  6
HIDDEN
100
AcDbLine
 10
454.6249458466344
 20
-424.1856324495948
 30
0.0
 11
454.6249458466344
 21
-450.689930436243
 31
0.0
  0
LINE
  5
45B
330
18
100
AcDbEntity
  8
Ｂ
  6
HIDDEN
100
AcDbLine
 10
452.2059122171172
 20
-419.9957432980534
 30
0.0
 11
454.6249458466344
 21
-424.1856324495948
 31
0.0
  0
LINE
  5
45D
330
18
100
AcDbEntity
  8
外形
100
AcDbLine
 10
509.6249458466343
 20
-454.6899304362429
 30
0.0
 11
594.6249458466343
 21
-454.6899304362429
 31
0.0
  0
LINE
  5
45E
330
18
100
AcDbEntity
  8
外形
100
AcDbLine
 10
509.6249458466343
 20
-485.189930436243
 30
0.0
 11
509.6249458466343
 21
-454.6899304362429
 31
0.0
  0
LINE
  5
460
330
18
100
AcDbEntity
  8
外形
100
AcDbLine
 10
594.6249458466343
 20
-450.689930436243
 30
0.0
 11
594.6249458466343
 21
-484.6899304362432
 31
0.0
  0
LINE
  5
461
330
18
100
AcDbEntity
  8
外形
100
AcDbLine
 10
561.6249458466345
 20
-504.6899304362431
 30
0.0
 11
587.6249458466345
 21
-504.6899304362431
 31
0.0
  0
LINE
  5
462
330
18
100
AcDbEntity
  8
外形
100
AcDbLine
 10
558.6249458466343
 20
-484.689930436243
 30
0.0
 11
561.6249458466345
 21
-504.6899304362431
 31
0.0
  0
LINE
  5
463
330
18
100
AcDbEntity
  8
外形
100
AcDbLine
 10
587.6249458466345
 20
-504.6899304362431
 30
0.0
 11
590.6249458466345
 21
-484.689930436243
 31
0.0
  0
LINE
  5
464
330
18
100
AcDbEntity
  8
外形
100
AcDbLine
 10
574.7272916288784
 20
-440.689930436243
 30
0.0
 11
574.7272916288784
 21
-450.689930436243
 31
0.0
  0
LINE
  5
465
330
18
100
AcDbEntity
  8
ビューポート
  6
CENTER
100
AcDbLine
 10
345.4876177999297
 20
-269.4448433107965
 30
0.0
 11
404.3842835170858
 21
-269.4448433107965
 31
0.0
  0
LINE
  5
466
330
18
100
AcDbEntity
  8
ビューポート
  6
CENTER
100
AcDbLine
 10
295.4328704715448
 20
-121.6899304362428
 30
0.0
 11
536.6857895628722
 21
-121.6899304362428
 31
0.0
  0
LINE
  5
467
330
18
100
AcDbEntity
  8
Ｂ
  6
HIDDEN
100
AcDbLine
 10
374.6249458466341
 20
-85.68993043624312
 30
0.0
 11
330.4219272799481
 21
26.51006956375693
 31
0.0
  0
CIRCLE
  5
468
330
18
100
AcDbEntity
  8
Ｂ
  6
HIDDEN
100
AcDbCircle
 10
373.6249458466343
 20
-269.4448433107965
 30
0.0
 40
50.0
  0
LINE
  5
46A
330
18
100
AcDbEntity
  8
Ｂ
  6
HIDDEN
100
AcDbLine
 10
305.6249458466343
 20
-174.6899304362431
 30
0.0
 11
593.6249458466343
 21
-174.6899304362431
 31
0.0
  0
LINE
  5
46C
330
18
100
AcDbEntity
  8
外形
100
AcDbLine
 10
319.7012221038694
 20
76.51006956375693
 30
0.0
 11
579.5486695893991
 21
76.51006956375693
 31
0.0
  0
LINE
  5
46D
330
18
100
AcDbEntity
  8
Ｂ
  6
HIDDEN
100
AcDbLine
 10
347.6249458466339
 20
-86.68993043624295
 30
0.0
 11
347.6249458466339
 21
-174.6899304362432
 31
0.0
  0
LINE
  5
46E
330
18
100
AcDbEntity
  8
Ｂ
  6
HIDDEN
100
AcDbLine
 10
308.8249458466331
 20
-174.6899304362432
 30
0.0
 11
308.8249458466331
 21
-86.68993043624288
 31
0.0
  0
LINE
  5
470
330
18
100
AcDbEntity
  8
Ｂ
  6
HIDDEN
100
AcDbLine
 10
305.6249458466343
 20
-71.98993043624318
 30
0.0
 11
305.6249458466343
 21
23.40684667608059
 31
0.0
  0
LINE
  5
471
330
18
100
AcDbEntity
  8
Ｂ
  6
HIDDEN
100
AcDbLine
 10
308.8249458466331
 20
-86.68993043624288
 30
0.0
 11
347.6249458466339
 21
-86.68993043624295
 31
0.0
  0
LINE
  5
474
330
18
100
AcDbEntity
  8
Ｂ
  6
HIDDEN
100
AcDbLine
 10
304.6249458466343
 20
-71.98993043624318
 30
0.0
 11
305.6249458466343
 21
-71.98993043624318
 31
0.0
  0
LINE
  5
47B
330
18
100
AcDbEntity
  8
Ｂ
  6
HIDDEN
100
AcDbLine
 10
304.6249458466343
 20
24.31006956375688
 30
0.0
 11
329.5151605554497
 21
24.31006956375688
 31
0.0
  0
LINE
  5
47C
330
18
100
AcDbEntity
  8
外形
100
AcDbLine
 10
321.624945902504
 20
75.30949058321934
 30
0.0
 11
327.9697320762146
 21
75.30949058321934
 31
0.0
  0
LINE
  5
47E
330
18
100
AcDbEntity
  8
Ｂ
  6
HIDDEN
100
AcDbLine
 10
305.6249458466343
 20
24.31006956375688
 30
0.0
 11
304.6249458466343
 21
24.31006956375688
 31
0.0
  0
LINE
  5
47F
330
18
100
AcDbEntity
  8
Ｂ
  6
HIDDEN
100
AcDbLine
 10
330.5151605554497
 20
14.40684667608059
 30
0.0
 11
330.5151605554497
 21
25.31006956375688
 31
0.0
  0
LINE
  5
480
330
18
100
AcDbEntity
  8
Ｂ
  6
HIDDEN
100
AcDbLine
 10
329.5151605554497
 20
14.40684667608059
 30
0.0
 11
330.5151605554497
 21
14.40684667608059
 31
0.0
  0
LINE
  5
481
330
18
100
AcDbEntity
  8
Ｂ
  6
HIDDEN
100
AcDbLine
 10
329.5151605554497
 20
23.40684667608059
 30
0.0
 11
329.5151605554497
 21
14.40684667608059
 31
0.0
  0
LINE
  5
482
330
18
100
AcDbEntity
  8
外形
100
AcDbLine
 10
316.7012221597392
 20
75.30949058321934
 30
0.0
 11
316.7012221597392
 21
76.50949058321939
 31
0.0
  0
LINE
  5
483
330
18
100
AcDbEntity
  8
Ｂ
  6
HIDDEN
100
AcDbLine
 10
524.6249458466341
 20
-172.6899304362432
 30
0.0
 11
524.6249458466341
 21
-85.68993043624334
 31
0.0
  0
LINE
  5
484
330
18
100
AcDbEntity
  8
Ｂ
  6
HIDDEN
100
AcDbLine
 10
374.6249458466341
 20
-172.6899304362432
 30
0.0
 11
374.6249458466341
 21
-85.68993043624312
 31
0.0
  0
LINE
  5
485
330
18
100
AcDbEntity
  8
ビューポート
  6
CENTER
100
AcDbLine
 10
391.7972381352324
 20
-372.6899304362432
 30
0.0
 11
506.159341112871
 21
-372.6899304362432
 31
0.0
  0
LINE
  5
486
330
18
100
AcDbEntity
  8
ビューポート
  6
CENTER
100
AcDbLine
 10
460.6067920391401
 20
-326.6899304362432
 30
0.0
 11
509.0320170681684
 21
-326.6899304362432
 31
0.0
  0
CIRCLE
  5
487
330
18
100
AcDbEntity
  8
Ｂ
  6
HIDDEN
100
AcDbCircle
 10
483.6249458466343
 20
-326.6899304362433
 30
0.0
 40
20.0
  0
CIRCLE
  5
488
330
18
100
AcDbEntity
  8
Ｂ
  6
HIDDEN
100
AcDbCircle
 10
525.6249458466343
 20
-269.4448433107965
 30
0.0
 40
50.0
  0
LINE
  5
489
330
18
100
AcDbEntity
  8
Ｂ
  6
HIDDEN
100
AcDbLine
 10
374.6249458466341
 20
-172.6899304362432
 30
0.0
 11
524.6249458466341
 21
-172.6899304362432
 31
0.0
  0
LINE
  5
48A
330
18
100
AcDbEntity
  8
ビューポート
  6
CENTER
100
AcDbLine
 10
373.6249458466343
 20
-246.7648342878658
 30
0.0
 11
373.6249458466343
 21
-295.023539936847
 31
0.0
  0
LINE
  5
48B
330
18
100
AcDbEntity
  8
ビューポート
  6
CENTER
100
AcDbLine
 10
396.4771264782182
 20
-326.6899304362433
 30
0.0
 11
443.3706892071755
 21
-326.6899304362433
 31
0.0
  0
CIRCLE
  5
48C
330
18
100
AcDbEntity
  8
Ｂ
  6
HIDDEN
100
AcDbCircle
 10
415.6249458466342
 20
-326.6899304362433
 30
0.0
 40
20.0
  0
LINE
  5
48D
330
18
100
AcDbEntity
  8
ビューポート
  6
CENTER
100
AcDbLine
 10
415.6249458466342
 20
-303.3512975292229
 30
0.0
 11
415.6249458466342
 21
-346.6899304362432
 31
0.0
  0
LINE
  5
48E
330
18
100
AcDbEntity
  8
ビューポート
  6
CENTER
100
AcDbLine
 10
472.1249458466343
 20
-354.0745425141389
 30
0.0
 11
472.1249458466343
 21
-390.5166186256158
 31
0.0
  0
LINE
  5
48F
330
18
100
AcDbEntity
  8
ビューポート
  6
CENTER
100
AcDbLine
 10
443.3706892071755
 20
-326.6899304362433
 30
0.0
 11
460.6067920391401
 21
-326.6899304362432
 31
0.0
  0
LINE
  5
490
330
18
100
AcDbEntity
  8
ビューポート
  6
CENTER
100
AcDbLine
 10
525.6249458466343
 20
-246.7648342878658
 30
0.0
 11
525.6249458466343
 21
-287.7635059993032
 31
0.0
  0
LINE
  5
491
330
18
100
AcDbEntity
  8
ビューポート
  6
CENTER
100
AcDbLine
 10
534.6763795983902
 20
-346.6899304362433
 30
0.0
 11
585.6396680038702
 21
-346.6899304362433
 31
0.0
  0
CIRCLE
  5
492
330
18
100
AcDbEntity
  8
Ｂ
  6
HIDDEN
100
AcDbCircle
 10
559.1207073170636
 20
-346.6899304362432
 30
0.0
 40
19.5
  0
LINE
  5
493
330
18
100
AcDbEntity
  8
ビューポート
  6
CENTER
100
AcDbLine
 10
483.6249458466343
 20
-305.3512975292229
 30
0.0
 11
483.6249458466343
 21
-346.6899304362432
 31
0.0
  0
LINE
  5
494
330
18
100
AcDbEntity
  8
ビューポート
  6
CENTER
100
AcDbLine
 10
559.1207073170636
 20
-320.5849500294971
 30
0.0
 11
559.1207073170636
 21
-372.5279803895976
 31
0.0
  0
LINE
  5
495
330
18
100
AcDbEntity
  8
ビューポート
  6
CENTER
100
AcDbLine
 10
497.7886781657055
 20
-269.4448433107964
 30
0.0
 11
553.7622738933389
 21
-269.4448433107965
 31
0.0
  0
LINE
  5
497
330
18
100
AcDbEntity
  8
Ｂ
  6
HIDDEN
100
AcDbLine
 10
593.6249458466345
 20
-71.98993043624284
 30
0.0
 11
593.6249458466345
 21
23.40684667608093
 31
0.0
  0
LINE
  5
499
330
18
100
AcDbEntity
  8
Ｂ
  6
HIDDEN
100
AcDbLine
 10
524.6249458466341
 20
-85.68993043624312
 30
0.0
 11
568.3230463805337
 21
25.31006956375688
 31
0.0
  0
LINE
  5
4A2
330
18
100
AcDbEntity
  8
外形
100
AcDbLine
 10
569.5486695893992
 20
75.31006956375711
 30
0.0
 11
574.624945846634
 21
75.31006956375714
 31
0.0
  0
LINE
  5
4A4
330
18
100
AcDbEntity
  8
Ｂ
  6
HIDDEN
100
AcDbLine
 10
594.6249458466345
 20
24.31006956375722
 30
0.0
 11
569.7347311378189
 21
24.31006956375711
 31
0.0
  0
LINE
  5
4A6
330
18
100
AcDbEntity
  8
Ｂ
  6
HIDDEN
100
AcDbLine
 10
569.7347311378189
 20
23.40684667608081
 30
0.0
 11
569.7347311378189
 21
14.40684667608081
 31
0.0
  0
LINE
  5
4A7
330
18
100
AcDbEntity
  8
Ｂ
  6
HIDDEN
100
AcDbLine
 10
569.7347311378189
 20
14.40684667608081
 30
0.0
 11
568.7347311378188
 21
14.40684667608081
 31
0.0
  0
LINE
  5
4A8
330
18
100
AcDbEntity
  8
Ｂ
  6
HIDDEN
100
AcDbLine
 10
568.7347311378188
 20
14.40684667608081
 30
0.0
 11
568.7347311378188
 21
25.31006956375711
 31
0.0
  0
LINE
  5
4A9
330
18
100
AcDbEntity
  8
Ｂ
  6
HIDDEN
100
AcDbLine
 10
593.6249458466345
 20
24.31006956375722
 30
0.0
 11
594.6249458466345
 21
24.31006956375722
 31
0.0
  0
LINE
  5
4AA
330
18
100
AcDbEntity
  8
外形
100
AcDbLine
 10
579.5486695893991
 20
75.31006956375722
 30
0.0
 11
579.5486695893991
 21
76.51006956375727
 31
0.0
  0
LINE
  5
4AB
330
18
100
AcDbEntity
  8
外形
100
AcDbLine
 10
579.5486695893991
 20
76.51006956375693
 30
0.0
 11
579.5486695893991
 21
75.31006956375688
 31
0.0
  0
LINE
  5
714
330
18
100
AcDbEntity
  8
隠れ線
100
AcDbLine
 10
-209.1009206048661
 20
587.0957474646051
 30
0.0
 11
-208.8682894996113
 21
297.0957474646053
 31
0.0
  0
LINE
  5
716
330
18
100
AcDbEntity
  8
隠れ線
100
AcDbLine
 10
-23.1009206048634
 20
502.0957474646053
 30
0.0
 11
-23.1009206048634
 21
382.0957474646053
 31
0.0
  0
CIRCLE
  5
718
330
18
100
AcDbEntity
  8
隠れ線
100
AcDbCircle
 10
-83.10092060486338
 20
442.0957474646055
 30
0.0
 40
59.99999999999997
  0
LINE
  5
719
330
18
100
AcDbEntity
  8
寸法線
100
AcDbLine
 10
-83.10092060486386
 20
-409.3906909007855
 30
0.0
 11
-83.10092060486386
 21
-488.9369446051378
 31
0.0
  0
LINE
  5
720
330
18
100
AcDbEntity
  8
隠れ線
100
AcDbLine
 10
-23.1009206048634
 20
382.0957474646053
 30
0.0
 11
-208.8682894996113
 21
297.0957474646053
 31
0.0
  0
LINE
  5
721
330
18
100
AcDbEntity
  8
隠れ線
100
AcDbLine
 10
-23.1009206048634
 20
502.7207474646053
 30
0.0
 11
-209.1009206048661
 21
587.0957474646051
 31
0.0
  0
LINE
  5
724
330
18
100
AcDbEntity
  8
外形
100
AcDbLine
 10
-430.1009206048634
 20
587.0957474646053
 30
0.0
 11
-430.1009206048634
 21
572.0957474646053
 31
0.0
  0
LINE
  5
725
330
18
100
AcDbEntity
  8
外形
100
AcDbLine
 10
-430.1009206048634
 20
572.0957474646053
 30
0.0
 11
-455.1009206048634
 21
572.0957474646053
 31
0.0
  0
LINE
  5
726
330
18
100
AcDbEntity
  8
外形
100
AcDbLine
 10
-455.1009206048634
 20
572.0957474646053
 30
0.0
 11
-455.1009206048635
 21
312.0957474646053
 31
0.0
  0
LINE
  5
727
330
18
100
AcDbEntity
  8
外形
100
AcDbLine
 10
-455.1009206048635
 20
312.0957474646053
 30
0.0
 11
-430.1009206048634
 21
312.0957474646053
 31
0.0
  0
DIMENSION
  5
728
330
18
100
AcDbEntity
  8
寸法線
100
AcDbDimension
280
     0
  2
*D6
 10
-455.1009206048634
 20
711.0169026371019
 30
0.0
 11
-508.7675872715301
 21
722.0169026371019
 31
0.0
 70
    32
 71
     5
 42
25.0
 73
     0
 74
     0
 75
     0
  3
STANDARD$0
100
AcDbAlignedDimension
 13
-430.1009206048634
 23
587.0957474646053
 33
0.0
 14
-455.1009206048634
 24
572.0957474646053
 34
0.0
100
AcDbRotatedDimension
1001
ACAD
1000
DSTYLE
1002
{
1070
    40
1040
1.0
1002
}
  0
DIMENSION
  5
742
330
18
100
AcDbEntity
  8
寸法線
100
AcDbDimension
280
     0
  2
*D7
 10
41.8990793951366
 20
748.8123390958913
 30
0.0
 11
-211.3345279406321
 21
748.8123390958913
 31
0.0
 70
   160
  1
480
 71
     5
 42
497.0
 73
     0
 74
     0
 75
     0
  3
STANDARD$0
100
AcDbAlignedDimension
 13
-455.1009206048634
 23
587.0957474646053
 33
0.0
 14
41.8990793951366
 24
532.9985917067374
 34
0.0
100
AcDbRotatedDimension
1001
ACAD
1000
DSTYLE
1002
{
1070
    40
1040
1.0
1002
}
  0
LINE
  5
758
330
18
100
AcDbEntity
  8
外形
100
AcDbLine
 10
449.6249458466343
 20
-41.98993043625345
 30
0.0
 11
579.6249458466343
 21
-41.98993043625345
 31
0.0
  0
LINE
  5
759
330
18
100
AcDbEntity
  8
外形
100
AcDbLine
 10
579.6249458466343
 20
-41.98993043625345
 30
0.0
 11
579.5486695893991
 21
75.31006956375688
 31
0.0
  0
LINE
  5
75B
330
18
100
AcDbEntity
  8
外形
100
AcDbLine
 10
579.5486695893991
 20
75.31006956375688
 30
0.0
 11
579.5486695893991
 21
76.51006956375727
 31
0.0
  0
LINE
  5
75C
330
18
100
AcDbEntity
  8
外形
100
AcDbLine
 10
579.5486695893991
 20
76.51006956375727
 30
0.0
 11
579.5486695893991
 21
79.51006956375727
 31
0.0
  0
LINE
  5
75D
330
18
100
AcDbEntity
  8
外形
100
AcDbLine
 10
579.5486695893991
 20
79.51006956375727
 30
0.0
 11
319.5486695893992
 21
79.5100695637573
 31
0.0
  0
LINE
  5
75E
330
18
100
AcDbEntity
  8
外形
100
AcDbLine
 10
319.5486695893992
 20
79.5100695637573
 30
0.0
 11
319.5486695893992
 21
-41.98993043625345
 31
0.0
  0
LINE
  5
75F
330
18
100
AcDbEntity
  8
外形
100
AcDbLine
 10
319.5486695893992
 20
-41.98993043625345
 30
0.0
 11
319.5486695893992
 21
-38.98993043625345
 31
0.0
  0
LINE
  5
760
330
18
100
AcDbEntity
  8
外形
100
AcDbLine
 10
319.5486695893992
 20
-38.98993043625345
 30
0.0
 11
579.6228850757485
 21
-38.82081289353685
 31
0.0
  0
LINE
  5
761
330
18
100
AcDbEntity
  8
外形
100
AcDbLine
 10
579.6228850757485
 20
-38.82081289353685
 30
0.0
 11
579.6249458466343
 21
-41.98993043625345
 31
0.0
  0
LINE
  5
765
330
18
100
AcDbEntity
  8
外形
100
AcDbLine
 10
-133.6009206048634
 20
-41.98993043625345
 30
0.0
 11
-110.6009206048634
 21
-41.98993043625345
 31
0.0
  0
LINE
  5
766
330
18
100
AcDbEntity
  8
外形
100
AcDbLine
 10
-110.6009206048634
 20
-41.98993043625345
 30
0.0
 11
-110.6009206048634
 21
-38.98993043625345
 31
0.0
  0
LINE
  5
767
330
18
100
AcDbEntity
  8
外形
100
AcDbLine
 10
-110.6009206048634
 20
-38.98993043625345
 30
0.0
 11
-132.1009206048634
 21
-38.98993043625344
 31
0.0
  0
ARC
  5
768
330
18
100
AcDbEntity
  8
外形
100
AcDbCircle
 10
-252.1431088125865
 20
-42.07166193135404
 30
0.0
 40
120.081738906073
100
AcDbArc
 50
1.470578272451192
 51
89.9798703256633
  0
ARC
  5
769
330
18
100
AcDbEntity
  8
外形
100
AcDbCircle
 10
-252.1009206048633
 20
-41.98993043625344
 30
0.0
 40
118.4999999999999
100
AcDbArc
 50
0.0000000000000254
 51
90.00000000000006
  0
LINE
  5
76A
330
18
100
AcDbEntity
  8
外形
100
AcDbLine
 10
-418.6009206048634
 20
78.01006956375682
 30
0.0
 11
-430.1009206048637
 21
78.01006956375682
 31
0.0
  0
LINE
  5
76B
330
18
100
AcDbEntity
  8
外形
100
AcDbLine
 10
-430.1009206048637
 20
78.01006956375682
 30
0.0
 11
-433.1009206048637
 21
78.01006956375682
 31
0.0
  0
LINE
  5
76C
330
18
100
AcDbEntity
  8
外形
100
AcDbLine
 10
-433.1009206048637
 20
78.01006956375682
 30
0.0
 11
-433.1009206048637
 21
58.01006956375681
 31
0.0
  0
LINE
  5
76D
330
18
100
AcDbEntity
  8
外形
100
AcDbLine
 10
-433.1009206048637
 20
58.01006956375681
 30
0.0
 11
-430.1009206048637
 21
58.01006956375684
 31
0.0
  0
LINE
  5
76E
330
18
100
AcDbEntity
  8
外形
100
AcDbLine
 10
-430.1009206048637
 20
58.01006956375684
 30
0.0
 11
-430.1009206048637
 21
75.01006956375684
 31
0.0
  0
LINE
  5
76F
330
18
100
AcDbEntity
  8
外形
100
AcDbLine
 10
-430.1009206048637
 20
75.01006956375684
 30
0.0
 11
-414.3121373835856
 21
75.31006956375666
 31
0.0
  0
LINE
  5
770
330
18
100
AcDbEntity
  8
外形
100
AcDbLine
 10
-132.1009206048634
 20
-41.98993043625345
 30
0.0
 11
-152.1009206048634
 21
-41.98993043625345
 31
0.0
  0
LINE
  5
771
330
18
100
AcDbEntity
  8
外形
100
AcDbLine
 10
-152.1009206048634
 20
-41.98993043625345
 30
0.0
 11
-152.1009206048634
 21
-400.1899304362432
 31
0.0
  0
LINE
  5
772
330
18
100
AcDbEntity
  8
外形
100
AcDbLine
 10
-152.1009206048634
 20
-41.98993043625345
 30
0.0
 11
-152.1009206048634
 21
-42.98993043625346
 31
0.0
  0
LINE
  5
774
330
18
100
AcDbEntity
  8
外形
100
AcDbLine
 10
-152.1009206048634
 20
-42.98993043625346
 30
0.0
 11
-132.1009206048634
 21
-42.98993043625347
 31
0.0
  0
LINE
  5
775
330
18
100
AcDbEntity
  8
外形
100
AcDbLine
 10
-132.1009206048634
 20
-42.98993043625347
 30
0.0
 11
-132.1009206048634
 21
-97.75839846739508
 31
0.0
  0
LINE
  5
776
330
18
100
AcDbEntity
  8
外形
100
AcDbLine
 10
-209.1009206048638
 20
-484.6010345885264
 30
0.0
 11
-209.1009206048637
 21
-405.1899304362432
 31
0.0
  0
LINE
  5
777
330
18
100
AcDbEntity
  8
外形
100
AcDbLine
 10
-155.1009206048638
 20
-484.689930436243
 30
0.0
 11
-23.10092060486386
 21
-484.689930436243
 31
0.0
  0
LINE
  5
778
330
18
100
AcDbEntity
  8
外形
100
AcDbLine
 10
-23.10092060486386
 20
-484.689930436243
 30
0.0
 11
-23.10092060486386
 21
-454.6899304362431
 31
0.0
  0
LINE
  5
779
330
18
100
AcDbEntity
  8
外形
100
AcDbLine
 10
-23.10092060486386
 20
-454.6899304362431
 30
0.0
 11
-209.1009206048638
 21
-454.6899304362429
 31
0.0
  0
LINE
  5
77C
330
18
100
AcDbEntity
  8
外形
100
AcDbLine
 10
389.6249458466343
 20
-454.6899304362429
 30
0.0
 11
509.6249458466343
 21
-454.6899304362429
 31
0.0
  0
DIMENSION
  5
77D
330
18
100
AcDbEntity
  8
寸法線
100
AcDbDimension
280
     0
  2
*D8
 10
114.7808467906142
 20
-440.689930436243
 30
0.0
 11
114.7808467906143
 21
-352.8565971029099
 31
0.0
 70
   160
 71
     5
 42
40.49999999999977
 73
     0
 74
     0
 75
     0
  3
STANDARD$0
100
AcDbAlignedDimension
 13
-153.6009206048634
 23
-400.1899304362432
 33
0.0
 14
33.59810488922812
 24
-440.689930436243
 34
0.0
 50
90.0
100
AcDbRotatedDimension
1001
ACAD
1000
DSTYLE
1002
{
1070
    40
1040
1.0
1002
}
  0
DIMENSION
  5
78A
330
18
100
AcDbEntity
  8
寸法線
100
AcDbDimension
280
     0
  2
*D9
 10
115.3123525826431
 20
-440.689930436243
 30
0.0
 11
104.3123525826432
 21
-472.6899304362431
 31
0.0
 70
    32
 71
     5
 42
64.00000000000011
 73
     0
 74
     0
 75
     0
  3
STANDARD$0
100
AcDbAlignedDimension
 13
-161.1009206048637
 23
-504.6899304362431
 33
0.0
 14
61.50052973770562
 24
-440.689930436243
 34
0.0
 50
90.0
100
AcDbRotatedDimension
1001
ACAD
1000
DSTYLE
1002
{
1070
    40
1040
1.0
1002
}
  0
LINE
  5
797
330
18
100
AcDbEntity
  8
外形
100
AcDbLine
 10
-430.1009206048637
 20
75.01006956375684
 30
0.0
 11
-430.1009206048637
 21
-21.49382039044439
 31
0.0
  0
LINE
  5
798
330
18
100
AcDbEntity
  8
外形
100
AcDbLine
 10
-430.1009206048637
 20
75.01006956375684
 30
0.0
 11
-430.1009206048637
 21
75.01967588486879
 31
0.0
  0
LINE
  5
799
330
18
100
AcDbEntity
  8
外形
100
AcDbLine
 10
-443.1009206048637
 20
85.01006956375686
 30
0.0
 11
-455.1009206048637
 21
85.01006956375684
 31
0.0
  0
LINE
  5
79A
330
18
100
AcDbEntity
  8
外形
100
AcDbLine
 10
-455.1009206048637
 20
85.01006956375684
 30
0.0
 11
-455.1009206048637
 21
-44.98993043624316
 31
0.0
  0
LINE
  5
79B
330
18
100
AcDbEntity
  8
外形
100
AcDbLine
 10
-455.1009206048637
 20
-44.98993043624316
 30
0.0
 11
-430.1009206048637
 21
-44.98993043624316
 31
0.0
  0
LINE
  5
79C
330
18
100
AcDbEntity
  8
外形
100
AcDbLine
 10
-433.1009206048637
 20
75.01006956375686
 30
0.0
 11
-433.1009206048637
 21
-44.98993043624316
 31
0.0
  0
ARC
  5
79D
330
18
100
AcDbEntity
  8
外形
100
AcDbCircle
 10
-443.1009206048637
 20
75.01006956375686
 30
0.0
 40
10.0
100
AcDbArc
 50
0.0
 51
90.0
  0
LINE
  5
79E
330
18
100
AcDbEntity
  8
外形
100
AcDbLine
 10
301.6249458466343
 20
55.31006956375688
 30
0.0
 11
301.6249458466343
 21
25.31006956375688
 31
0.0
  0
LINE
  5
79F
330
18
100
AcDbEntity
  8
外形
100
AcDbLine
 10
597.6249458466341
 20
55.31006956375714
 30
0.0
 11
597.6249458466341
 21
25.31006956375688
 31
0.0
  0
ARC
  5
7A0
330
18
100
AcDbEntity
  8
外形
100
AcDbCircle
 10
577.6249458466341
 20
55.31006956375713
 30
0.0
 40
20.0
100
AcDbArc
 50
0.0
 51
90.00000000000026
  0
ARC
  5
7A1
330
18
100
AcDbEntity
  8
外形
100
AcDbCircle
 10
321.624945902504
 20
55.30949058321934
 30
0.0
 40
20.0
100
AcDbArc
 50
90.0
 51
180.0
  0
LINE
  5
7A2
330
18
100
AcDbEntity
  8
外形
100
AcDbLine
 10
319.5486695893992
 20
-41.98993043625345
 30
0.0
 11
579.6249458466343
 21
-41.98993043625345
 31
0.0
  0
LINE
  5
7A3
330
18
100
AcDbEntity
  8
外形
100
AcDbLine
 10
319.5486695893992
 20
-41.98993043625345
 30
0.0
 11
304.6249458466343
 21
-41.98993043625345
 31
0.0
  0
LINE
  5
7A4
330
18
100
AcDbEntity
  8
外形
100
AcDbLine
 10
579.6249458466343
 20
-41.98993043625345
 30
0.0
 11
594.6249458466341
 21
-41.98993043625345
 31
0.0
  0
DIMENSION
  5
7B2
330
18
100
AcDbEntity
  8
寸法線
100
AcDbDimension
280
     0
  2
*D10
 10
-455.1009206048637
 20
142.3681695734467
 30
0.0
 11
-508.7675872715304
 21
142.3681695734467
 31
0.0
 70
   160
 71
     5
 42
25.0
 73
     0
 74
     0
 75
     0
  3
STANDARD$0
100
AcDbAlignedDimension
 13
-430.1009206048637
 23
91.48586853147344
 33
0.0
 14
-455.1009206048637
 24
85.01006956375684
 34
0.0
100
AcDbRotatedDimension
1001
ACAD
1000
DSTYLE
1002
{
1070
    40
1040
1.0
1002
}
  0
DIMENSION
  5
7BF
330
18
100
AcDbEntity
  8
寸法線
100
AcDbDimension
280
     0
  2
*D11
 10
41.89907939513628
 20
182.999328601079
 30
0.0
 11
-214.1101961730337
 21
182.999328601079
 31
0.0
 70
   160
  1
480
 71
     5
 42
497.0
 73
     0
 74
     0
 75
     0
  3
STANDARD$0
100
AcDbAlignedDimension
 13
-455.1009206048637
 23
85.63506956375684
 33
0.0
 14
41.89907939513629
 24
78.9919125632623
 34
0.0
100
AcDbRotatedDimension
1001
ACAD
1000
DSTYLE
1002
{
1070
    40
1040
1.0
1002
}
  0
DIMENSION
  5
7CC
330
18
100
AcDbEntity
  8
寸法線
100
AcDbDimension
280
     0
  2
*D12
 10
-132.1009206048634
 20
142.3681695734467
 30
0.0
 11
-284.2420106699573
 21
142.3681695734467
 31
0.0
 70
   160
  1
300
 71
     5
 42
298.0000000000003
 73
     0
 74
     0
 75
     0
  3
STANDARD$0
100
AcDbAlignedDimension
 13
-430.1009206048637
 23
58.0100695637568
 33
0.0
 14
-132.1009206048634
 24
-51.69117943804986
 34
0.0
100
AcDbRotatedDimension
1001
ACAD
1000
DSTYLE
1002
{
1070
    40
1040
1.0
1002
}
  0
LINE
  5
7E6
330
18
100
AcDbEntity
  8
寸法線
100
AcDbLine
 10
41.89907939513629
 20
79.6169125632623
 30
0.0
 11
42.00142517738015
 21
-450.689930436243
 31
0.0
  0
DIMENSION
  5
7E7
330
18
100
AcDbEntity
  8
寸法線
100
AcDbDimension
280
     0
  2
*D13
 10
41.89963924348433
 20
142.3681695734467
 30
0.0
 11
-45.96838667114115
 21
142.3681695734467
 31
0.0
 70
   160
  1
155
 71
     5
 42
174.0005598483477
 73
     0
 74
     0
 75
     0
  3
STANDARD$0
100
AcDbAlignedDimension
 13
-132.1009206048634
 23
69.11901795546783
 33
0.0
 14
41.89963924348433
 24
76.71604646505567
 34
0.0
100
AcDbRotatedDimension
1001
ACAD
1000
DSTYLE
1002
{
1070
    40
1040
1.0
1002
}
  0
DIMENSION
  5
7F4
330
18
100
AcDbEntity
  8
寸法線
100
AcDbDimension
280
     0
  2
*D14
 10
-544.8023574966824
 20
85.31006956375693
 30
0.0
 11
-544.8023574966824
 21
-217.5604163038624
 31
0.0
 70
   160
 71
     5
 42
590.0
 73
     0
 74
     0
 75
     0
  3
STANDARD$0
100
AcDbAlignedDimension
 13
-422.1009206048637
 23
-504.6899304362431
 33
0.0
 14
-422.1009206048637
 24
85.31006956375688
 34
0.0
 50
90.0
100
AcDbRotatedDimension
1001
ACAD
1000
DSTYLE
1002
{
1070
    40
1040
1.0
1002
}
  0
LINE
  5
802
330
18
100
AcDbEntity
  8
外形
100
AcDbLine
 10
319.5486695893992
 20
74.65513144942246
 30
0.0
 11
319.5486695893992
 21
85.31006956375688
 31
0.0
  0
LINE
  5
803
330
18
100
AcDbEntity
  8
外形
100
AcDbLine
 10
319.5486695893992
 20
85.31006956375688
 30
0.0
 11
579.6937186969208
 21
85.31006956375688
 31
0.0
  0
LINE
  5
804
330
18
100
AcDbEntity
  8
外形
100
AcDbLine
 10
579.6937186969208
 20
85.31006956375688
 30
0.0
 11
579.6937186969208
 21
76.51006956375693
 31
0.0
  0
LINE
  5
805
330
18
100
AcDbEntity
  8
外形
100
AcDbLine
 10
579.6937186969208
 20
85.31006956375688
 30
0.0
 11
581.6937186969209
 21
85.31006956375688
 31
0.0
  0
LINE
  5
806
330
18
100
AcDbEntity
  8
外形
100
AcDbLine
 10
581.6937186969209
 20
85.31006956375688
 30
0.0
 11
581.6937186969209
 21
75.3100695637569
 31
0.0
  0
LINE
  5
807
330
18
100
AcDbEntity
  8
外形
100
AcDbLine
 10
319.5486695893992
 20
85.31006956375688
 30
0.0
 11
317.5486695893992
 21
85.31006956375688
 31
0.0
  0
LINE
  5
808
330
18
100
AcDbEntity
  8
外形
100
AcDbLine
 10
317.5486695893992
 20
85.31006956375688
 30
0.0
 11
317.5486695893992
 21
75.3100695637569
 31
0.0
  0
LINE
  5
809
330
18
100
AcDbEntity
  8
外形
100
AcDbLine
 10
-204.1009206048637
 20
-400.1899304362432
 30
0.0
 11
-152.9759206048634
 21
-400.1899304362432
 31
0.0
  0
ARC
  5
80A
330
18
100
AcDbEntity
  8
外形
100
AcDbCircle
 10
-204.1009206048637
 20
-405.1899304362432
 30
0.0
 40
5.0
100
AcDbArc
 50
90.0
 51
179.9999999999999
  0
LINE
  5
820
330
18
100
AcDbEntity
  8
外形
100
AcDbLine
 10
-429.1009206048634
 20
590.0957474646053
 30
0.0
 11
-152.1009206048633
 21
590.0957474646053
 31
0.0
  0
LINE
  5
821
330
18
100
AcDbEntity
  8
外形
100
AcDbLine
 10
-429.1009206048634
 20
294.0957474646053
 30
0.0
 11
-152.1009206048634
 21
294.0957474646053
 31
0.0
  0
LINE
  5
822
330
18
100
AcDbEntity
  8
外形
100
AcDbLine
 10
-132.1009206048634
 20
317.0957474646053
 30
0.0
 11
-132.1009206048634
 21
567.0957474646053
 31
0.0
  0
ARC
  5
823
330
18
100
AcDbEntity
  8
外形
100
AcDbCircle
 10
-83.10092060486335
 20
442.0957474646053
 30
0.0
 40
124.9999999999999
100
AcDbArc
 50
246.9209973886908
 51
113.0790026113091
  0
ARC
  5
824
330
18
100
AcDbEntity
  8
外形
100
AcDbCircle
 10
-152.1009206048634
 20
314.0957474646053
 30
0.0
 40
20.0
100
AcDbArc
 50
270.0
 51
0.0
  0
ARC
  5
825
330
18
100
AcDbEntity
  8
外形
100
AcDbCircle
 10
-152.1009206048633
 20
570.0957474646052
 30
0.0
 40
20.0
100
AcDbArc
 50
0.0
 51
90.0
  0
LINE
  5
826
330
18
100
AcDbEntity
  8
外形
100
AcDbLine
 10
-430.1009206048634
 20
572.0957474646053
 30
0.0
 11
-126.8336437520884
 21
572.0957474646053
 31
0.0
  0
LINE
  5
827
330
18
100
AcDbEntity
  8
外形
100
AcDbLine
 10
-106.8336437520884
 20
552.0957474646053
 30
0.0
 11
-106.8336437520884
 21
332.0957474646052
 31
0.0
  0
LINE
  5
828
330
18
100
AcDbEntity
  8
外形
100
AcDbLine
 10
-430.1009206048634
 20
312.0957474646053
 30
0.0
 11
-126.8336437520884
 21
312.0957474646052
 31
0.0
  0
ARC
  5
829
330
18
100
AcDbEntity
  8
外形
100
AcDbCircle
 10
-126.8336437520884
 20
332.0957474646052
 30
0.0
 40
20.0
100
AcDbArc
 50
270.0
 51
0.0
  0
ARC
  5
82A
330
18
100
AcDbEntity
  8
外形
100
AcDbCircle
 10
-126.8336437520884
 20
552.0957474646053
 30
0.0
 40
20.0
100
AcDbArc
 50
0.0
 51
90.0
  0
LINE
  5
83D
330
18
100
AcDbEntity
  8
外形
100
AcDbLine
 10
304.6249458466343
 20
-41.98993043625345
 30
0.0
 11
301.624945902504
 21
-41.98993043625345
 31
0.0
  0
LINE
  5
83E
330
18
100
AcDbEntity
  8
外形
100
AcDbLine
 10
301.624945902504
 20
-41.98993043625345
 30
0.0
 11
301.624945902504
 21
-42.98993043625346
 31
0.0
  0
LINE
  5
83F
330
18
100
AcDbEntity
  8
外形
100
AcDbLine
 10
301.624945902504
 20
-42.98993043625346
 30
0.0
 11
597.6249458466341
 21
-42.98993043625332
 31
0.0
  0
LINE
  5
840
330
18
100
AcDbEntity
  8
外形
100
AcDbLine
 10
594.6249458466341
 20
-41.98993043625345
 30
0.0
 11
597.6249458466341
 21
-41.98993043625345
 31
0.0
  0
DIMENSION
  5
841
330
18
100
AcDbEntity
  8
寸法線
100
AcDbDimension
280
     0
  2
*D15
 10
597.6249458466341
 20
180.6861980322169
 30
0.0
 11
449.6249458466342
 21
191.6861980322169
 31
0.0
 70
    32
  1
300
 71
     5
 42
295.9999999999998
 73
     0
 74
     0
 75
     0
  3
STANDARD$0
100
AcDbAlignedDimension
 13
301.6249458466343
 23
41.13469634797138
 33
0.0
 14
597.6249458466341
 24
41.13469634797139
 34
0.0
100
AcDbRotatedDimension
1001
ACAD
1000
DSTYLE
1002
{
1070
    40
1040
1.0
1002
}
  0
DIMENSION
  5
84E
330
18
100
AcDbEntity
  8
寸法線
100
AcDbDimension
280
     0
  2
*D16
 10
-544.8023574966822
 20
590.0957474646053
 30
0.0
 11
-555.8023574966822
 21
442.0957474646053
 31
0.0
 70
    32
  1
300
 71
     5
 42
296.0
 73
     0
 74
     0
 75
     0
  3
STANDARD$0
100
AcDbAlignedDimension
 13
-383.9451598041268
 23
294.0957474646053
 33
0.0
 14
-383.9451598041268
 24
590.0957474646053
 34
0.0
 50
90.0
100
AcDbRotatedDimension
1001
ACAD
1000
DSTYLE
1002
{
1070
    40
1040
1.0
1002
}
  0
DIMENSION
  5
880
330
18
100
AcDbEntity
  8
寸法線
100
AcDbDimension
280
     0
  2
*D17
 10
41.89907939513658
 20
711.0169026371019
 30
0.0
 11
9.399079395136596
 21
722.0169026371019
 31
0.0
 70
    32
 71
     5
 42
64.99999999999997
 73
     0
 74
     0
 75
     0
  3
STANDARD$0
100
AcDbAlignedDimension
 13
-23.1009206048634
 23
475.0267006088852
 33
0.0
 14
41.89907939513656
 24
442.0957474646053
 34
0.0
100
AcDbRotatedDimension
1001
ACAD
1000
DSTYLE
1002
{
1070
    40
1040
1.0
1002
}
  0
LINE
  5
88E
330
18
100
AcDbEntity
  8
外形
100
AcDbLine
 10
-429.1009206048634
 20
590.0957474646053
 30
0.0
 11
-429.1009206048634
 21
294.0957474646053
 31
0.0
  0
LINE
  5
88F
330
18
100
AcDbEntity
  8
外形
100
AcDbLine
 10
304.6249458466343
 20
-484.6899304362432
 30
0.0
 11
301.624945902504
 21
-484.6899304362432
 31
0.0
  0
LINE
  5
890
330
18
100
AcDbEntity
  8
外形
100
AcDbLine
 10
304.6249458466343
 20
-454.6899304362429
 30
0.0
 11
304.6249458466343
 21
-400.1899304362432
 31
0.0
  0
LINE
  5
891
330
18
100
AcDbEntity
  8
外形
100
AcDbLine
 10
594.6249458466343
 20
-400.1899304362432
 30
0.0
 11
594.6249458466343
 21
-484.6899304362432
 31
0.0
  0
LINE
  5
892
330
18
100
AcDbEntity
  8
外形
100
AcDbLine
 10
594.6249458466343
 20
-484.6899304362432
 30
0.0
 11
597.6249458466343
 21
-484.6899304362432
 31
0.0
  0
LINE
  5
893
330
18
100
AcDbEntity
  8
外形
100
AcDbLine
 10
594.6249458466343
 20
-400.1899304362432
 30
0.0
 11
597.6249458466343
 21
-400.1899304362432
 31
0.0
  0
LINE
  5
894
330
18
100
AcDbEntity
  8
外形
100
AcDbLine
 10
304.6249458466343
 20
-400.1899304362432
 30
0.0
 11
301.624945902504
 21
-400.1899304362432
 31
0.0
  0
MTEXT
  5
94E
330
18
100
AcDbEntity
  8
注釈文字
100
AcDbMText
 10
1251.468117516682
 20
-535.7185730166115
 30
0.0
 40
25.0
 41
294.4704539268741
 46
0.0
 71
     1
 72
     5
  1
{\fHGE|b0|i0|c128|p49;製造元：㈱トップ}
 73
     1
 44
1.0
  0
LINE
  5
94F
330
18
100
AcDbEntity
  8
注釈文字
100
AcDbLine
 10
721.1224309043894
 20
-340.6523785234932
 30
0.0
 11
1534.351893918949
 21
-340.6523785234932
 31
0.0
  0
LINE
  5
950
330
18
100
AcDbEntity
  8
注釈文字
100
AcDbLine
 10
721.1224309043894
 20
-458.0160235711007
 30
0.0
 11
1534.351893918949
 21
-458.0160235711007
 31
0.0
  0
LINE
  5
951
330
18
100
AcDbEntity
  8
注釈文字
100
AcDbLine
 10
721.1224309043894
 20
-294.0160235711007
 30
0.0
 11
1534.351893918949
 21
-294.0160235711007
 31
0.0
  0
LINE
  5
952
330
18
100
AcDbEntity
  8
注釈文字
100
AcDbLine
 10
1534.351893918949
 20
-253.0160235711007
 30
0.0
 11
721.1224309043894
 21
-253.0160235711007
 31
0.0
  0
LINE
  5
953
330
18
100
AcDbEntity
  8
注釈文字
100
AcDbLine
 10
721.1224309043894
 20
-212.0160235711007
 30
0.0
 11
1534.351893918949
 21
-212.0160235711007
 31
0.0
  0
LINE
  5
954
330
18
100
AcDbEntity
  8
注釈文字
100
AcDbLine
 10
1534.351893918949
 20
-171.0160235711007
 30
0.0
 11
721.1224309043894
 21
-171.0160235711007
 31
0.0
  0
LINE
  5
955
330
18
100
AcDbEntity
  8
注釈文字
100
AcDbLine
 10
721.1224309043894
 20
-499.0160235711007
 30
0.0
 11
1534.351893918949
 21
-499.0160235711007
 31
0.0
  0
MTEXT
  5
956
330
18
100
AcDbEntity
  8
注釈文字
100
AcDbMText
 10
759.9176713568128
 20
-108.2717171114677
 30
0.0
 40
25.0
 41
817.65
 46
383.3339666666667
 71
     1
 72
     5
  1
{　　仕様\P\H0.6x;　\P\H1.66667x;機種名　　　卓上にぎり寿司ロボット\P型　式　　　TSM-07W　型\P本体寸法　　幅300　奥行480　高さ590mm\P本体重量　　23 kg\P電　源　　　AC 100 V\P           差込みプラグ形状(二股・アースクリップ付)\P           コード長さ　2.7m\P消費電力　　80 W　　　　　　}
 73
     1
 44
1.0
1001
ACAD
1000
ACAD_MTEXT_DEFINED_HEIGHT_BEGIN
1070
    46
1040
383.3339666666667
1000
ACAD_MTEXT_DEFINED_HEIGHT_END
  0
LINE
  5
957
330
18
100
AcDbEntity
  8
注釈文字
100
AcDbLine
 10
886.8832959600588
 20
-171.0160235711007
 30
0.0
 11
886.8832959600588
 21
-499.0160235711007
 31
0.0
  0
LINE
  5
958
330
18
100
AcDbEntity
  8
注釈文字
100
AcDbLine
 10
721.1224309043894
 20
-335.0160235711007
 30
0.0
 11
721.1224309043894
 21
-458.0160235711007
 31
0.0
  0
LINE
  5
959
330
18
100
AcDbEntity
  8
注釈文字
100
AcDbLine
 10
721.1224309043894
 20
-171.0160235711007
 30
0.0
 11
721.1224309043894
 21
-499.0160235711007
 31
0.0
  0
LINE
  5
95A
330
18
100
AcDbEntity
  8
注釈文字
100
AcDbLine
 10
773.2536478412997
 20
-139.2241825935413
 30
0.0
 11
927.8896158984891
 21
-139.2241825935413
 31
0.0
  0
LINE
  5
95B
330
18
100
AcDbEntity
  8
注釈文字
100
AcDbLine
 10
721.1224309043894
 20
-253.0160235711007
 30
0.0
 11
721.1224309043894
 21
-294.0160235711007
 31
0.0
  0
LINE
  5
95C
330
18
100
AcDbEntity
  8
注釈文字
100
AcDbLine
 10
1534.351893918949
 20
-499.0160235711007
 30
0.0
 11
1534.351893918949
 21
-171.0160235711007
 31
0.0
  0
LINE
  5
95D
330
18
100
AcDbEntity
  8
注釈文字
100
AcDbLine
 10
1534.351893918949
 20
-212.0160235711007
 30
0.0
 11
1534.351893918949
 21
-253.0160235711007
 31
0.0
  0
LINE
  5
95E
330
18
100
AcDbEntity
  8
注釈文字
100
AcDbLine
 10
1534.351893918949
 20
-294.0160235711007
 30
0.0
 11
1534.351893918949
 21
-335.0160235711007
 31
0.0
  0
LWPOLYLINE
  5
95F
330
18
100
AcDbEntity
  8
注釈文字
100
AcDbPolyline
 90
        4
 70
     1
 43
0.0
 10
-689.0949054790601
 20
830.3910828729804
 10
1645.895003009733
 20
830.3910828729804
 10
1645.895003009733
 20
-622.5010917560957
 10
-689.0949054790601
 20
-622.5010917560957
  0
MTEXT
  5
960
330
18
100
AcDbEntity
  8
注釈文字
100
AcDbMText
 10
176.8881395999824
 20
777.0148146004367
 30
0.0
 40
30.0
 41
1099.725
 46
30.0
 71
     1
 72
     5
  1
{\L卓上にぎり寿司ロボット(TSM-07W型) / 製品仕様書}
 73
     1
 44
1.0
1001
ACAD
1000
ACAD_MTEXT_DEFINED_HEIGHT_BEGIN
1070
    46
1040
30.0
1000
ACAD_MTEXT_DEFINED_HEIGHT_END
  0
VIEWPORT
  5
9A3
330
15
100
AcDbEntity
 67
     1
  8
0
100
AcDbViewport
 10
121.9062347412109
 20
106.4335923925682
 30
0.0
 40
401.8856638266197
 41
236.9768840496629
 68
     2
 69
     1
 12
121.9062347412109
 22
106.4335923925682
 13
0.0
 23
0.0
 14
10.0
 24
10.0
 15
10.0
 25
10.0
 16
0.0
 26
0.0
 36
1.0
 17
0.0
 27
0.0
 37
0.0
 42
50.0
 43
0.0
 44
0.0
 45
236.9768840496629
 50
0.0
 51
0.0
 72
   100
 90
    32800
  1

281
     0
 71
     1
 74
     0
110
0.0
120
0.0
130
0.0
111
1.0
121
0.0
131
0.0
112
0.0
122
1.0
132
0.0
 79
     0
146
0.0
170
     0
 61
     5
348
A07
292
     1
282
     1
141
0.0
142
0.0
 63
   256
  0
VIEWPORT
  5
9A5
330
15
100
AcDbEntity
 67
     1
  8
注釈文字
100
AcDbViewport
 10
122.5414598717863
 20
102.6250353302432
 30
0.0
 40
254.5134717101955
 41
208.6242934562345
 68
     1
 69
     2
 12
488.7884603938951
 22
81.04207165586689
 13
0.0
 23
0.0
 14
10.0
 24
10.0
 15
10.0
 25
10.0
 16
0.0
 26
0.0
 36
1.0
 17
0.0
 27
0.0
 37
0.0
 42
50.0
 43
0.0
 44
0.0
 45
1991.887832363343
 50
0.0
 51
0.0
 72
   100
 90
    32800
  1

281
     0
 71
     1
 74
     0
110
0.0
120
0.0
130
0.0
111
1.0
121
0.0
131
0.0
112
0.0
122
1.0
132
0.0
 79
     0
146
0.0
170
     0
 61
     5
348
A07
292
     1
282
     1
141
0.0
142
0.0
 63
   256
  0
ENDSEC
  0
SECTION
  2
OBJECTS
  0
DICTIONARY
  5
C
330
0
100
AcDbDictionary
281
     1
  3
ACAD_DETAILVIEWSTYLE
350
A28
  3
ACAD_GROUP
350
D
  3
ACAD_IMAGE_VARS
350
9FC
  3
ACAD_LAYOUT
350
B8
  3
ACAD_MATERIAL
350
A1B
  3
ACAD_MLEADERSTYLE
350
A21
  3
ACAD_MLINESTYLE
350
1B
  3
ACAD_PLOTSETTINGS
350
B9
  3
ACAD_PLOTSTYLENAME
350
B6
  3
ACAD_SCALELIST
350
9B7
  3
ACAD_SECTIONVIEWSTYLE
350
A29
  3
ACAD_TABLESTYLE
350
A1F
  3
ACAD_VISUALSTYLE
350
A02
  3
ACDB_RECOMPOSE_DATA
350
A45
  3
AcDbVariableDictionary
350
A24
  3
APPDATA
350
9FA
  3
CONTENTDICTIONARY
350
8C
  3
DRAWINGVARIABLESDICT
350
4A
  0
SUN
  5
A23
330
9B6
100
AcDbSun
 90
        1
290
     0
 63
     7
421
 16777215
 40
1.0
291
     1
 91
  2455826
 92
 54000000
292
     0
 70
     2
 71
   256
280
     1
  0
DICTIONARY
  5
A28
102
{ACAD_REACTORS
330
C
102
}
330
C
100
AcDbDictionary
281
     1
  0
DICTIONARY
  5
D
102
{ACAD_REACTORS
330
C
102
}
330
C
100
AcDbDictionary
281
     1
  0
RASTERVARIABLES
  5
9FC
102
{ACAD_REACTORS
330
C
102
}
330
C
100
AcDbRasterVariables
 90
        0
 70
     1
 71
     1
 72
     0
  0
DICTIONARY
  5
B8
102
{ACAD_REACTORS
330
C
102
}
330
C
100
AcDbDictionary
281
     1
  3
Model
350
BA
  3
ﾚｲｱｳﾄ1
350
BB
  0
DICTIONARY
  5
A1B
102
{ACAD_REACTORS
330
C
102
}
330
C
100
AcDbDictionary
281
     1
  3
ByBlock
350
A1D
  3
ByLayer
350
A1C
  3
Global
350
A1E
  0
DICTIONARY
  5
A21
102
{ACAD_REACTORS
330
C
102
}
330
C
100
AcDbDictionary
281
     1
  3
Standard
350
A22
  0
DICTIONARY
  5
1B
102
{ACAD_REACTORS
330
C
102
}
330
C
100
AcDbDictionary
281
     1
  3
STANDARD
350
1C
  0
DICTIONARY
  5
B9
102
{ACAD_REACTORS
330
C
102
}
330
C
100
AcDbDictionary
281
     1
  0
ACDBDICTIONARYWDFLT
  5
B6
102
{ACAD_REACTORS
330
C
102
}
330
C
100
AcDbDictionary
281
     1
  3
Normal
350
B7
100
AcDbDictionaryWithDefault
340
B7
  0
DICTIONARY
  5
9B7
102
{ACAD_REACTORS
330
C
102
}
330
C
100
AcDbDictionary
281
     1
  3
A0
350
9B8
  3
A1
350
9B9
  3
A2
350
9BA
  3
A3
350
9BB
  3
A4
350
9BC
  3
A5
350
9BD
  3
A6
350
9BE
  3
A7
350
9BF
  3
A8
350
9C0
  3
A9
350
9C1
  3
B0
350
9C2
  3
B1
350
9C3
  3
B2
350
9C4
  3
B3
350
9C5
  3
B4
350
9C6
  3
B5
350
9C7
  3
B6
350
9C8
  3
B7
350
9C9
  3
B8
350
9CA
  3
B9
350
9CB
  3
C0
350
9CC
  3
C1
350
9CD
  3
C2
350
9CE
  3
C3
350
9CF
  3
C4
350
9D0
  3
C5
350
9D1
  3
C6
350
9D2
  3
C7
350
9D3
  3
C8
350
9D4
  3
C9
350
9D5
  3
D0
350
9D6
  3
D1
350
9D7
  3
D2
350
9D8
  0
DICTIONARY
  5
A29
102
{ACAD_REACTORS
330
C
102
}
330
C
100
AcDbDictionary
281
     1
  0
DICTIONARY
  5
A1F
102
{ACAD_REACTORS
330
C
102
}
330
C
100
AcDbDictionary
281
     1
  3
Standard
350
A20
  0
DICTIONARY
  5
A02
102
{ACAD_REACTORS
330
C
102
}
330
C
100
AcDbDictionary
281
     1
  3
2dWireframe
350
A07
  3
Basic
350
A0A
  3
Brighten
350
A0E
  3
ColorChange
350
A12
  3
Conceptual
350
A0C
  3
Dim
350
A0D
  3
EdgeColorOff
350
A15
  3
Facepattern
350
A11
  3
Flat
350
A03
  3
FlatWithEdges
350
A04
  3
Gouraud
350
A05
  3
GouraudWithEdges
350
A06
  3
Hidden
350
A09
  3
JitterOff
350
A13
  3
Linepattern
350
A10
  3
OverhangOff
350
A14
  3
Realistic
350
A0B
  3
Shaded
350
A1A
  3
Shaded with edges
350
A19
  3
Shades of Gray
350
A16
  3
Sketchy
350
A17
  3
Thicken
350
A0F
  3
Wireframe
350
A08
  3
X-Ray
350
A18
  0
XRECORD
  5
A45
102
{ACAD_REACTORS
330
C
102
}
330
C
100
AcDbXrecord
280
     1
 90
        1
330
A20
  0
DICTIONARY
  5
A24
102
{ACAD_REACTORS
330
C
102
}
330
C
100
AcDbDictionary
281
     1
  3
CANNOSCALE
350
A39
  3
CMLEADERSTYLE
350
A26
  3
CTABLESTYLE
350
A25
  3
MSLTSCALE
350
A27
  0
DICTIONARY
  5
9FA
102
{ACAD_REACTORS
330
C
102
}
330
C
100
AcDbDictionary
281
     1
  0
DICTIONARY
  5
8C
102
{ACAD_REACTORS
330
C
102
}
330
C
100
AcDbDictionary
281
     1
  0
DICTIONARY
  5
4A
102
{ACAD_REACTORS
330
C
102
}
330
C
100
AcDbDictionary
281
     1
1001
DRAWINGVARIABLESXDATA
1000
POLARMODE
1000
3
  0
LAYOUT
  5
BA
102
{ACAD_REACTORS
330
B8
102
}
330
B8
100
AcDbPlotSettings
  1

  2
Canon BJ S6300
  4
A4
  6

 40
4.222749710083007
 41
5.831412315368652
 42
4.222747802734375
 43
3.799407958984375
 44
209.9733276367187
 45
296.9683227539062
 46
10.0
 47
5.0
 48
0.0
 49
0.0
140
0.0
141
0.0
142
1.0
143
8.3
 70
 28320
 72
     1
 73
     1
 74
     1
  7
AMC.ctb
 75
     0
 76
     0
 77
     2
 78
   300
147
0.1204819277108434
148
689.1247098088465
149
622.5499444455095
100
AcDbLayout
  1
Model
 70
     1
 71
     0
 10
0.0
 20
0.0
 11
12.0
 21
9.0
 12
0.0
 22
0.0
 32
0.0
 14
0.0
 24
0.0
 34
0.0
 15
0.0
 25
0.0
 35
0.0
146
0.0
 13
0.0
 23
0.0
 33
0.0
 16
1.0
 26
0.0
 36
0.0
 17
0.0
 27
1.0
 37
0.0
 76
     0
330
18
331
9B6
  0
LAYOUT
  5
BB
102
{ACAD_REACTORS
330
B8
102
}
330
B8
100
AcDbPlotSettings
  1

  2
C:\PROGRAM FILES\ACAD LT 2000\plotters\DWF ePlot.pc3
  4
ANSI_A_(8.50_x_11.00_Inches)
  6

 40
5.793749809265136
 41
17.79375076293945
 42
5.793746948242187
 43
17.79376220703125
 44
215.8999938964843
 45
279.3999938964843
 46
0.0
 47
0.0
 48
0.0
 49
0.0
140
0.0
141
0.0
142
1.0
143
1.0
 70
   688
 72
     1
 73
     1
 74
     5
  7
monochrome.ctb
 75
    16
 76
     0
 77
     2
 78
   300
147
1.0
148
0.0
149
0.0
100
AcDbLayout
  1
ﾚｲｱｳﾄ1
 70
     1
 71
     1
 10
-17.79376220703125
 20
-5.793749809265136
 11
261.6062316894531
 21
210.1062440872192
 12
0.0
 22
0.0
 32
0.0
 14
-4.735256577541008
 24
-1.698844327248025
 34
-0.0015258207003583
 15
249.805402505909
 25
206.9502357643144
 35
0.0000000349246037
146
0.0
 13
0.0
 23
0.0
 33
0.0
 16
1.0
 26
0.0
 36
0.0
 17
0.0
 27
1.0
 37
0.0
 76
     0
330
15
331
9A5
  0
MATERIAL
  5
A1D
102
{ACAD_REACTORS
330
A1B
102
}
330
A1B
100
AcDbMaterial
  1
ByBlock
 72
     1
 94
      127
  0
MATERIAL
  5
A1C
102
{ACAD_REACTORS
330
A1B
102
}
330
A1B
100
AcDbMaterial
  1
ByLayer
 72
     1
 94
      127
  0
MATERIAL
  5
A1E
102
{ACAD_REACTORS
330
A1B
102
}
330
A1B
100
AcDbMaterial
  1
Global
 72
     1
 94
      127
  0
MLEADERSTYLE
  5
A22
102
{ACAD_REACTORS
330
A21
102
}
330
A21
100
AcDbMLeaderStyle
179
     2
170
     2
171
     1
172
     0
 90
        2
 40
0.0
 41
0.0
173
     1
 91
-1056964608
340
12
 92
       -2
290
     1
 42
2.0
291
     1
 43
8.0
  3
Standard
341
0
 44
4.0
300

342
F
174
     1
178
     6
175
     1
176
     0
 93
-1056964608
 45
4.0
292
     0
297
     0
 46
4.0
343
0
 94
-1056964608
 47
1.0
 49
1.0
140
1.0
293
     1
141
0.0
294
     1
177
     0
142
1.0
295
     0
296
     0
143
3.75
271
     0
272
     9
273
     9
298
     0
  0
MLINESTYLE
  5
1C
102
{ACAD_REACTORS
330
1B
102
}
330
1B
100
AcDbMlineStyle
  2
STANDARD
 70
     0
  3

 62
   256
 51
90.0
 52
90.0
 71
     2
 49
0.5
 62
   256
  6
BYLAYER
 49
-0.5
 62
   256
  6
BYLAYER
  0
ACDBPLACEHOLDER
  5
B7
102
{ACAD_REACTORS
330
B6
102
}
330
B6
  0
SCALE
  5
9B8
102
{ACAD_REACTORS
330
9B7
102
}
330
9B7
100
AcDbScale
 70
     0
300
1:1
140
1.0
141
1.0
290
     1
  0
SCALE
  5
9B9
102
{ACAD_REACTORS
330
9B7
102
}
330
9B7
100
AcDbScale
 70
     0
300
1:2
140
1.0
141
2.0
290
     0
  0
SCALE
  5
9BA
102
{ACAD_REACTORS
330
9B7
102
}
330
9B7
100
AcDbScale
 70
     0
300
1:4
140
1.0
141
4.0
290
     0
  0
SCALE
  5
9BB
102
{ACAD_REACTORS
330
9B7
102
}
330
9B7
100
AcDbScale
 70
     0
300
1:5
140
1.0
141
5.0
290
     0
  0
SCALE
  5
9BC
102
{ACAD_REACTORS
330
9B7
102
}
330
9B7
100
AcDbScale
 70
     0
300
1:8
140
1.0
141
8.0
290
     0
  0
SCALE
  5
9BD
102
{ACAD_REACTORS
330
9B7
102
}
330
9B7
100
AcDbScale
 70
     0
300
1:10
140
1.0
141
10.0
290
     0
  0
SCALE
  5
9BE
102
{ACAD_REACTORS
330
9B7
102
}
330
9B7
100
AcDbScale
 70
     0
300
1:16
140
1.0
141
16.0
290
     0
  0
SCALE
  5
9BF
102
{ACAD_REACTORS
330
9B7
102
}
330
9B7
100
AcDbScale
 70
     0
300
1:20
140
1.0
141
20.0
290
     0
  0
SCALE
  5
9C0
102
{ACAD_REACTORS
330
9B7
102
}
330
9B7
100
AcDbScale
 70
     0
300
1:30
140
1.0
141
30.0
290
     0
  0
SCALE
  5
9C1
102
{ACAD_REACTORS
330
9B7
102
}
330
9B7
100
AcDbScale
 70
     0
300
1:40
140
1.0
141
40.0
290
     0
  0
SCALE
  5
9C2
102
{ACAD_REACTORS
330
9B7
102
}
330
9B7
100
AcDbScale
 70
     0
300
1:50
140
1.0
141
50.0
290
     0
  0
SCALE
  5
9C3
102
{ACAD_REACTORS
330
9B7
102
}
330
9B7
100
AcDbScale
 70
     0
300
1:100
140
1.0
141
100.0
290
     0
  0
SCALE
  5
9C4
102
{ACAD_REACTORS
330
9B7
102
}
330
9B7
100
AcDbScale
 70
     0
300
2:1
140
2.0
141
1.0
290
     0
  0
SCALE
  5
9C5
102
{ACAD_REACTORS
330
9B7
102
}
330
9B7
100
AcDbScale
 70
     0
300
4:1
140
4.0
141
1.0
290
     0
  0
SCALE
  5
9C6
102
{ACAD_REACTORS
330
9B7
102
}
330
9B7
100
AcDbScale
 70
     0
300
8:1
140
8.0
141
1.0
290
     0
  0
SCALE
  5
9C7
102
{ACAD_REACTORS
330
9B7
102
}
330
9B7
100
AcDbScale
 70
     0
300
10:1
140
10.0
141
1.0
290
     0
  0
SCALE
  5
9C8
102
{ACAD_REACTORS
330
9B7
102
}
330
9B7
100
AcDbScale
 70
     0
300
100:1
140
100.0
141
1.0
290
     0
  0
SCALE
  5
9C9
102
{ACAD_REACTORS
330
9B7
102
}
330
9B7
100
AcDbScale
 70
     0
300
1/128" = 1'-0"
140
0.0078125
141
12.0
290
     0
  0
SCALE
  5
9CA
102
{ACAD_REACTORS
330
9B7
102
}
330
9B7
100
AcDbScale
 70
     0
300
1/64" = 1'-0"
140
0.015625
141
12.0
290
     0
  0
SCALE
  5
9CB
102
{ACAD_REACTORS
330
9B7
102
}
330
9B7
100
AcDbScale
 70
     0
300
1/32" = 1'-0"
140
0.03125
141
12.0
290
     0
  0
SCALE
  5
9CC
102
{ACAD_REACTORS
330
9B7
102
}
330
9B7
100
AcDbScale
 70
     0
300
1/16" = 1'-0"
140
0.0625
141
12.0
290
     0
  0
SCALE
  5
9CD
102
{ACAD_REACTORS
330
9B7
102
}
330
9B7
100
AcDbScale
 70
     0
300
3/32" = 1'-0"
140
0.09375
141
12.0
290
     0
  0
SCALE
  5
9CE
102
{ACAD_REACTORS
330
9B7
102
}
330
9B7
100
AcDbScale
 70
     0
300
1/8" = 1'-0"
140
0.125
141
12.0
290
     0
  0
SCALE
  5
9CF
102
{ACAD_REACTORS
330
9B7
102
}
330
9B7
100
AcDbScale
 70
     0
300
3/16" = 1'-0"
140
0.1875
141
12.0
290
     0
  0
SCALE
  5
9D0
102
{ACAD_REACTORS
330
9B7
102
}
330
9B7
100
AcDbScale
 70
     0
300
1/4" = 1'-0"
140
0.25
141
12.0
290
     0
  0
SCALE
  5
9D1
102
{ACAD_REACTORS
330
9B7
102
}
330
9B7
100
AcDbScale
 70
     0
300
3/8" = 1'-0"
140
0.375
141
12.0
290
     0
  0
SCALE
  5
9D2
102
{ACAD_REACTORS
330
9B7
102
}
330
9B7
100
AcDbScale
 70
     0
300
1/2" = 1'-0"
140
0.5
141
12.0
290
     0
  0
SCALE
  5
9D3
102
{ACAD_REACTORS
330
9B7
102
}
330
9B7
100
AcDbScale
 70
     0
300
3/4" = 1'-0"
140
0.75
141
12.0
290
     0
  0
SCALE
  5
9D4
102
{ACAD_REACTORS
330
9B7
102
}
330
9B7
100
AcDbScale
 70
     0
300
1" = 1'-0"
140
1.0
141
12.0
290
     0
  0
SCALE
  5
9D5
102
{ACAD_REACTORS
330
9B7
102
}
330
9B7
100
AcDbScale
 70
     0
300
1-1/2" = 1'-0"
140
1.5
141
12.0
290
     0
  0
SCALE
  5
9D6
102
{ACAD_REACTORS
330
9B7
102
}
330
9B7
100
AcDbScale
 70
     0
300
3" = 1'-0"
140
3.0
141
12.0
290
     0
  0
SCALE
  5
9D7
102
{ACAD_REACTORS
330
9B7
102
}
330
9B7
100
AcDbScale
 70
     0
300
6" = 1'-0"
140
6.0
141
12.0
290
     0
  0
SCALE
  5
9D8
102
{ACAD_REACTORS
330
9B7
102
}
330
9B7
100
AcDbScale
 70
     0
300
1'-0" = 1'-0"
140
12.0
141
12.0
290
     0
  0
TABLESTYLE
  5
A20
102
{ACAD_REACTORS
330
A1F
102
}
102
{ACAD_XDICTIONARY
360
A43
102
}
330
A1F
100
AcDbTableStyle
  3
Standard
 70
     0
 71
     0
 40
1.5
 41
1.5
280
     0
281
     0
  7
STANDARD
140
4.5
170
     2
 62
     0
 63
   257
283
     0
 90
        4
 91
        0
  1

274
    -2
284
     1
 64
     0
275
    -2
285
     1
 65
     0
276
    -2
286
     1
 66
     0
277
    -2
287
     1
 67
     0
278
    -2
288
     1
 68
     0
279
    -2
289
     1
 69
     0
  7
STANDARD
140
6.0
170
     5
 62
     0
 63
   257
283
     0
 90
        4
 91
        0
  1

274
    -2
284
     1
 64
     0
275
    -2
285
     1
 65
     0
276
    -2
286
     1
 66
     0
277
    -2
287
     1
 67
     0
278
    -2
288
     1
 68
     0
279
    -2
289
     1
 69
     0
  7
STANDARD
140
4.5
170
     5
 62
     0
 63
   257
283
     0
 90
        4
 91
        0
  1

274
    -2
284
     1
 64
     0
275
    -2
285
     1
 65
     0
276
    -2
286
     1
 66
     0
277
    -2
287
     1
 67
     0
278
    -2
288
     1
 68
     0
279
    -2
289
     1
 69
     0
  0
VISUALSTYLE
  5
A07
102
{ACAD_REACTORS
330
A02
102
}
330
A02
100
AcDbVisualStyle
  2
2dWireframe
 70
     4
177
     3
291
     0
 70
    58
 90
        0
176
     1
 90
        2
176
     1
 90
        0
176
     1
 90
        0
176
     1
 40
0.6
176
     1
 40
30.0
176
     1
 62
     7
420
 16777215
176
     1
 90
        1
176
     1
 90
        4
176
     1
 62
     7
176
     1
 62
   257
176
     1
 90
        1
176
     1
 90
        1
176
     1
 40
1.0
176
     1
 90
        0
176
     1
 62
   257
176
     1
 40
1.0
176
     1
 90
        1
176
     1
 90
        6
176
     1
 90
        2
176
     1
 62
     7
176
     1
 90
        5
176
     1
 90
        0
176
     1
 90
        0
176
     1
290
     0
176
     1
 90
        1
176
     1
 40
0.0
176
     1
 90
        0
176
     1
290
     1
176
     1
290
     1
176
     1
290
     0
176
     1
290
     0
176
     1
290
     0
176
     1
290
     0
176
     1
290
     0
176
     1
290
     0
176
     1
290
     0
176
     1
 90
       50
176
     1
 40
0.0
176
     1
 40
1.0
176
     1
 90
        0
176
     1
 62
    18
420
        0
176
     1
 90
       50
176
     1
 90
        3
176
     1
 62
     5
420
      255
176
     1
290
     0
176
     1
 90
       50
176
     1
 90
       50
176
     1
 90
       50
176
     1
290
     0
176
     1
 90
       50
176
     1
 62
   256
176
     0
 40
1.0
176
     0
 90
        2
176
     1
  1
strokes_ogs.tif
176
     1
290
     0
176
     1
 40
1.0
176
     1
 40
1.0
176
     1
  0
VISUALSTYLE
  5
A0A
102
{ACAD_REACTORS
330
A02
102
}
330
A02
100
AcDbVisualStyle
  2
Basic
 70
     7
177
     3
291
     1
 70
    58
 90
        1
176
     1
 90
        0
176
     1
 90
        1
176
     1
 90
        0
176
     1
 40
0.6
176
     1
 40
30.0
176
     1
 62
     7
420
 16777215
176
     1
 90
        0
176
     1
 90
        4
176
     1
 62
     7
176
     1
 62
   257
176
     1
 90
        1
176
     1
 90
        1
176
     1
 40
1.0
176
     1
 90
        8
176
     1
 62
     7
176
     1
 40
1.0
176
     1
 90
        1
176
     1
 90
        6
176
     1
 90
        2
176
     1
 62
     7
176
     1
 90
        5
176
     1
 90
        0
176
     1
 90
        0
176
     1
290
     0
176
     1
 90
        1
176
     1
 40
0.0
176
     1
 90
        0
176
     1
290
     0
176
     1
290
     1
176
     1
290
     1
176
     1
290
     0
176
     1
290
     0
176
     1
290
     0
176
     1
290
     0
176
     1
290
     0
176
     1
290
     0
176
     1
 90
       50
176
     1
 40
0.0
176
     1
 40
1.0
176
     1
 90
        0
176
     1
 62
    18
420
        0
176
     1
 90
       50
176
     1
 90
        3
176
     1
 62
     5
420
      255
176
     1
290
     0
176
     1
 90
       50
176
     1
 90
       50
176
     1
 90
       50
176
     1
290
     0
176
     1
 90
       50
176
     1
 62
   256
176
     0
 40
1.0
176
     0
 90
        2
176
     1
  1
strokes_ogs.tif
176
     1
290
     0
176
     1
 40
1.0
176
     1
 40
1.0
176
     1
  0
VISUALSTYLE
  5
A0E
102
{ACAD_REACTORS
330
A02
102
}
330
A02
100
AcDbVisualStyle
  2
Brighten
 70
    12
177
     3
291
     1
 70
    58
 90
        2
176
     1
 90
        2
176
     1
 90
        0
176
     1
 90
        0
176
     1
 40
0.6
176
     1
 40
30.0
176
     1
 62
     7
420
 16777215
176
     1
 90
        1
176
     1
 90
        4
176
     1
 62
     7
176
     1
 62
   257
176
     1
 90
        1
176
     1
 90
        1
176
     1
 40
1.0
176
     1
 90
        8
176
     1
 62
     7
176
     1
 40
1.0
176
     1
 90
        1
176
     1
 90
        6
176
     1
 90
        2
176
     1
 62
     7
176
     1
 90
        5
176
     1
 90
        0
176
     1
 90
        0
176
     1
290
     0
176
     1
 90
        1
176
     1
 40
50.0
176
     1
 90
        0
176
     1
290
     0
176
     1
290
     1
176
     1
290
     1
176
     1
290
     0
176
     1
290
     0
176
     1
290
     0
176
     1
290
     0
176
     1
290
     0
176
     1
290
     0
176
     1
 90
       50
176
     1
 40
0.0
176
     1
 40
1.0
176
     1
 90
        0
176
     1
 62
    18
420
        0
176
     1
 90
       50
176
     1
 90
        3
176
     1
 62
     5
420
      255
176
     1
290
     0
176
     1
 90
       50
176
     1
 90
       50
176
     1
 90
       50
176
     1
290
     0
176
     1
 90
       50
176
     1
 62
   256
176
     0
 40
1.0
176
     0
 90
        2
176
     1
  1
strokes_ogs.tif
176
     1
290
     0
176
     1
 40
1.0
176
     1
 40
1.0
176
     1
  0
VISUALSTYLE
  5
A12
102
{ACAD_REACTORS
330
A02
102
}
330
A02
100
AcDbVisualStyle
  2
ColorChange
 70
    16
177
     3
291
     1
 70
    58
 90
        2
176
     1
 90
        2
176
     1
 90
        3
176
     1
 90
        0
176
     1
 40
0.6
176
     1
 40
30.0
176
     1
 62
     8
420
  8421504
176
     1
 90
        1
176
     1
 90
        4
176
     1
 62
     7
176
     1
 62
   257
176
     1
 90
        1
176
     1
 90
        1
176
     1
 40
1.0
176
     1
 90
        8
176
     1
 62
     8
420
  8421504
176
     1
 40
1.0
176
     1
 90
        1
176
     1
 90
        6
176
     1
 90
        2
176
     1
 62
     7
176
     1
 90
        5
176
     1
 90
        0
176
     1
 90
        0
176
     1
290
     0
176
     1
 90
        1
176
     1
 40
0.0
176
     1
 90
        0
176
     1
290
     0
176
     1
290
     1
176
     1
290
     1
176
     1
290
     0
176
     1
290
     0
176
     1
290
     0
176
     1
290
     0
176
     1
290
     0
176
     1
290
     0
176
     1
 90
       50
176
     1
 40
0.0
176
     1
 40
1.0
176
     1
 90
        0
176
     1
 62
    18
420
        0
176
     1
 90
       50
176
     1
 90
        3
176
     1
 62
     5
420
      255
176
     1
290
     0
176
     1
 90
       50
176
     1
 90
       50
176
     1
 90
       50
176
     1
290
     0
176
     1
 90
       50
176
     1
 62
   256
176
     0
 40
1.0
176
     0
 90
        2
176
     1
  1
strokes_ogs.tif
176
     1
290
     0
176
     1
 40
1.0
176
     1
 40
1.0
176
     1
  0
VISUALSTYLE
  5
A0C
102
{ACAD_REACTORS
330
A02
102
}
330
A02
100
AcDbVisualStyle
  2
Conceptual
 70
     9
177
     3
291
     0
 70
    58
 90
        3
176
     1
 90
        2
176
     1
 90
        0
176
     1
 90
        0
176
     1
 40
0.6
176
     1
 40
30.0
176
     1
 62
     7
420
 16777215
176
     1
 90
        2
176
     1
 90
        2
176
     1
 62
     7
176
     1
 62
   257
176
     1
 90
        1
176
     1
 90
        1
176
     1
 40
179.0
176
     1
 90
        8
176
     1
 62
     7
176
     1
 40
1.0
176
     1
 90
        1
176
     1
 90
        6
176
     1
 90
        2
176
     1
 62
     7
176
     1
 90
        3
176
     1
 90
        0
176
     1
 90
        0
176
     1
290
     0
176
     1
 90
        1
176
     1
 40
0.0
176
     1
 90
        0
176
     1
290
     0
176
     1
290
     1
176
     1
290
     1
176
     1
290
     0
176
     1
290
     0
176
     1
290
     0
176
     1
290
     0
176
     1
290
     0
176
     1
290
     0
176
     1
 90
       50
176
     1
 40
0.0
176
     1
 40
1.0
176
     1
 90
        0
176
     1
 62
    18
420
        0
176
     1
 90
       50
176
     1
 90
        3
176
     1
 62
     5
420
      255
176
     1
290
     0
176
     1
 90
       50
176
     1
 90
       50
176
     1
 90
       50
176
     1
290
     0
176
     1
 90
       50
176
     1
 62
   256
176
     0
 40
1.0
176
     0
 90
        2
176
     1
  1
strokes_ogs.tif
176
     1
290
     0
176
     1
 40
1.0
176
     1
 40
1.0
176
     1
  0
VISUALSTYLE
  5
A0D
102
{ACAD_REACTORS
330
A02
102
}
330
A02
100
AcDbVisualStyle
  2
Dim
 70
    11
177
     3
291
     1
 70
    58
 90
        2
176
     1
 90
        2
176
     1
 90
        0
176
     1
 90
        0
176
     1
 40
0.6
176
     1
 40
30.0
176
     1
 62
     7
420
 16777215
176
     1
 90
        1
176
     1
 90
        4
176
     1
 62
     7
176
     1
 62
   257
176
     1
 90
        1
176
     1
 90
        1
176
     1
 40
1.0
176
     1
 90
        8
176
     1
 62
     7
176
     1
 40
1.0
176
     1
 90
        1
176
     1
 90
        6
176
     1
 90
        2
176
     1
 62
     7
176
     1
 90
        5
176
     1
 90
        0
176
     1
 90
        0
176
     1
290
     0
176
     1
 90
        1
176
     1
 40
-50.0
176
     1
 90
        0
176
     1
290
     0
176
     1
290
     1
176
     1
290
     1
176
     1
290
     0
176
     1
290
     0
176
     1
290
     0
176
     1
290
     0
176
     1
290
     0
176
     1
290
     0
176
     1
 90
       50
176
     1
 40
0.0
176
     1
 40
1.0
176
     1
 90
        0
176
     1
 62
    18
420
        0
176
     1
 90
       50
176
     1
 90
        3
176
     1
 62
     5
420
      255
176
     1
290
     0
176
     1
 90
       50
176
     1
 90
       50
176
     1
 90
       50
176
     1
290
     0
176
     1
 90
       50
176
     1
 62
   256
176
     0
 40
1.0
176
     0
 90
        2
176
     1
  1
strokes_ogs.tif
176
     1
290
     0
176
     1
 40
1.0
176
     1
 40
1.0
176
     1
  0
VISUALSTYLE
  5
A15
102
{ACAD_REACTORS
330
A02
102
}
330
A02
100
AcDbVisualStyle
  2
EdgeColorOff
 70
    22
177
     3
291
     1
 70
    58
 90
        2
176
     0
 90
        2
176
     0
 90
        0
176
     0
 90
        0
176
     0
 40
0.6
176
     0
 40
30.0
176
     0
 62
     7
420
 16777215
176
     0
 90
        1
176
     0
 90
        4
176
     0
 62
     7
176
     0
 62
   257
176
     0
 90
        1
176
     0
 90
        1
176
     0
 40
1.0
176
     0
 90
        8
176
     2
 62
     7
176
     0
 40
1.0
176
     0
 90
        1
176
     0
 90
        6
176
     0
 90
        2
176
     0
 62
     7
176
     0
 90
        5
176
     0
 90
        0
176
     0
 90
        0
176
     0
290
     0
176
     0
 90
        1
176
     0
 40
0.0
176
     0
 90
        0
176
     0
290
     0
176
     0
290
     1
176
     0
290
     1
176
     0
290
     0
176
     0
290
     0
176
     0
290
     0
176
     0
290
     0
176
     0
290
     0
176
     0
290
     0
176
     0
 90
       50
176
     0
 40
0.0
176
     0
 40
1.0
176
     0
 90
        0
176
     0
 62
    18
420
        0
176
     0
 90
       50
176
     0
 90
        3
176
     0
 62
     5
420
      255
176
     0
290
     0
176
     0
 90
       50
176
     0
 90
       50
176
     0
 90
       50
176
     0
290
     0
176
     0
 90
       50
176
     0
 62
   256
176
     0
 40
1.0
176
     0
 90
        2
176
     0
  1
strokes_ogs.tif
176
     0
290
     0
176
     0
 40
1.0
176
     0
 40
1.0
176
     0
  0
VISUALSTYLE
  5
A11
102
{ACAD_REACTORS
330
A02
102
}
330
A02
100
AcDbVisualStyle
  2
Facepattern
 70
    15
177
     3
291
     1
 70
    58
 90
        2
176
     1
 90
        2
176
     1
 90
        0
176
     1
 90
        0
176
     1
 40
0.6
176
     1
 40
30.0
176
     1
 62
     7
420
 16777215
176
     1
 90
        1
176
     1
 90
        4
176
     1
 62
     7
176
     1
 62
   257
176
     1
 90
        1
176
     1
 90
        1
176
     1
 40
1.0
176
     1
 90
        8
176
     1
 62
     7
176
     1
 40
1.0
176
     1
 90
        1
176
     1
 90
        6
176
     1
 90
        2
176
     1
 62
     7
176
     1
 90
        5
176
     1
 90
        0
176
     1
 90
        0
176
     1
290
     0
176
     1
 90
        1
176
     1
 40
0.0
176
     1
 90
        0
176
     1
290
     0
176
     1
290
     1
176
     1
290
     1
176
     1
290
     0
176
     1
290
     0
176
     1
290
     0
176
     1
290
     0
176
     1
290
     0
176
     1
290
     0
176
     1
 90
       50
176
     1
 40
0.0
176
     1
 40
1.0
176
     1
 90
        0
176
     1
 62
    18
420
        0
176
     1
 90
       50
176
     1
 90
        3
176
     1
 62
     5
420
      255
176
     1
290
     0
176
     1
 90
       50
176
     1
 90
       50
176
     1
 90
       50
176
     1
290
     0
176
     1
 90
       50
176
     1
 62
   256
176
     0
 40
1.0
176
     0
 90
        2
176
     1
  1
strokes_ogs.tif
176
     1
290
     0
176
     1
 40
1.0
176
     1
 40
1.0
176
     1
  0
VISUALSTYLE
  5
A03
102
{ACAD_REACTORS
330
A02
102
}
330
A02
100
AcDbVisualStyle
  2
Flat
 70
     0
177
     3
291
     1
 70
    58
 90
        2
176
     1
 90
        1
176
     1
 90
        1
176
     1
 90
        2
176
     1
 40
0.6
176
     1
 40
30.0
176
     1
 62
     7
420
 16777215
176
     1
 90
        0
176
     1
 90
        0
176
     1
 62
     7
176
     1
 62
   257
176
     1
 90
        1
176
     1
 90
        1
176
     1
 40
1.0
176
     1
 90
        8
176
     1
 62
     7
176
     1
 40
1.0
176
     1
 90
        1
176
     1
 90
        6
176
     1
 90
        2
176
     1
 62
     7
176
     1
 90
        5
176
     1
 90
        0
176
     1
 90
        0
176
     1
290
     0
176
     1
 90
       13
176
     1
 40
0.0
176
     1
 90
        0
176
     1
290
     0
176
     1
290
     1
176
     1
290
     1
176
     1
290
     0
176
     1
290
     0
176
     1
290
     0
176
     1
290
     0
176
     1
290
     0
176
     1
290
     0
176
     1
 90
       50
176
     1
 40
0.0
176
     1
 40
1.0
176
     1
 90
        0
176
     1
 62
    18
420
        0
176
     1
 90
       50
176
     1
 90
        3
176
     1
 62
     5
420
      255
176
     1
290
     0
176
     1
 90
       50
176
     1
 90
       50
176
     1
 90
       50
176
     1
290
     0
176
     1
 90
       50
176
     1
 62
   256
176
     0
 40
1.0
176
     0
 90
        2
176
     1
  1
strokes_ogs.tif
176
     1
290
     0
176
     1
 40
1.0
176
     1
 40
1.0
176
     1
  0
VISUALSTYLE
  5
A04
102
{ACAD_REACTORS
330
A02
102
}
330
A02
100
AcDbVisualStyle
  2
FlatWithEdges
 70
     1
177
     3
291
     1
 70
    58
 90
        2
176
     1
 90
        1
176
     1
 90
        1
176
     1
 90
        2
176
     1
 40
0.6
176
     1
 40
30.0
176
     1
 62
     7
420
 16777215
176
     1
 90
        1
176
     1
 90
        0
176
     1
 62
     7
176
     1
 62
   257
176
     1
 90
        1
176
     1
 90
        1
176
     1
 40
1.0
176
     1
 90
        0
176
     1
 62
   257
176
     1
 40
1.0
176
     1
 90
        1
176
     1
 90
        6
176
     1
 90
        2
176
     1
 62
     7
176
     1
 90
        5
176
     1
 90
        0
176
     1
 90
        0
176
     1
290
     0
176
     1
 90
       13
176
     1
 40
0.0
176
     1
 90
        0
176
     1
290
     0
176
     1
290
     1
176
     1
290
     1
176
     1
290
     0
176
     1
290
     0
176
     1
290
     0
176
     1
290
     0
176
     1
290
     0
176
     1
290
     0
176
     1
 90
       50
176
     1
 40
0.0
176
     1
 40
1.0
176
     1
 90
        0
176
     1
 62
    18
420
        0
176
     1
 90
       50
176
     1
 90
        3
176
     1
 62
     5
420
      255
176
     1
290
     0
176
     1
 90
       50
176
     1
 90
       50
176
     1
 90
       50
176
     1
290
     0
176
     1
 90
       50
176
     1
 62
   256
176
     0
 40
1.0
176
     0
 90
        2
176
     1
  1
strokes_ogs.tif
176
     1
290
     0
176
     1
 40
1.0
176
     1
 40
1.0
176
     1
  0
VISUALSTYLE
  5
A05
102
{ACAD_REACTORS
330
A02
102
}
330
A02
100
AcDbVisualStyle
  2
Gouraud
 70
     2
177
     3
291
     1
 70
    58
 90
        2
176
     1
 90
        2
176
     1
 90
        1
176
     1
 90
        2
176
     1
 40
0.6
176
     1
 40
30.0
176
     1
 62
     7
420
 16777215
176
     1
 90
        0
176
     1
 90
        0
176
     1
 62
     7
176
     1
 62
   257
176
     1
 90
        1
176
     1
 90
        1
176
     1
 40
1.0
176
     1
 90
        0
176
     1
 62
     7
176
     1
 40
1.0
176
     1
 90
        1
176
     1
 90
        6
176
     1
 90
        2
176
     1
 62
     7
176
     1
 90
        5
176
     1
 90
        0
176
     1
 90
        0
176
     1
290
     0
176
     1
 90
       13
176
     1
 40
0.0
176
     1
 90
        0
176
     1
290
     0
176
     1
290
     1
176
     1
290
     1
176
     1
290
     0
176
     1
290
     0
176
     1
290
     0
176
     1
290
     0
176
     1
290
     0
176
     1
290
     0
176
     1
 90
       50
176
     1
 40
0.0
176
     1
 40
1.0
176
     1
 90
        0
176
     1
 62
    18
420
        0
176
     1
 90
       50
176
     1
 90
        3
176
     1
 62
     5
420
      255
176
     1
290
     0
176
     1
 90
       50
176
     1
 90
       50
176
     1
 90
       50
176
     1
290
     0
176
     1
 90
       50
176
     1
 62
   256
176
     0
 40
1.0
176
     0
 90
        2
176
     1
  1
strokes_ogs.tif
176
     1
290
     0
176
     1
 40
1.0
176
     1
 40
1.0
176
     1
  0
VISUALSTYLE
  5
A06
102
{ACAD_REACTORS
330
A02
102
}
330
A02
100
AcDbVisualStyle
  2
GouraudWithEdges
 70
     3
177
     3
291
     1
 70
    58
 90
        2
176
     1
 90
        2
176
     1
 90
        1
176
     1
 90
        2
176
     1
 40
0.6
176
     1
 40
30.0
176
     1
 62
     7
420
 16777215
176
     1
 90
        1
176
     1
 90
        0
176
     1
 62
     7
176
     1
 62
   257
176
     1
 90
        1
176
     1
 90
        1
176
     1
 40
1.0
176
     1
 90
        0
176
     1
 62
   257
176
     1
 40
1.0
176
     1
 90
        1
176
     1
 90
        6
176
     1
 90
        2
176
     1
 62
     7
176
     1
 90
        5
176
     1
 90
        0
176
     1
 90
        0
176
     1
290
     0
176
     1
 90
       13
176
     1
 40
0.0
176
     1
 90
        0
176
     1
290
     0
176
     1
290
     1
176
     1
290
     1
176
     1
290
     0
176
     1
290
     0
176
     1
290
     0
176
     1
290
     0
176
     1
290
     0
176
     1
290
     0
176
     1
 90
       50
176
     1
 40
0.0
176
     1
 40
1.0
176
     1
 90
        0
176
     1
 62
    18
420
        0
176
     1
 90
       50
176
     1
 90
        3
176
     1
 62
     5
420
      255
176
     1
290
     0
176
     1
 90
       50
176
     1
 90
       50
176
     1
 90
       50
176
     1
290
     0
176
     1
 90
       50
176
     1
 62
   256
176
     0
 40
1.0
176
     0
 90
        2
176
     1
  1
strokes_ogs.tif
176
     1
290
     0
176
     1
 40
1.0
176
     1
 40
1.0
176
     1
  0
VISUALSTYLE
  5
A09
102
{ACAD_REACTORS
330
A02
102
}
330
A02
100
AcDbVisualStyle
  2
Hidden
 70
     6
177
     3
291
     0
 70
    58
 90
        1
176
     1
 90
        2
176
     1
 90
        2
176
     1
 90
        0
176
     1
 40
0.6
176
     1
 40
30.0
176
     1
 62
     7
420
 16777215
176
     1
 90
        2
176
     1
 90
        2
176
     1
 62
     7
176
     1
 62
   257
176
     1
 90
        2
176
     1
 90
        1
176
     1
 40
40.0
176
     1
 90
        0
176
     1
 62
   257
176
     1
 40
1.0
176
     1
 90
        1
176
     1
 90
        6
176
     1
 90
        2
176
     1
 62
     7
176
     1
 90
        3
176
     1
 90
        0
176
     1
 90
        0
176
     1
290
     0
176
     1
 90
        1
176
     1
 40
0.0
176
     1
 90
        0
176
     1
290
     0
176
     1
290
     1
176
     1
290
     1
176
     1
290
     0
176
     1
290
     0
176
     1
290
     0
176
     1
290
     0
176
     1
290
     0
176
     1
290
     0
176
     1
 90
       50
176
     1
 40
0.0
176
     1
 40
1.0
176
     1
 90
        0
176
     1
 62
    18
420
        0
176
     1
 90
       50
176
     1
 90
        3
176
     1
 62
     5
420
      255
176
     1
290
     0
176
     1
 90
       50
176
     1
 90
       50
176
     1
 90
       50
176
     1
290
     0
176
     1
 90
       50
176
     1
 62
   256
176
     0
 40
1.0
176
     0
 90
        2
176
     1
  1
strokes_ogs.tif
176
     1
290
     0
176
     1
 40
1.0
176
     1
 40
1.0
176
     1
  0
VISUALSTYLE
  5
A13
102
{ACAD_REACTORS
330
A02
102
}
330
A02
100
AcDbVisualStyle
  2
JitterOff
 70
    20
177
     3
291
     1
 70
    58
 90
        2
176
     0
 90
        2
176
     0
 90
        0
176
     0
 90
        0
176
     0
 40
0.6
176
     0
 40
30.0
176
     0
 62
     7
420
 16777215
176
     0
 90
        1
176
     0
 90
        4
176
     0
 62
     7
176
     0
 62
   257
176
     0
 90
        1
176
     0
 90
        1
176
     0
 40
1.0
176
     0
 90
       10
176
     2
 62
     7
176
     0
 40
1.0
176
     0
 90
        1
176
     0
 90
        6
176
     0
 90
        2
176
     0
 62
     7
176
     0
 90
        5
176
     0
 90
        0
176
     0
 90
        0
176
     0
290
     0
176
     0
 90
        1
176
     0
 40
0.0
176
     0
 90
        0
176
     0
290
     0
176
     0
290
     1
176
     0
290
     1
176
     0
290
     0
176
     0
290
     0
176
     0
290
     0
176
     0
290
     0
176
     0
290
     0
176
     0
290
     0
176
     0
 90
       50
176
     0
 40
0.0
176
     0
 40
1.0
176
     0
 90
        0
176
     0
 62
    18
420
        0
176
     0
 90
       50
176
     0
 90
        3
176
     0
 62
     5
420
      255
176
     0
290
     0
176
     0
 90
       50
176
     0
 90
       50
176
     0
 90
       50
176
     0
290
     0
176
     0
 90
       50
176
     0
 62
   256
176
     0
 40
1.0
176
     0
 90
        2
176
     0
  1
strokes_ogs.tif
176
     0
290
     0
176
     0
 40
1.0
176
     0
 40
1.0
176
     0
  0
VISUALSTYLE
  5
A10
102
{ACAD_REACTORS
330
A02
102
}
330
A02
100
AcDbVisualStyle
  2
Linepattern
 70
    14
177
     3
291
     1
 70
    58
 90
        2
176
     1
 90
        2
176
     1
 90
        0
176
     1
 90
        0
176
     1
 40
0.6
176
     1
 40
30.0
176
     1
 62
     7
420
 16777215
176
     1
 90
        1
176
     1
 90
        4
176
     1
 62
     7
176
     1
 62
   257
176
     1
 90
        7
176
     1
 90
        7
176
     1
 40
1.0
176
     1
 90
        8
176
     1
 62
     7
176
     1
 40
1.0
176
     1
 90
        1
176
     1
 90
        6
176
     1
 90
        2
176
     1
 62
     7
176
     1
 90
        5
176
     1
 90
        0
176
     1
 90
        0
176
     1
290
     0
176
     1
 90
        1
176
     1
 40
0.0
176
     1
 90
        0
176
     1
290
     0
176
     1
290
     1
176
     1
290
     1
176
     1
290
     0
176
     1
290
     0
176
     1
290
     0
176
     1
290
     0
176
     1
290
     0
176
     1
290
     0
176
     1
 90
       50
176
     1
 40
0.0
176
     1
 40
1.0
176
     1
 90
        0
176
     1
 62
    18
420
        0
176
     1
 90
       50
176
     1
 90
        3
176
     1
 62
     5
420
      255
176
     1
290
     0
176
     1
 90
       50
176
     1
 90
       50
176
     1
 90
       50
176
     1
290
     0
176
     1
 90
       50
176
     1
 62
   256
176
     0
 40
1.0
176
     0
 90
        2
176
     1
  1
strokes_ogs.tif
176
     1
290
     0
176
     1
 40
1.0
176
     1
 40
1.0
176
     1
  0
VISUALSTYLE
  5
A14
102
{ACAD_REACTORS
330
A02
102
}
330
A02
100
AcDbVisualStyle
  2
OverhangOff
 70
    21
177
     3
291
     1
 70
    58
 90
        2
176
     0
 90
        2
176
     0
 90
        0
176
     0
 90
        0
176
     0
 40
0.6
176
     0
 40
30.0
176
     0
 62
     7
420
 16777215
176
     0
 90
        1
176
     0
 90
        4
176
     0
 62
     7
176
     0
 62
   257
176
     0
 90
        1
176
     0
 90
        1
176
     0
 40
1.0
176
     0
 90
        9
176
     2
 62
     7
176
     0
 40
1.0
176
     0
 90
        1
176
     0
 90
        6
176
     0
 90
        2
176
     0
 62
     7
176
     0
 90
        5
176
     0
 90
        0
176
     0
 90
        0
176
     0
290
     0
176
     0
 90
        1
176
     0
 40
0.0
176
     0
 90
        0
176
     0
290
     0
176
     0
290
     1
176
     0
290
     1
176
     0
290
     0
176
     0
290
     0
176
     0
290
     0
176
     0
290
     0
176
     0
290
     0
176
     0
290
     0
176
     0
 90
       50
176
     0
 40
0.0
176
     0
 40
1.0
176
     0
 90
        0
176
     0
 62
    18
420
        0
176
     0
 90
       50
176
     0
 90
        3
176
     0
 62
     5
420
      255
176
     0
290
     0
176
     0
 90
       50
176
     0
 90
       50
176
     0
 90
       50
176
     0
290
     0
176
     0
 90
       50
176
     0
 62
   256
176
     0
 40
1.0
176
     0
 90
        2
176
     0
  1
strokes_ogs.tif
176
     0
290
     0
176
     0
 40
1.0
176
     0
 40
1.0
176
     0
  0
VISUALSTYLE
  5
A0B
102
{ACAD_REACTORS
330
A02
102
}
330
A02
100
AcDbVisualStyle
  2
Realistic
 70
     8
177
     3
291
     0
 70
    58
 90
        2
176
     1
 90
        3
176
     1
 90
        0
176
     1
 90
        2
176
     1
 40
0.6
176
     1
 40
30.0
176
     1
 62
     7
420
 16777215
176
     1
 90
        0
176
     1
 90
        0
176
     1
 62
     7
176
     1
 62
   257
176
     1
 90
        1
176
     1
 90
        1
176
     1
 40
1.0
176
     1
 90
        8
176
     1
 62
   257
176
     1
 40
1.0
176
     1
 90
        1
176
     1
 90
        6
176
     1
 90
        2
176
     1
 62
     7
176
     1
 90
        3
176
     1
 90
        0
176
     1
 90
        0
176
     1
290
     0
176
     1
 90
       13
176
     1
 40
0.0
176
     1
 90
        0
176
     1
290
     0
176
     1
290
     1
176
     1
290
     1
176
     1
290
     0
176
     1
290
     0
176
     1
290
     0
176
     1
290
     0
176
     1
290
     0
176
     1
290
     0
176
     1
 90
       50
176
     1
 40
0.0
176
     1
 40
1.0
176
     1
 90
        0
176
     1
 62
    18
420
        0
176
     1
 90
       50
176
     1
 90
        3
176
     1
 62
     5
420
      255
176
     1
290
     0
176
     1
 90
       50
176
     1
 90
       50
176
     1
 90
       50
176
     1
290
     0
176
     1
 90
       50
176
     1
 62
   256
176
     0
 40
1.0
176
     0
 90
        2
176
     1
  1
strokes_ogs.tif
176
     1
290
     0
176
     1
 40
1.0
176
     1
 40
1.0
176
     1
  0
VISUALSTYLE
  5
A1A
102
{ACAD_REACTORS
330
A02
102
}
330
A02
100
AcDbVisualStyle
  2
Shaded
 70
    27
177
     3
291
     0
 70
    58
 90
        2
176
     1
 90
        2
176
     1
 90
        1
176
     1
 90
        2
176
     1
 40
0.6
176
     1
 40
30.0
176
     1
 62
     7
420
 16777215
176
     1
 90
        0
176
     1
 90
        4
176
     1
 62
     7
176
     1
 62
   257
176
     1
 90
        1
176
     1
 90
        1
176
     1
 40
1.0
176
     1
 90
        8
176
     1
 62
   257
176
     1
 40
1.0
176
     1
 90
        1
176
     1
 90
        6
176
     1
 90
        2
176
     1
 62
     8
420
  7895160
176
     1
 90
        3
176
     1
 90
        0
176
     1
 90
        0
176
     1
290
     0
176
     1
 90
        5
176
     1
 40
0.0
176
     1
 90
        0
176
     1
290
     0
176
     1
290
     1
176
     1
290
     1
176
     1
290
     0
176
     1
290
     0
176
     1
290
     0
176
     1
290
     0
176
     1
290
     0
176
     1
290
     0
176
     1
 90
       50
176
     1
 40
0.0
176
     1
 40
1.0
176
     1
 90
        0
176
     1
 62
    18
420
        0
176
     1
 90
       50
176
     1
 90
        3
176
     1
 62
     5
420
      255
176
     1
290
     0
176
     1
 90
       50
176
     1
 90
       50
176
     1
 90
       50
176
     1
290
     0
176
     1
 90
       50
176
     1
 62
   256
176
     0
 40
1.0
176
     0
 90
        2
176
     1
  1
strokes_ogs.tif
176
     1
290
     0
176
     1
 40
1.0
176
     1
 40
1.0
176
     1
  0
VISUALSTYLE
  5
A19
102
{ACAD_REACTORS
330
A02
102
}
330
A02
100
AcDbVisualStyle
  2
Shaded with edges
 70
    26
177
     3
291
     0
 70
    58
 90
        2
176
     1
 90
        2
176
     1
 90
        1
176
     1
 90
        2
176
     1
 40
0.6
176
     1
 40
30.0
176
     1
 62
     7
420
 16777215
176
     1
 90
        1
176
     1
 90
       10
176
     1
 62
     7
176
     1
 62
   257
176
     1
 90
        2
176
     1
 90
        1
176
     1
 40
1.0
176
     1
 90
        8
176
     1
 62
   257
176
     1
 40
1.0
176
     1
 90
        1
176
     1
 90
        6
176
     1
 90
        2
176
     1
 62
     7
176
     1
 90
        3
176
     1
 90
        0
176
     1
 90
        0
176
     1
290
     0
176
     1
 90
        5
176
     1
 40
0.0
176
     1
 90
        0
176
     1
290
     0
176
     1
290
     1
176
     1
290
     1
176
     1
290
     0
176
     1
290
     0
176
     1
290
     0
176
     1
290
     0
176
     1
290
     0
176
     1
290
     0
176
     1
 90
       50
176
     1
 40
0.0
176
     1
 40
1.0
176
     1
 90
        0
176
     1
 62
    18
420
        0
176
     1
 90
       50
176
     1
 90
        3
176
     1
 62
     5
420
      255
176
     1
290
     0
176
     1
 90
       50
176
     1
 90
       50
176
     1
 90
       50
176
     1
290
     0
176
     1
 90
       50
176
     1
 62
   256
176
     0
 40
1.0
176
     0
 90
        2
176
     1
  1
strokes_ogs.tif
176
     1
290
     0
176
     1
 40
1.0
176
     1
 40
1.0
176
     1
  0
VISUALSTYLE
  5
A16
102
{ACAD_REACTORS
330
A02
102
}
330
A02
100
AcDbVisualStyle
  2
Shades of Gray
 70
    23
177
     3
291
     0
 70
    58
 90
        2
176
     1
 90
        2
176
     1
 90
        3
176
     1
 90
        0
176
     1
 40
0.6
176
     1
 40
30.0
176
     1
 62
     7
420
 16777215
176
     1
 90
        2
176
     1
 90
        2
176
     1
 62
     7
176
     1
 62
     7
176
     1
 90
        1
176
     1
 90
        1
176
     1
 40
40.0
176
     1
 90
        8
176
     1
 62
     7
176
     1
 40
1.0
176
     1
 90
        1
176
     1
 90
        6
176
     1
 90
        2
176
     1
 62
     7
176
     1
 90
        3
176
     1
 90
        0
176
     1
 90
        0
176
     1
290
     0
176
     1
 90
        1
176
     1
 40
0.0
176
     1
 90
        0
176
     1
290
     0
176
     1
290
     1
176
     1
290
     1
176
     1
290
     0
176
     1
290
     0
176
     1
290
     0
176
     1
290
     0
176
     1
290
     0
176
     1
290
     0
176
     1
 90
       50
176
     1
 40
0.0
176
     1
 40
1.0
176
     1
 90
        0
176
     1
 62
    18
420
        0
176
     1
 90
       50
176
     1
 90
        3
176
     1
 62
     5
420
      255
176
     1
290
     0
176
     1
 90
       50
176
     1
 90
       50
176
     1
 90
       50
176
     1
290
     0
176
     1
 90
       50
176
     1
 62
   256
176
     0
 40
1.0
176
     0
 90
        2
176
     1
  1
strokes_ogs.tif
176
     1
290
     0
176
     1
 40
1.0
176
     1
 40
1.0
176
     1
  0
VISUALSTYLE
  5
A17
102
{ACAD_REACTORS
330
A02
102
}
330
A02
100
AcDbVisualStyle
  2
Sketchy
 70
    24
177
     3
291
     0
 70
    58
 90
        1
176
     1
 90
        2
176
     1
 90
        2
176
     1
 90
        0
176
     1
 40
0.6
176
     1
 40
30.0
176
     1
 62
     7
420
 16777215
176
     1
 90
        2
176
     1
 90
        2
176
     1
 62
     7
176
     1
 62
     7
176
     1
 90
        1
176
     1
 90
        1
176
     1
 40
40.0
176
     1
 90
       11
176
     1
 62
     7
176
     1
 40
1.0
176
     1
 90
        1
176
     1
 90
        6
176
     1
 90
        2
176
     1
 62
     7
176
     1
 90
        6
176
     1
 90
        0
176
     1
 90
        0
176
     1
290
     0
176
     1
 90
        1
176
     1
 40
0.0
176
     1
 90
        0
176
     1
290
     0
176
     1
290
     1
176
     1
290
     1
176
     1
290
     0
176
     1
290
     0
176
     1
290
     0
176
     1
290
     0
176
     1
290
     0
176
     1
290
     0
176
     1
 90
       50
176
     1
 40
0.0
176
     1
 40
1.0
176
     1
 90
        0
176
     1
 62
    18
420
        0
176
     1
 90
       50
176
     1
 90
        3
176
     1
 62
     5
420
      255
176
     1
290
     0
176
     1
 90
       50
176
     1
 90
       50
176
     1
 90
       50
176
     1
290
     0
176
     1
 90
       50
176
     1
 62
   256
176
     0
 40
1.0
176
     0
 90
        2
176
     1
  1
strokes_ogs.tif
176
     1
290
     0
176
     1
 40
1.0
176
     1
 40
1.0
176
     1
  0
VISUALSTYLE
  5
A0F
102
{ACAD_REACTORS
330
A02
102
}
330
A02
100
AcDbVisualStyle
  2
Thicken
 70
    13
177
     3
291
     1
 70
    58
 90
        2
176
     1
 90
        2
176
     1
 90
        0
176
     1
 90
        0
176
     1
 40
0.6
176
     1
 40
30.0
176
     1
 62
     7
420
 16777215
176
     1
 90
        1
176
     1
 90
        4
176
     1
 62
     7
176
     1
 62
   257
176
     1
 90
        1
176
     1
 90
        1
176
     1
 40
1.0
176
     1
 90
       12
176
     1
 62
     7
176
     1
 40
1.0
176
     1
 90
        1
176
     1
 90
        6
176
     1
 90
        2
176
     1
 62
     7
176
     1
 90
        5
176
     1
 90
        0
176
     1
 90
        0
176
     1
290
     0
176
     1
 90
        1
176
     1
 40
0.0
176
     1
 90
        0
176
     1
290
     0
176
     1
290
     1
176
     1
290
     1
176
     1
290
     0
176
     1
290
     0
176
     1
290
     0
176
     1
290
     0
176
     1
290
     0
176
     1
290
     0
176
     1
 90
       50
176
     1
 40
0.0
176
     1
 40
1.0
176
     1
 90
        0
176
     1
 62
    18
420
        0
176
     1
 90
       50
176
     1
 90
        3
176
     1
 62
     5
420
      255
176
     1
290
     0
176
     1
 90
       50
176
     1
 90
       50
176
     1
 90
       50
176
     1
290
     0
176
     1
 90
       50
176
     1
 62
   256
176
     0
 40
1.0
176
     0
 90
        2
176
     1
  1
strokes_ogs.tif
176
     1
290
     0
176
     1
 40
1.0
176
     1
 40
1.0
176
     1
  0
VISUALSTYLE
  5
A08
102
{ACAD_REACTORS
330
A02
102
}
330
A02
100
AcDbVisualStyle
  2
Wireframe
 70
     5
177
     3
291
     0
 70
    58
 90
        0
176
     1
 90
        2
176
     1
 90
        0
176
     1
 90
        0
176
     1
 40
0.6
176
     1
 40
30.0
176
     1
 62
     7
420
 16777215
176
     1
 90
        1
176
     1
 90
        4
176
     1
 62
     7
176
     1
 62
   257
176
     1
 90
        1
176
     1
 90
        1
176
     1
 40
1.0
176
     1
 90
        0
176
     1
 62
   257
176
     1
 40
1.0
176
     1
 90
        1
176
     1
 90
        6
176
     1
 90
        2
176
     1
 62
     7
176
     1
 90
        3
176
     1
 90
        0
176
     1
 90
        0
176
     1
290
     0
176
     1
 90
        1
176
     1
 40
0.0
176
     1
 90
        0
176
     1
290
     0
176
     1
290
     1
176
     1
290
     1
176
     1
290
     0
176
     1
290
     0
176
     1
290
     0
176
     1
290
     0
176
     1
290
     0
176
     1
290
     0
176
     1
 90
       50
176
     1
 40
0.0
176
     1
 40
1.0
176
     1
 90
        0
176
     1
 62
    18
420
        0
176
     1
 90
       50
176
     1
 90
        3
176
     1
 62
     5
420
      255
176
     1
290
     0
176
     1
 90
       50
176
     1
 90
       50
176
     1
 90
       50
176
     1
290
     0
176
     1
 90
       50
176
     1
 62
   256
176
     0
 40
1.0
176
     0
 90
        2
176
     1
  1
strokes_ogs.tif
176
     1
290
     0
176
     1
 40
1.0
176
     1
 40
1.0
176
     1
  0
VISUALSTYLE
  5
A18
102
{ACAD_REACTORS
330
A02
102
}
330
A02
100
AcDbVisualStyle
  2
X-Ray
 70
    25
177
     3
291
     0
 70
    58
 90
        2
176
     1
 90
        2
176
     1
 90
        1
176
     1
 90
        1
176
     1
 40
0.5
176
     1
 40
30.0
176
     1
 62
     7
420
 16777215
176
     1
 90
        1
176
     1
 90
        0
176
     1
 62
     7
176
     1
 62
   257
176
     1
 90
        1
176
     1
 90
        1
176
     1
 40
1.0
176
     1
 90
        8
176
     1
 62
     7
176
     1
 40
1.0
176
     1
 90
        1
176
     1
 90
        6
176
     1
 90
        2
176
     1
 62
     7
176
     1
 90
        3
176
     1
 90
        0
176
     1
 90
        0
176
     1
290
     0
176
     1
 90
       13
176
     1
 40
0.0
176
     1
 90
        0
176
     1
290
     0
176
     1
290
     1
176
     1
290
     1
176
     1
290
     0
176
     1
290
     0
176
     1
290
     0
176
     1
290
     0
176
     1
290
     0
176
     1
290
     0
176
     1
 90
       50
176
     1
 40
0.0
176
     1
 40
1.0
176
     1
 90
        0
176
     1
 62
    18
420
        0
176
     1
 90
       50
176
     1
 90
        3
176
     1
 62
     5
420
      255
176
     1
290
     0
176
     1
 90
       50
176
     1
 90
       50
176
     1
 90
       50
176
     1
290
     0
176
     1
 90
       50
176
     1
 62
   256
176
     0
 40
1.0
176
     0
 90
        2
176
     1
  1
strokes_ogs.tif
176
     1
290
     0
176
     1
 40
1.0
176
     1
 40
1.0
176
     1
  0
DICTIONARYVAR
  5
A39
102
{ACAD_REACTORS
330
A24
102
}
330
A24
100
DictionaryVariables
280
     0
  1
1:1
  0
DICTIONARYVAR
  5
A26
102
{ACAD_REACTORS
330
A24
102
}
330
A24
100
DictionaryVariables
280
     0
  1
Standard
  0
DICTIONARYVAR
  5
A25
102
{ACAD_REACTORS
330
A24
102
}
330
A24
100
DictionaryVariables
280
     0
  1
Standard
  0
DICTIONARYVAR
  5
A27
102
{ACAD_REACTORS
330
A24
102
}
330
A24
100
DictionaryVariables
280
     0
  1
0
  0
DICTIONARY
  5
A43
330
A20
100
AcDbDictionary
280
     1
281
     1
  3
ACAD_ROUNDTRIP_2008_TABLESTYLE_CELLSTYLEMAP
360
A44
  0
CELLSTYLEMAP
  5
A44
102
{ACAD_REACTORS
330
A43
102
}
330
A43
100
AcDbCellStyleMap
 90
        3
300
CELLSTYLE
  1
TABLEFORMAT_BEGIN
 90
        5
170
     1
 91
        0
 92
    32768
 62
   257
 93
        1
300
CONTENTFORMAT
  1
CONTENTFORMAT_BEGIN
 90
        0
 91
        0
 92
        4
 93
        0
300

 40
0.0
140
1.0
 94
        5
 62
     0
340
F
144
6.0
309
CONTENTFORMAT_END
171
     1
301
MARGIN
  1
CELLMARGIN_BEGIN
 40
1.5
 40
1.5
 40
1.5
 40
1.5
 40
1.5
 40
1.5
309
CELLMARGIN_END
 94
        6
 95
        1
302
GRIDFORMAT
  1
GRIDFORMAT_BEGIN
 90
        0
 91
        1
 62
     0
 92
       -2
340
12
 93
        0
 40
0.045
309
GRIDFORMAT_END
 95
        2
302
GRIDFORMAT
  1
GRIDFORMAT_BEGIN
 90
        0
 91
        1
 62
     0
 92
       -2
340
12
 93
        0
 40
0.045
309
GRIDFORMAT_END
 95
        4
302
GRIDFORMAT
  1
GRIDFORMAT_BEGIN
 90
        0
 91
        1
 62
     0
 92
       -2
340
12
 93
        0
 40
0.045
309
GRIDFORMAT_END
 95
        8
302
GRIDFORMAT
  1
GRIDFORMAT_BEGIN
 90
        0
 91
        1
 62
     0
 92
       -2
340
12
 93
        0
 40
0.045
309
GRIDFORMAT_END
 95
       16
302
GRIDFORMAT
  1
GRIDFORMAT_BEGIN
 90
        0
 91
        1
 62
     0
 92
       -2
340
12
 93
        0
 40
0.045
309
GRIDFORMAT_END
 95
       32
302
GRIDFORMAT
  1
GRIDFORMAT_BEGIN
 90
        0
 91
        1
 62
     0
 92
       -2
340
12
 93
        0
 40
0.045
309
GRIDFORMAT_END
309
TABLEFORMAT_END
  1
CELLSTYLE_BEGIN
 90
        1
 91
        1
300
_TITLE
309
CELLSTYLE_END
300
CELLSTYLE
  1
TABLEFORMAT_BEGIN
 90
        5
170
     1
 91
        0
 92
        0
 62
   257
 93
        1
300
CONTENTFORMAT
  1
CONTENTFORMAT_BEGIN
 90
        0
 91
        0
 92
        4
 93
        0
300

 40
0.0
140
1.0
 94
        5
 62
     0
340
F
144
4.5
309
CONTENTFORMAT_END
171
     1
301
MARGIN
  1
CELLMARGIN_BEGIN
 40
1.5
 40
1.5
 40
1.5
 40
1.5
 40
1.5
 40
1.5
309
CELLMARGIN_END
 94
        6
 95
        1
302
GRIDFORMAT
  1
GRIDFORMAT_BEGIN
 90
        0
 91
        1
 62
     0
 92
       -2
340
12
 93
        0
 40
0.045
309
GRIDFORMAT_END
 95
        2
302
GRIDFORMAT
  1
GRIDFORMAT_BEGIN
 90
        0
 91
        1
 62
     0
 92
       -2
340
12
 93
        0
 40
0.045
309
GRIDFORMAT_END
 95
        4
302
GRIDFORMAT
  1
GRIDFORMAT_BEGIN
 90
        0
 91
        1
 62
     0
 92
       -2
340
12
 93
        0
 40
0.045
309
GRIDFORMAT_END
 95
        8
302
GRIDFORMAT
  1
GRIDFORMAT_BEGIN
 90
        0
 91
        1
 62
     0
 92
       -2
340
12
 93
        0
 40
0.045
309
GRIDFORMAT_END
 95
       16
302
GRIDFORMAT
  1
GRIDFORMAT_BEGIN
 90
        0
 91
        1
 62
     0
 92
       -2
340
12
 93
        0
 40
0.045
309
GRIDFORMAT_END
 95
       32
302
GRIDFORMAT
  1
GRIDFORMAT_BEGIN
 90
        0
 91
        1
 62
     0
 92
       -2
340
12
 93
        0
 40
0.045
309
GRIDFORMAT_END
309
TABLEFORMAT_END
  1
CELLSTYLE_BEGIN
 90
        2
 91
        1
300
_HEADER
309
CELLSTYLE_END
300
CELLSTYLE
  1
TABLEFORMAT_BEGIN
 90
        5
170
     1
 91
        0
 92
        0
 62
   257
 93
        1
300
CONTENTFORMAT
  1
CONTENTFORMAT_BEGIN
 90
        0
 91
        0
 92
        4
 93
        0
300

 40
0.0
140
1.0
 94
        2
 62
     0
340
F
144
4.5
309
CONTENTFORMAT_END
171
     1
301
MARGIN
  1
CELLMARGIN_BEGIN
 40
1.5
 40
1.5
 40
1.5
 40
1.5
 40
1.5
 40
1.5
309
CELLMARGIN_END
 94
        6
 95
        1
302
GRIDFORMAT
  1
GRIDFORMAT_BEGIN
 90
        0
 91
        1
 62
     0
 92
       -2
340
12
 93
        0
 40
0.045
309
GRIDFORMAT_END
 95
        2
302
GRIDFORMAT
  1
GRIDFORMAT_BEGIN
 90
        0
 91
        1
 62
     0
 92
       -2
340
12
 93
        0
 40
0.045
309
GRIDFORMAT_END
 95
        4
302
GRIDFORMAT
  1
GRIDFORMAT_BEGIN
 90
        0
 91
        1
 62
     0
 92
       -2
340
12
 93
        0
 40
0.045
309
GRIDFORMAT_END
 95
        8
302
GRIDFORMAT
  1
GRIDFORMAT_BEGIN
 90
        0
 91
        1
 62
     0
 92
       -2
340
12
 93
        0
 40
0.045
309
GRIDFORMAT_END
 95
       16
302
GRIDFORMAT
  1
GRIDFORMAT_BEGIN
 90
        0
 91
        1
 62
     0
 92
       -2
340
12
 93
        0
 40
0.045
309
GRIDFORMAT_END
 95
       32
302
GRIDFORMAT
  1
GRIDFORMAT_BEGIN
 90
        0
 91
        1
 62
     0
 92
       -2
340
12
 93
        0
 40
0.045
309
GRIDFORMAT_END
309
TABLEFORMAT_END
  1
CELLSTYLE_BEGIN
 90
        3
 91
        2
300
_DATA
309
CELLSTYLE_END
  0
ENDSEC
  0
EOF
