  0
SECTION
  2
HEADER
  9
$ACADVER
  1
AC1027
  9
$ACADMAINTVER
 70
     8
  9
$DWGCODEPAGE
  3
ANSI_932
  9
$REQUIREDVERSIONS
160
                 0
  9
$LASTSAVEDBY
  1
thuthumi
  9
$INSBASE
 10
0.0
 20
0.0
 30
0.0
  9
$EXTMIN
 10
-252.6017661338292
 20
-55.12078437008017
 30
0.0
  9
$EXTMAX
 10
2171.145873937813
 20
1485.580107753351
 30
0.0
  9
$LIMMIN
 10
0.0
 20
0.0
  9
$LIMMAX
 10
420.0
 20
297.0
  9
$ORTHOMODE
 70
     0
  9
$REGENMODE
 70
     1
  9
$FILLMODE
 70
     1
  9
$QTEXTMODE
 70
     0
  9
$MIRRTEXT
 70
     1
  9
$LTSCALE
 40
1.0
  9
$ATTMODE
 70
     1
  9
$TEXTSIZE
 40
25.0
  9
$TRACEWID
 40
1.0
  9
$TEXTSTYLE
  7
STANDARD
  9
$CLAYER
  8
注釈文字
  9
$CELTYPE
  6
BYLAYER
  9
$CECOLOR
 62
   256
  9
$CELTSCALE
 40
1.0
  9
$DISPSILH
 70
     0
  9
$DIMSCALE
 40
0.0
  9
$DIMASZ
 40
23.0
  9
$DIMEXO
 40
0.625
  9
$DIMDLI
 40
6.0
  9
$DIMRND
 40
0.0
  9
$DIMDLE
 40
0.0
  9
$DIMEXE
 40
1.25
  9
$DIMTP
 40
0.0
  9
$DIMTM
 40
0.0
  9
$DIMTXT
 40
5.0
  9
$DIMCEN
 40
1.5
  9
$DIMTSZ
 40
0.0
  9
$DIMTOL
 70
     0
  9
$DIMLIM
 70
     0
  9
$DIMTIH
 70
     0
  9
$DIMTOH
 70
     0
  9
$DIMSE1
 70
     0
  9
$DIMSE2
 70
     0
  9
$DIMTAD
 70
     3
  9
$DIMZIN
 70
     8
  9
$DIMBLK
  1

  9
$DIMASO
 70
     1
  9
$DIMSHO
 70
     1
  9
$DIMPOST
  1

  9
$DIMAPOST
  1

  9
$DIMALT
 70
     0
  9
$DIMALTD
 70
     4
  9
$DIMALTF
 40
0.0394
  9
$DIMLFAC
 40
1.0
  9
$DIMTOFL
 70
     1
  9
$DIMTVP
 40
0.0
  9
$DIMTIX
 70
     0
  9
$DIMSOXD
 70
     0
  9
$DIMSAH
 70
     1
  9
$DIMBLK1
  1
OPEN
  9
$DIMBLK2
  1
OPEN
  9
$DIMSTYLE
  2
STANDARD
  9
$DIMCLRD
 70
     0
  9
$DIMCLRE
 70
     0
  9
$DIMCLRT
 70
     0
  9
$DIMTFAC
 40
1.0
  9
$DIMGAP
 40
1.0
  9
$DIMJUST
 70
     0
  9
$DIMSD1
 70
     0
  9
$DIMSD2
 70
     0
  9
$DIMTOLJ
 70
     1
  9
$DIMTZIN
 70
     8
  9
$DIMALTZ
 70
     0
  9
$DIMALTTZ
 70
     0
  9
$DIMUPT
 70
     0
  9
$DIMDEC
 70
     2
  9
$DIMTDEC
 70
     2
  9
$DIMALTU
 70
     8
  9
$DIMALTTD
 70
     4
  9
$DIMTXSTY
  7
STANDARD
  9
$DIMAUNIT
 70
     0
  9
$DIMADEC
 70
     0
  9
$DIMALTRND
 40
0.0
  9
$DIMAZIN
 70
     0
  9
$DIMDSEP
 70
    46
  9
$DIMATFIT
 70
     3
  9
$DIMFRAC
 70
     0
  9
$DIMLDRBLK
  1
OPEN
  9
$DIMLUNIT
 70
     6
  9
$DIMLWD
 70
    -2
  9
$DIMLWE
 70
    -2
  9
$DIMTMOVE
 70
     0
  9
$DIMFXL
 40
1.0
  9
$DIMFXLON
 70
     0
  9
$DIMJOGANG
 40
0.7853981633974483
  9
$DIMTFILL
 70
     0
  9
$DIMTFILLCLR
 70
     0
  9
$DIMARCSYM
 70
     0
  9
$DIMLTYPE
  6

  9
$DIMLTEX1
  6

  9
$DIMLTEX2
  6

  9
$DIMTXTDIRECTION
 70
     0
  9
$LUNITS
 70
     2
  9
$LUPREC
 70
     3
  9
$SKETCHINC
 40
1.0
  9
$FILLETRAD
 40
10.0
  9
$AUNITS
 70
     0
  9
$AUPREC
 70
     3
  9
$MENU
  1
acad
  9
$ELEVATION
 40
0.0
  9
$PELEVATION
 40
0.0
  9
$THICKNESS
 40
0.0
  9
$LIMCHECK
 70
     0
  9
$CHAMFERA
 40
10.0
  9
$CHAMFERB
 40
10.0
  9
$CHAMFERC
 40
20.0
  9
$CHAMFERD
 40
0.0
  9
$SKPOLY
 70
     0
  9
$TDCREATE
 40
2450926.747469792
  9
$TDUCREATE
 40
2450926.372469792
  9
$TDUPDATE
 40
2457472.743907674
  9
$TDUUPDATE
 40
2457472.368907674
  9
$TDINDWG
 40
0.2222041204
  9
$TDUSRTIMER
 40
2457472.366499028
  9
$USRTIMER
 70
     1
  9
$ANGBASE
 50
0.0
  9
$ANGDIR
 70
     0
  9
$PDMODE
 70
     0
  9
$PDSIZE
 40
0.0
  9
$PLINEWID
 40
0.0
  9
$SPLFRAME
 70
     0
  9
$SPLINETYPE
 70
     6
  9
$SPLINESEGS
 70
     8
  9
$HANDSEED
  5
9B6
  9
$SURFTAB1
 70
     6
  9
$SURFTAB2
 70
     6
  9
$SURFTYPE
 70
     6
  9
$SURFU
 70
     6
  9
$SURFV
 70
     6
  9
$UCSBASE
  2

  9
$UCSNAME
  2

  9
$UCSORG
 10
0.0
 20
0.0
 30
0.0
  9
$UCSXDIR
 10
1.0
 20
0.0
 30
0.0
  9
$UCSYDIR
 10
0.0
 20
1.0
 30
0.0
  9
$UCSORTHOREF
  2

  9
$UCSORTHOVIEW
 70
     0
  9
$UCSORGTOP
 10
0.0
 20
0.0
 30
0.0
  9
$UCSORGBOTTOM
 10
0.0
 20
0.0
 30
0.0
  9
$UCSORGLEFT
 10
0.0
 20
0.0
 30
0.0
  9
$UCSORGRIGHT
 10
0.0
 20
0.0
 30
0.0
  9
$UCSORGFRONT
 10
0.0
 20
0.0
 30
0.0
  9
$UCSORGBACK
 10
0.0
 20
0.0
 30
0.0
  9
$PUCSBASE
  2

  9
$PUCSNAME
  2

  9
$PUCSORG
 10
0.0
 20
0.0
 30
0.0
  9
$PUCSXDIR
 10
1.0
 20
0.0
 30
0.0
  9
$PUCSYDIR
 10
0.0
 20
1.0
 30
0.0
  9
$PUCSORTHOREF
  2

  9
$PUCSORTHOVIEW
 70
     0
  9
$PUCSORGTOP
 10
0.0
 20
0.0
 30
0.0
  9
$PUCSORGBOTTOM
 10
0.0
 20
0.0
 30
0.0
  9
$PUCSORGLEFT
 10
0.0
 20
0.0
 30
0.0
  9
$PUCSORGRIGHT
 10
0.0
 20
0.0
 30
0.0
  9
$PUCSORGFRONT
 10
0.0
 20
0.0
 30
0.0
  9
$PUCSORGBACK
 10
0.0
 20
0.0
 30
0.0
  9
$USERI1
 70
     0
  9
$USERI2
 70
     0
  9
$USERI3
 70
     0
  9
$USERI4
 70
     0
  9
$USERI5
 70
     0
  9
$USERR1
 40
0.0
  9
$USERR2
 40
0.0
  9
$USERR3
 40
0.0
  9
$USERR4
 40
0.0
  9
$USERR5
 40
0.0
  9
$WORLDVIEW
 70
     1
  9
$SHADEDGE
 70
     3
  9
$SHADEDIF
 70
    70
  9
$TILEMODE
 70
     1
  9
$MAXACTVP
 70
    48
  9
$PINSBASE
 10
0.0
 20
0.0
 30
0.0
  9
$PLIMCHECK
 70
     0
  9
$PEXTMIN
 10
-3.70375537697555
 20
-3.762259053029311
 30
0.0
  9
$PEXTMAX
 10
1151.052339316307
 20
800.946398931261
 30
0.0
  9
$PLIMMIN
 10
-20.30413367701238
 20
-21.40047945637109
  9
$PLIMMAX
 10
1167.695866322988
 20
818.599520543629
  9
$UNITMODE
 70
     0
  9
$VISRETAIN
 70
     1
  9
$PLINEGEN
 70
     0
  9
$PSLTSCALE
 70
     1
  9
$TREEDEPTH
 70
  3020
  9
$CMLSTYLE
  2
STANDARD
  9
$CMLJUST
 70
     0
  9
$CMLSCALE
 40
20.0
  9
$PROXYGRAPHICS
 70
     1
  9
$MEASUREMENT
 70
     1
  9
$CELWEIGHT
370
    -1
  9
$ENDCAPS
280
     0
  9
$JOINSTYLE
280
     0
  9
$LWDISPLAY
290
     0
  9
$INSUNITS
 70
     0
  9
$HYPERLINKBASE
  1

  9
$STYLESHEET
  1
monochrome.ctb
  9
$XEDIT
290
     1
  9
$CEPSNTYPE
380
     0
  9
$PSTYLEMODE
290
     1
  9
$FINGERPRINTGUID
  2
{4DF8BC20-888D-11D4-97DC-AFDF1B97A630}
  9
$VERSIONGUID
  2
{7E49F4E6-F7DB-4D61-927F-918A2FABF0CA}
  9
$EXTNAMES
290
     1
  9
$PSVPSCALE
 40
0.0
  9
$OLESTARTUP
290
     0
  9
$SORTENTS
280
   127
  9
$INDEXCTL
280
     0
  9
$HIDETEXT
280
     1
  9
$XCLIPFRAME
280
     2
  9
$HALOGAP
280
     0
  9
$OBSCOLOR
 70
   257
  9
$OBSLTYPE
280
     0
  9
$INTERSECTIONDISPLAY
280
     0
  9
$INTERSECTIONCOLOR
 70
   257
  9
$DIMASSOC
280
     2
  9
$PROJECTNAME
  1

  9
$CAMERADISPLAY
290
     0
  9
$LENSLENGTH
 40
50.0
  9
$CAMERAHEIGHT
 40
0.0
  9
$STEPSPERSEC
 40
2.0
  9
$STEPSIZE
 40
6.0
  9
$3DDWFPREC
 40
2.0
  9
$PSOLWIDTH
 40
0.25
  9
$PSOLHEIGHT
 40
4.0
  9
$LOFTANG1
 40
1.570796326794897
  9
$LOFTANG2
 40
1.570796326794897
  9
$LOFTMAG1
 40
0.0
  9
$LOFTMAG2
 40
0.0
  9
$LOFTPARAM
 70
     7
  9
$LOFTNORMALS
280
     1
  9
$LATITUDE
 40
37.795
  9
$LONGITUDE
 40
-122.394
  9
$NORTHDIRECTION
 40
0.0
  9
$TIMEZONE
 70
 -8000
  9
$LIGHTGLYPHDISPLAY
280
     1
  9
$TILEMODELIGHTSYNCH
280
     1
  9
$SOLIDHIST
280
     0
  9
$SHOWHIST
280
     1
  9
$DWFFRAME
280
     2
  9
$DGNFRAME
280
     2
  9
$REALWORLDSCALE
290
     1
  9
$INTERFERECOLOR
 62
   256
  9
$CSHADOW
280
     0
  9
$SHADOWPLANELOCATION
 40
0.0
  0
ENDSEC
  0
SECTION
  2
CLASSES
  0
CLASS
  1
ACDBDICTIONARYWDFLT
  2
AcDbDictionaryWithDefault
  3
ObjectDBX Classes
 90
        0
 91
        4
280
     0
281
     0
  0
CLASS
  1
ACDBPLACEHOLDER
  2
AcDbPlaceHolder
  3
ObjectDBX Classes
 90
        0
 91
        1
280
     0
281
     0
  0
CLASS
  1
LAYOUT
  2
AcDbLayout
  3
ObjectDBX Classes
 90
        0
 91
        1
280
     0
281
     0
  0
CLASS
  1
VISUALSTYLE
  2
AcDbVisualStyle
  3
ObjectDBX Classes
 90
     4095
 91
        4
280
     0
281
     0
  0
CLASS
  1
SCALE
  2
AcDbScale
  3
ObjectDBX Classes
 90
     1153
 91
        4
280
     0
281
     0
  0
CLASS
  1
MATERIAL
  2
AcDbMaterial
  3
ObjectDBX Classes
 90
     1153
 91
        4
280
     0
281
     0
  0
CLASS
  1
TABLESTYLE
  2
AcDbTableStyle
  3
ObjectDBX Classes
 90
     4095
 91
        4
280
     0
281
     0
  0
CLASS
  1
MLEADERSTYLE
  2
AcDbMLeaderStyle
  3
ACDB_MLEADERSTYLE_CLASS
 90
     4095
 91
        4
280
     0
281
     0
  0
CLASS
  1
SUN
  2
AcDbSun
  3
SCENEOE
 90
     1153
 91
        4
280
     0
281
     0
  0
CLASS
  1
RASTERVARIABLES
  2
AcDbRasterVariables
  3
ISM
 90
        0
 91
        4
280
     0
281
     0
  0
CLASS
  1
DICTIONARYVAR
  2
AcDbDictionaryVar
  3
ObjectDBX Classes
 90
        0
 91
        4
280
     0
281
     0
  0
CLASS
  1
CELLSTYLEMAP
  2
AcDbCellStyleMap
  3
ObjectDBX Classes
 90
     1152
 91
        4
280
     0
281
     0
  0
ENDSEC
  0
SECTION
  2
TABLES
  0
TABLE
  2
VPORT
  5
8
330
0
100
AcDbSymbolTable
 70
     1
  0
VPORT
  5
948
330
8
100
AcDbSymbolTableRecord
100
AcDbViewportTableRecord
  2
*Active
 70
     0
 10
0.0
 20
0.0
 11
1.0
 21
1.0
 12
639.2170152003594
 22
678.7365681688051
 13
0.0
 23
0.0
 14
10.0
 24
10.0
 15
10.0
 25
10.0
 16
0.0
 26
0.0
 36
1.0
 17
0.0
 27
0.0
 37
0.0
 40
2421.154478515059
 41
1.843253968253968
 42
50.0
 43
0.0
 44
0.0
 50
0.0
 51
0.0
 71
    16
 72
   100
 73
     1
 74
     1
 75
     0
 76
     0
 77
     0
 78
     0
281
     0
 65
     1
110
0.0
120
0.0
130
0.0
111
1.0
121
0.0
131
0.0
112
0.0
122
1.0
132
0.0
 79
     0
146
0.0
348
94E
 60
     3
 61
     5
292
     1
282
     1
141
0.0
142
0.0
 63
   256
361
99A
  0
ENDTAB
  0
TABLE
  2
LTYPE
  5
5
330
0
100
AcDbSymbolTable
 70
     4
  0
LTYPE
  5
12
330
5
100
AcDbSymbolTableRecord
100
AcDbLinetypeTableRecord
  2
BYBLOCK
 70
     0
  3

 72
    65
 73
     0
 40
0.0
  0
LTYPE
  5
13
330
5
100
AcDbSymbolTableRecord
100
AcDbLinetypeTableRecord
  2
BYLAYER
 70
     0
  3

 72
    65
 73
     0
 40
0.0
  0
LTYPE
  5
14
330
5
100
AcDbSymbolTableRecord
100
AcDbLinetypeTableRecord
  2
CONTINUOUS
 70
     0
  3
Solid line
 72
    65
 73
     0
 40
0.0
  0
LTYPE
  5
22
330
5
100
AcDbSymbolTableRecord
100
AcDbLinetypeTableRecord
  2
PHANTOM
 70
     0
  3
Phantom ______  __  __  ______  __  __  ______
 72
    65
 73
     6
 40
63.5
 49
31.75
 74
     0
 49
-6.35
 74
     0
 49
6.35
 74
     0
 49
-6.35
 74
     0
 49
6.35
 74
     0
 49
-6.35
 74
     0
  0
LTYPE
  5
23
330
5
100
AcDbSymbolTableRecord
100
AcDbLinetypeTableRecord
  2
CENTER
 70
     0
  3
Center ____ _ ____ _ ____ _ ____ _ ____ _ ____
 72
    65
 73
     4
 40
50.8
 49
31.75
 74
     0
 49
-6.35
 74
     0
 49
6.35
 74
     0
 49
-6.35
 74
     0
  0
LTYPE
  5
24
330
5
100
AcDbSymbolTableRecord
100
AcDbLinetypeTableRecord
  2
HIDDEN
 70
     0
  3
Hidden __ __ __ __ __ __ __ __ __ __ __ __ __ _
 72
    65
 73
     2
 40
9.524999999999999
 49
6.35
 74
     0
 49
-3.175
 74
     0
  0
ENDTAB
  0
TABLE
  2
LAYER
  5
2
330
0
100
AcDbSymbolTable
 70
    12
  0
LAYER
  5
E
330
2
100
AcDbSymbolTableRecord
100
AcDbLayerTableRecord
  2
0
 70
     0
 62
    -7
  6
CONTINUOUS
370
    -3
390
B7
347
987
348
0
  0
LAYER
  5
25
330
2
100
AcDbSymbolTableRecord
100
AcDbLayerTableRecord
  2
中心線
 70
     0
 62
     1
  6
CENTER
370
    -3
390
B7
347
987
348
0
  0
LAYER
  5
26
330
2
100
AcDbSymbolTableRecord
100
AcDbLayerTableRecord
  2
寸法線
 70
     0
 62
     6
  6
CONTINUOUS
370
    -3
390
B7
347
987
348
0
  0
LAYER
  5
27
330
2
100
AcDbSymbolTableRecord
100
AcDbLayerTableRecord
  2
隠れ線
 70
     0
 62
     2
  6
HIDDEN
370
    -3
390
B7
347
987
348
0
  0
LAYER
  5
28
330
2
100
AcDbSymbolTableRecord
100
AcDbLayerTableRecord
  2
実体線
 70
     0
 62
     3
  6
CONTINUOUS
370
    -3
390
B7
347
987
348
0
  0
LAYER
  5
29
330
2
100
AcDbSymbolTableRecord
100
AcDbLayerTableRecord
  2
想像線
 70
     0
 62
     5
  6
PHANTOM
370
    -3
390
B7
347
987
348
0
  0
LAYER
  5
2A
330
2
100
AcDbSymbolTableRecord
100
AcDbLayerTableRecord
  2
注釈文字
 70
     0
 62
     4
  6
CONTINUOUS
370
    -3
390
B7
347
987
348
0
  0
LAYER
  5
2B
330
2
100
AcDbSymbolTableRecord
100
AcDbLayerTableRecord
  2
ビューポート
 70
     0
 62
     7
  6
CONTINUOUS
370
    -3
390
B7
347
987
348
0
  0
LAYER
  5
5C
330
2
100
AcDbSymbolTableRecord
100
AcDbLayerTableRecord
  2
A
 70
     0
 62
     4
  6
CONTINUOUS
370
    -3
390
B7
347
987
348
0
  0
LAYER
  5
1BE
330
2
100
AcDbSymbolTableRecord
100
AcDbLayerTableRecord
  2
Defpoints
 70
     0
 62
     7
  6
CONTINUOUS
290
     0
370
    -3
390
B7
347
987
348
0
  0
LAYER
  5
1BF
330
2
100
AcDbSymbolTableRecord
100
AcDbLayerTableRecord
  2
外形
 70
     0
 62
     2
  6
CONTINUOUS
370
    -3
390
B7
347
987
348
0
  0
LAYER
  5
1C0
330
2
100
AcDbSymbolTableRecord
100
AcDbLayerTableRecord
  2
外形寸法
 70
     0
 62
     6
  6
CONTINUOUS
370
    -3
390
B7
347
987
348
0
  0
ENDTAB
  0
TABLE
  2
STYLE
  5
3
330
0
100
AcDbSymbolTable
 70
     2
  0
STYLE
  5
F
330
3
100
AcDbSymbolTableRecord
100
AcDbTextStyleTableRecord
  2
STANDARD
 70
     0
 40
25.0
 41
1.0
 50
0.0
 71
     0
 42
25.0
  3
txt.shx
  4
bigfont.shx
  0
STYLE
  5
21
330
3
100
AcDbSymbolTableRecord
100
AcDbTextStyleTableRecord
  2

 70
     1
 40
0.0
 41
1.0
 50
0.0
 71
     0
 42
2.5
  3
ltypeshp.shx
  4

  0
ENDTAB
  0
TABLE
  2
VIEW
  5
6
330
0
100
AcDbSymbolTable
 70
     0
  0
ENDTAB
  0
TABLE
  2
UCS
  5
7
330
0
100
AcDbSymbolTable
 70
     0
  0
ENDTAB
  0
TABLE
  2
APPID
  5
9
330
0
100
AcDbSymbolTable
 70
     6
  0
APPID
  5
10
330
9
100
AcDbSymbolTableRecord
100
AcDbRegAppTableRecord
  2
ACAD
 70
     0
  0
APPID
  5
4B
330
9
100
AcDbSymbolTableRecord
100
AcDbRegAppTableRecord
  2
DRAWINGVARIABLESXDATA
 70
     0
  0
APPID
  5
68
330
9
100
AcDbSymbolTableRecord
100
AcDbRegAppTableRecord
  2
CONTENTBLOCKDESCRIPTION
 70
     0
  0
APPID
  5
69
330
9
100
AcDbSymbolTableRecord
100
AcDbRegAppTableRecord
  2
CONTENTBLOCKICON
 70
     0
  0
APPID
  5
8D
330
9
100
AcDbSymbolTableRecord
100
AcDbRegAppTableRecord
  2
CONTENTTABDATA
 70
     0
  0
APPID
  5
8E
330
9
100
AcDbSymbolTableRecord
100
AcDbRegAppTableRecord
  2
CONTENTCURRENTTAB
 70
     0
  0
ENDTAB
  0
TABLE
  2
DIMSTYLE
  5
A
330
0
100
AcDbSymbolTable
 70
     6
100
AcDbDimStyleTable
  0
DIMSTYLE
105
1D
330
A
100
AcDbSymbolTableRecord
100
AcDbDimStyleTableRecord
  2
STANDARD
 70
     0
 40
0.0
 41
23.0
 42
0.625
 43
6.0
 44
1.25
 73
     0
 74
     0
 77
     3
 78
     8
140
5.0
141
1.5
143
0.0394
147
1.0
171
     4
172
     1
173
     1
178
     0
271
     2
272
     2
273
     8
274
     4
277
     6
284
     8
340
F
341
2D
343
2D
344
2D
  0
DIMSTYLE
105
33
330
A
100
AcDbSymbolTableRecord
100
AcDbDimStyleTableRecord
  2
STANDARD$4
 70
     0
 40
0.0
 41
3.0
 42
0.625
 43
6.0
 44
1.25
 73
     0
 74
     0
 77
     3
 78
     8
140
3.0
141
2.5
143
0.0394
147
1.0
171
     4
172
     1
173
     1
178
     0
271
     3
272
     2
273
     8
274
     4
277
     6
289
     0
340
F
341
2D
343
2D
344
2D
  0
DIMSTYLE
105
34
102
{ACAD_REACTORS
330
8FD
102
}
330
A
100
AcDbSymbolTableRecord
100
AcDbDimStyleTableRecord
  2
STANDARD$3
 70
     0
 40
0.0
 41
3.0
 42
0.625
 43
6.0
 44
1.25
 73
     0
 74
     0
 77
     3
 78
     8
140
3.0
141
2.5
143
0.0394
147
1.0
171
     4
172
     1
173
     1
178
     0
271
     3
272
     2
273
     8
274
     4
277
     6
289
     0
340
F
341
2D
343
2D
344
2D
  0
DIMSTYLE
105
35
102
{ACAD_REACTORS
330
293
330
2A0
330
2A6
330
2B1
330
2C2
330
2C3
330
623
330
653
330
660
330
646
330
55D
330
2FB
330
316
330
8CC
330
8E2
330
8EF
102
}
330
A
100
AcDbSymbolTableRecord
100
AcDbDimStyleTableRecord
  2
STANDARD$0
 70
     0
 40
0.0
 41
23.0
 42
0.625
 43
6.0
 44
1.25
 73
     0
 74
     0
 77
     3
 78
     8
140
5.0
141
2.5
143
0.0394
147
1.0
171
     4
172
     1
173
     1
178
     0
271
     2
272
     2
273
     8
274
     4
277
     6
284
     8
340
F
341
2D
343
2D
344
2D
  0
DIMSTYLE
105
36
330
A
100
AcDbSymbolTableRecord
100
AcDbDimStyleTableRecord
  2
STANDARD$2
 70
     0
 40
0.0
 41
3.0
 42
0.625
 43
6.0
 44
1.25
 73
     0
 74
     0
 77
     3
 78
     8
140
3.0
141
2.5
143
0.0394
147
1.0
171
     4
172
     1
173
     1
178
     0
271
     3
272
     2
273
     8
274
     4
277
     6
340
F
341
2D
343
2D
344
2D
  0
DIMSTYLE
105
5D
330
A
100
AcDbSymbolTableRecord
100
AcDbDimStyleTableRecord
  2
STANDARD_WS
 70
     0
 41
2.5
 42
0.625
 43
3.75
 44
1.25
 73
     0
 74
     0
 77
     1
 78
     8
140
2.5
141
2.5
143
0.0394
147
0.625
171
     4
172
     1
178
     0
273
     8
274
     4
340
F
  0
ENDTAB
  0
TABLE
  2
BLOCK_RECORD
  5
1
330
0
100
AcDbSymbolTable
 70
    21
  0
BLOCK_RECORD
  5
18
330
1
100
AcDbSymbolTableRecord
100
AcDbBlockTableRecord
  2
*MODEL_SPACE
340
BA
 70
     0
280
     1
281
     0
  0
BLOCK_RECORD
  5
15
330
1
100
AcDbSymbolTableRecord
100
AcDbBlockTableRecord
  2
*PAPER_SPACE
340
BB
 70
     0
280
     1
281
     0
  0
BLOCK_RECORD
  5
2D
330
1
100
AcDbSymbolTableRecord
100
AcDbBlockTableRecord
  2
_OPEN
340
0
102
{BLKREFS
331
7B0
331
7B1
331
7C2
331
7C3
331
79E
331
79F
331
7DF
331
7E0
331
7D6
331
7D7
331
7F3
331
7F4
331
7FC
331
7FD
331
795
331
796
331
7E8
331
7E9
331
74B
331
74C
331
7B9
331
7BA
331
7CD
331
7CE
331
7A7
331
7A8
331
91D
331
91E
331
914
331
915
331
90B
331
90C
331
924
331
925
102
}
 70
     0
280
     1
281
     0
  0
BLOCK_RECORD
  5
5E
330
1
100
AcDbSymbolTableRecord
100
AcDbBlockTableRecord
  2
仕上　１
340
0
310
2800000020000000200000000100040000000000000200000000000000000000000000000000000000000000000080000080000000808000800000008000800080800000C0C0C000808080000000FF0000FF000000FFFF00FF000000FF00FF00FFFF0000FFFFFF00FFFFFFFFFFFFFFFFFFFFFFFFFFFFFFFFFFFFFFFFFFFFFF
310
FFFFFFFFFFFFFFFFFFFFFFFFFFFFFFFFFFFFFFFFFFFFFFFFFFFFFFFFFFFFFFFFFFFFFFFFFFFFFFFFFFFFFFFFFFFFFFFFF00FFFFFFFFFFFFFFFFFFFFFFFFFFFFFF00FFFFFFFFFFFFFFFFFFFFFFFFFFFFF0000FFFFFFFFFFFFFFFFFFFFFFFFFFFF0FF00FFFFFFFFFFFFFFFFFFFFFFFFFF0FFFF0FFFFFFFFFFFFFFFFFFFFFFFFF
310
00FFFF00FFFFFFFFFFFFFFFFFFFFFFFF0FFFFFF0FFFFFFFFFFFFFFFFFFFFFFF00FFFFFF00FFFFFFFFFFFFFFFFFFFFFF0FFFFFFFF0FFFFFFFFFFFFFFFFFFFFF00FFFFFFFFF0FFFFFFFFFFFFFFFFFFFF0FFFFFFFFFF00FFFFFFFFFFFFFFFFFF0FFFFFFFFFFFF0FFFFFFFFFFFFFFFFF00FFFFFFFFFFFF00FFFFFFFFFFFFFFFF0F
310
FFFFFFFFFFFFF0FFFFFFFFFFFFFFF00FFFFFFFFFFFFFF00FFFFFFFFFFFFFF0FFFFFFFFFFFFFFFF0FFFFFFFFFFFFF00FFFFFFFFFFFFFFFFF0FFFFFFFFFFF00FFFFFFFFFFFFFFFFFF00FFFFFFFFFF0FFFFFFFFFFFFFFFFFFFF0FFFFFFFFF00FFFFFFFFFFFFFFFFFFFF00FFFFFFFF0FFFFFFFFFFFFFFFFFFFFFF0FFFFFFF00FFF
310
FFFFFFFFFFFFFFFFFFF00FFFFFF0FFFFFFFFFFFFFFFFFFFFFFFF00FFFF00FFFFFFFFFFFFFFFFFFFFFFFFF0FFFF0000000000000000000000000000FFFFFFFFFFFFFFFFFFFFFFFFFFFFFFFFFFFFFFFFFFFFFFFFFFFFFFFFFFFFFFFFFFFFFFFFFFFFFFFFFFFFFFFFFFFFFFFFFF
 70
     0
280
     1
281
     0
  0
BLOCK_RECORD
  5
6B
330
1
100
AcDbSymbolTableRecord
100
AcDbBlockTableRecord
  2
仕上　２
340
0
310
2800000020000000200000000100040000000000000200000000000000000000000000000000000000000000000080000080000000808000800000008000800080800000C0C0C000808080000000FF0000FF000000FFFF00FF000000FF00FF00FFFF0000FFFFFF00FFFFFFFFFFFFFFFFFFFFFFFFFFFFFFFFFFFFFFFFFFFFFF
310
FFFFFFFFFFFFFFFFFFFFFFFFFFFFFFFFFFFFFFFFFFFFFFFFFFFFFFFFFFFFFFFFFFFFFFFFFFFFFFFFFFFFFFFFFFFFFFFFFFFFFFFFFFFFFFFFFFFFFFFFFFFFFFFFFFFFFFFFFFFFFFFFFFFFFFFFFFFFFFFFFFFFFFFFFFFFFFFFFFFFFFFFFFFFFFFFFFFFFFFFFFFFFFFFFFFFFFFFFFFFFFFFFFFFFFFFFFFFFFFFFFFFFFFFFF0FFF
310
FFFFFFFFFFF0FFFFFFFFFFFFFFF00FFFFFFFFFFFFFF00FFFFFFFFFFFFFF000FFFFFFFFFFFF000FFFFFFFFFFFFF0FF00FFFFFFFFFF00FF0FFFFFFFFFFF00FFF0FFFFFFFFFF0FFF00FFFFFFFFFF0FFFF00FFFFFFFF00FFFF0FFFFFFFFF00FFFFF0FFFFFFFF0FFFFF00FFFFFFFF0FFFFFF00FFFFFF00FFFFFF0FFFFFFF0FFFFFF
310
FF0FFFFFF0FFFFFFF00FFFFF00FFFFFFFFF0FFFF00FFFFFFFF00FFFF0FFFFFFFFFF00FFF0FFFFFFFFFF0FFF00FFFFFFFFFFF0FF0FFFFFFFFFFF00FF0FFFFFFFFFFFF0000FFFFFFFFFFFF0F00FFFFFFFFFFFFF00FFFFFFFFFFFFF0000000000000000000000000000000000FFFFFFFFFFFFFFFFFFFFFFFFFFFFFFFFFFFFFFFF
310
FFFFFFFFFFFFFFFFFFFFFFFFFFFFFFFFFFFFFFFFFFFFFFFFFFFFFFFFFFFFFFFFFFFFFFFFFFFFFFFFFFFFFFFFFFFFFFFFFFFFFFFFFFFFFFFFFFFFFFFFFFFFFFFFFFFFFFFFFFFFFFFFFFFFFFFFFFFFFFFFFFFFFFFFFFFFFFFFFFFFFFFFFFFFFFFFFFFFFFFFFFFFFFFFFFFFFFFF
 70
     0
280
     1
281
     0
  0
BLOCK_RECORD
  5
79
330
1
100
AcDbSymbolTableRecord
100
AcDbBlockTableRecord
  2
仕上　３
340
0
310
2800000020000000200000000100040000000000000200000000000000000000000000000000000000000000000080000080000000808000800000008000800080800000C0C0C000808080000000FF0000FF000000FFFF00FF000000FF00FF00FFFF0000FFFFFF00FFFFFFFFFFFFFFFFFFFFFFFFFFFFFFFFFFFFFFFFFFFFFF
310
FFFFFFFFFFFFFFFFFFFFFFFFFFFFFFFFFFFFFFFFFFFFFFFFFFFFFFFFFFFFFFFFFFFFFFFFFFFFFFFFFFFFFFFFFFFFFFFFFFFFFFFFFFFFFFFFFFFFFFFFFFFFFFFFFFFFFFFFFFFFFFFFFFFFFFFFFFFFFFFFFFFFFFFFFFFFFFFFFFFFFFFFFFFFFFFFFFFFFFFFFFFFFFFFFFFFFFFFFFFFFFFFFFFFFFFFFFFFFFFFFFFFFFFFFFFFFF
310
FFFFFFFFFFFFFFFFFFFFFFFFFFFFFFFFFFFFFFFFFFFFFFFFFFFFFFFFFFFFFFFFFFFFFFFFFFFFFFFFFFFFFFFFF0FFFFFFFFF00FFFFFFFFF0FFFFFFFFF000FFFFFFFF000FFFFFFF000FFFFFFF00F00FFFFFF00F0FFFFFF00F0FFFFFFF0FFF0FFFFF00FF00FFFFF0FFF0FFFFF00FFF00FFFF0FFFF0FFFF00FFF00FFFF0FFFFF0F
310
FF00FFFF00FFF0FFFFF0FFF00FFFFF00FF0FFFFFF0FF00FFFFF00FF0FFFFFFF000FFFFFFF0000FFFFFFF0F0FFFFFFFFF00FFFFFFFF00FFFFFFFFF000000000000000000000000000000000FFFFFFFFFFFFFFFFFFFFFFFFFFFFFFFFFFFFFFFFFFFFFFFFFFFFFFFFFFFFFFFFFFFFFFFFFFFFFFFFFFFFFFFFFFFFFFFFFFFFFFFF
310
FFFFFFFFFFFFFFFFFFFFFFFFFFFFFFFFFFFFFFFFFFFFFFFFFFFFFFFFFFFFFFFFFFFFFFFFFFFFFFFFFFFFFFFFFFFFFFFFFFFFFFFFFFFFFFFFFFFFFFFFFFFFFFFFFFFFFFFFFFFFFFFFFFFFFFFFFFFFFFFFFFFFFFFFFFFFFFFFFFFFFFFFFFFFFFFFFFFFFFFFFFFFFFFFFFFFFFFF
 70
     0
280
     1
281
     0
  0
BLOCK_RECORD
  5
360
330
1
100
AcDbSymbolTableRecord
100
AcDbBlockTableRecord
  2
*D4
340
0
 70
     0
280
     1
281
     0
  0
BLOCK_RECORD
  5
385
330
1
100
AcDbSymbolTableRecord
100
AcDbBlockTableRecord
  2
*D5
340
0
 70
     0
280
     1
281
     0
  0
BLOCK_RECORD
  5
39D
330
1
100
AcDbSymbolTableRecord
100
AcDbBlockTableRecord
  2
*D6
340
0
 70
     0
280
     1
281
     0
  0
BLOCK_RECORD
  5
3A9
330
1
100
AcDbSymbolTableRecord
100
AcDbBlockTableRecord
  2
*D7
340
0
 70
     0
280
     1
281
     0
  0
BLOCK_RECORD
  5
3D9
330
1
100
AcDbSymbolTableRecord
100
AcDbBlockTableRecord
  2
*D8
340
0
 70
     0
280
     1
281
     0
  0
BLOCK_RECORD
  5
3E5
330
1
100
AcDbSymbolTableRecord
100
AcDbBlockTableRecord
  2
*D9
340
0
 70
     0
280
     1
281
     0
  0
BLOCK_RECORD
  5
3FD
330
1
100
AcDbSymbolTableRecord
100
AcDbBlockTableRecord
  2
*D10
340
0
 70
     0
280
     1
281
     0
  0
BLOCK_RECORD
  5
409
330
1
100
AcDbSymbolTableRecord
100
AcDbBlockTableRecord
  2
*D11
340
0
 70
     0
280
     1
281
     0
  0
BLOCK_RECORD
  5
55E
330
1
100
AcDbSymbolTableRecord
100
AcDbBlockTableRecord
  2
*D12
340
0
 70
     0
280
     1
281
     0
  0
BLOCK_RECORD
  5
624
330
1
100
AcDbSymbolTableRecord
100
AcDbBlockTableRecord
  2
*D13
340
0
 70
     0
280
     1
281
     0
  0
BLOCK_RECORD
  5
647
330
1
100
AcDbSymbolTableRecord
100
AcDbBlockTableRecord
  2
*D14
340
0
 70
     0
280
     1
281
     0
  0
BLOCK_RECORD
  5
654
330
1
100
AcDbSymbolTableRecord
100
AcDbBlockTableRecord
  2
*D15
340
0
 70
     0
280
     1
281
     0
  0
BLOCK_RECORD
  5
661
330
1
100
AcDbSymbolTableRecord
100
AcDbBlockTableRecord
  2
*D16
340
0
 70
     0
280
     1
281
     0
  0
BLOCK_RECORD
  5
8CD
330
1
100
AcDbSymbolTableRecord
100
AcDbBlockTableRecord
  2
*D17
340
0
 70
     0
280
     1
281
     0
  0
BLOCK_RECORD
  5
8E3
330
1
100
AcDbSymbolTableRecord
100
AcDbBlockTableRecord
  2
*D18
340
0
 70
     0
280
     1
281
     0
  0
BLOCK_RECORD
  5
8F0
330
1
100
AcDbSymbolTableRecord
100
AcDbBlockTableRecord
  2
*D19
340
0
 70
     0
280
     1
281
     0
  0
BLOCK_RECORD
  5
8FE
330
1
100
AcDbSymbolTableRecord
100
AcDbBlockTableRecord
  2
*D20
340
0
 70
     0
280
     1
281
     0
  0
ENDTAB
  0
ENDSEC
  0
SECTION
  2
BLOCKS
  0
BLOCK
  5
19
330
18
100
AcDbEntity
  8
0
100
AcDbBlockBegin
  2
*MODEL_SPACE
 70
     0
 10
0.0
 20
0.0
 30
0.0
  3
*MODEL_SPACE
  1
*MODEL_SPACE
  0
ENDBLK
  5
1A
330
18
100
AcDbEntity
  8
0
100
AcDbBlockEnd
  0
BLOCK
  5
16
330
15
100
AcDbEntity
 67
     1
  8
0
100
AcDbBlockBegin
  2
*PAPER_SPACE
 70
     0
 10
0.0
 20
0.0
 30
0.0
  3
*PAPER_SPACE
  1
*PAPER_SPACE
  0
ENDBLK
  5
17
330
15
100
AcDbEntity
 67
     1
  8
0
100
AcDbBlockEnd
  0
BLOCK
  5
2E
330
2D
100
AcDbEntity
  8
0
100
AcDbBlockBegin
  2
_OPEN
 70
     0
 10
0.0
 20
0.0
 30
0.0
  3
_OPEN
  1
_OPEN
  0
LINE
  5
2F
330
2D
100
AcDbEntity
  8
0
  6
ByBlock
 62
     0
100
AcDbLine
 10
-1.0
 20
0.1666666666666667
 30
0.0
 11
0.0
 21
0.0
 31
0.0
  0
LINE
  5
30
330
2D
100
AcDbEntity
  8
0
  6
ByBlock
 62
     0
100
AcDbLine
 10
0.0
 20
0.0
 30
0.0
 11
-1.0
 21
-0.1666666666666667
 31
0.0
  0
LINE
  5
31
330
2D
100
AcDbEntity
  8
0
  6
ByBlock
 62
     0
100
AcDbLine
 10
0.0
 20
0.0
 30
0.0
 11
-1.0
 21
0.0
 31
0.0
  0
ENDBLK
  5
32
330
2D
100
AcDbEntity
  8
0
100
AcDbBlockEnd
  0
BLOCK
  5
64
330
5E
100
AcDbEntity
  8
0
100
AcDbBlockBegin
  2
仕上　１
 70
     0
 10
0.0
 20
0.0
 30
0.0
  3
仕上　１
  1
仕上　１
  0
LINE
  5
5F
330
5E
100
AcDbEntity
  8
0
100
AcDbLine
 10
4.999958538888336
 20
8.660284968743781
 30
0.0
 11
-5.000041461111664
 21
8.660284968743781
 31
0.0
  0
LINE
  5
60
330
5E
100
AcDbEntity
  8
0
100
AcDbLine
 10
-0.0000414611116639
 20
0.0000309308993849
 30
0.0
 11
4.999958538888336
 21
8.660284968743781
 31
0.0
  0
LINE
  5
61
330
5E
100
AcDbEntity
  8
A
100
AcDbLine
 10
-0.0000414611116639
 20
0.0000309308993849
 30
0.0
 11
4.999958538888336
 21
8.660284968743781
 31
0.0
  0
LINE
  5
62
330
5E
100
AcDbEntity
  8
0
100
AcDbLine
 10
-5.000041461111664
 20
8.660284968743781
 30
0.0
 11
-0.0000414611116639
 21
0.0000309308993849
 31
0.0
  0
LINE
  5
63
330
5E
100
AcDbEntity
  8
A
100
AcDbLine
 10
-5.000041461111664
 20
8.660284968743781
 30
0.0
 11
-0.0000414611116639
 21
0.0000309308993849
 31
0.0
  0
ENDBLK
  5
65
330
5E
100
AcDbEntity
  8
0
100
AcDbBlockEnd
  0
BLOCK
  5
75
330
6B
100
AcDbEntity
  8
0
100
AcDbBlockBegin
  2
仕上　２
 70
     0
 10
0.0
 20
0.0
 30
0.0
  3
仕上　２
  1
仕上　２
  0
LINE
  5
6C
330
6B
100
AcDbEntity
  8
0
100
AcDbLine
 10
15.00000311254627
 20
8.660284968743781
 30
0.0
 11
-4.999996887453733
 21
8.660284968743781
 31
0.0
  0
LINE
  5
6D
330
6B
100
AcDbEntity
  8
0
100
AcDbLine
 10
-4.999996887453733
 20
8.660284968743781
 30
0.0
 11
0.0000031125462669
 21
0.0000309308993849
 31
0.0
  0
LINE
  5
6E
330
6B
100
AcDbEntity
  8
A
100
AcDbLine
 10
-4.999996887453733
 20
8.660284968743781
 30
0.0
 11
0.0000031125462669
 21
0.0000309308993849
 31
0.0
  0
LINE
  5
6F
330
6B
100
AcDbEntity
  8
0
100
AcDbLine
 10
10.00000311254627
 20
0.0000309308993849
 30
0.0
 11
15.00000311254627
 21
8.660284968743781
 31
0.0
  0
LINE
  5
70
330
6B
100
AcDbEntity
  8
0
100
AcDbLine
 10
5.000003112546267
 20
8.660284968743781
 30
0.0
 11
10.00000311254627
 21
0.0000309308993849
 31
0.0
  0
LINE
  5
71
330
6B
100
AcDbEntity
  8
0
100
AcDbLine
 10
0.0000031125462669
 20
0.0000309308993849
 30
0.0
 11
5.000003112546267
 21
8.660284968743781
 31
0.0
  0
LINE
  5
72
330
6B
100
AcDbEntity
  8
A
100
AcDbLine
 10
10.00000311254627
 20
0.0000309308993849
 30
0.0
 11
15.00000311254627
 21
8.660284968743781
 31
0.0
  0
LINE
  5
73
330
6B
100
AcDbEntity
  8
A
100
AcDbLine
 10
5.000003112546267
 20
8.660284968743781
 30
0.0
 11
10.00000311254627
 21
0.0000309308993849
 31
0.0
  0
LINE
  5
74
330
6B
100
AcDbEntity
  8
A
100
AcDbLine
 10
0.0000031125462669
 20
0.0000309308993849
 30
0.0
 11
5.000003112546267
 21
8.660284968743781
 31
0.0
  0
ENDBLK
  5
76
330
6B
100
AcDbEntity
  8
0
100
AcDbBlockEnd
  0
BLOCK
  5
88
330
79
100
AcDbEntity
  8
0
100
AcDbBlockBegin
  2
仕上　３
 70
     0
 10
0.0
 20
0.0
 30
0.0
  3
仕上　３
  1
仕上　３
  0
LINE
  5
7A
330
79
100
AcDbEntity
  8
0
100
AcDbLine
 10
25.0000345892401
 20
8.660284968743781
 30
0.0
 11
-4.999965410759899
 21
8.660284968743781
 31
0.0
  0
LINE
  5
7B
330
79
100
AcDbEntity
  8
0
100
AcDbLine
 10
-4.999965410759899
 20
8.660284968743781
 30
0.0
 11
0.0000345892401015
 21
0.0000309308993849
 31
0.0
  0
LINE
  5
7C
330
79
100
AcDbEntity
  8
A
100
AcDbLine
 10
25.0000345892401
 20
8.660284968743781
 30
0.0
 11
-4.999965410759899
 21
8.660284968743781
 31
0.0
  0
LINE
  5
7D
330
79
100
AcDbEntity
  8
A
100
AcDbLine
 10
-4.999965410759899
 20
8.660284968743781
 30
0.0
 11
0.0000345892401015
 21
0.0000309308993849
 31
0.0
  0
LINE
  5
7E
330
79
100
AcDbEntity
  8
0
100
AcDbLine
 10
15.0000345892401
 20
8.660284968743781
 30
0.0
 11
20.0000345892401
 21
0.0000309308993849
 31
0.0
  0
LINE
  5
7F
330
79
100
AcDbEntity
  8
A
100
AcDbLine
 10
15.0000345892401
 20
8.660284968743781
 30
0.0
 11
20.0000345892401
 21
0.0000309308993849
 31
0.0
  0
LINE
  5
80
330
79
100
AcDbEntity
  8
0
100
AcDbLine
 10
10.0000345892401
 20
0.0000309308993849
 30
0.0
 11
15.0000345892401
 21
8.660284968743781
 31
0.0
  0
LINE
  5
81
330
79
100
AcDbEntity
  8
0
100
AcDbLine
 10
5.000034589240101
 20
8.660284968743781
 30
0.0
 11
10.0000345892401
 21
0.0000309308993849
 31
0.0
  0
LINE
  5
82
330
79
100
AcDbEntity
  8
0
100
AcDbLine
 10
0.0000345892401015
 20
0.0000309308993849
 30
0.0
 11
5.000034589240101
 21
8.660284968743781
 31
0.0
  0
LINE
  5
83
330
79
100
AcDbEntity
  8
A
100
AcDbLine
 10
10.0000345892401
 20
0.0000309308993849
 30
0.0
 11
15.0000345892401
 21
8.660284968743781
 31
0.0
  0
LINE
  5
84
330
79
100
AcDbEntity
  8
A
100
AcDbLine
 10
5.000034589240101
 20
8.660284968743781
 30
0.0
 11
10.0000345892401
 21
0.0000309308993849
 31
0.0
  0
LINE
  5
85
330
79
100
AcDbEntity
  8
A
100
AcDbLine
 10
0.0000345892401015
 20
0.0000309308993849
 30
0.0
 11
5.000034589240101
 21
8.660284968743781
 31
0.0
  0
LINE
  5
86
330
79
100
AcDbEntity
  8
0
100
AcDbLine
 10
20.0000345892401
 20
0.0000309308993849
 30
0.0
 11
25.0000345892401
 21
8.660284968743781
 31
0.0
  0
LINE
  5
87
330
79
100
AcDbEntity
  8
A
100
AcDbLine
 10
20.0000345892401
 20
0.0000309308993849
 30
0.0
 11
25.0000345892401
 21
8.660284968743781
 31
0.0
  0
ENDBLK
  5
89
330
79
100
AcDbEntity
  8
0
100
AcDbBlockEnd
  0
BLOCK
  5
36A
330
360
100
AcDbEntity
  8
0
100
AcDbBlockBegin
  2
*D4
 70
     1
 10
0.0
 20
0.0
 30
0.0
  3
*D4
  1
*D4
  0
LINE
  5
7AD
330
360
100
AcDbEntity
  8
外形寸法
 62
     0
370
    -2
100
AcDbLine
 10
836.7859758535328
 20
359.2786769908772
 30
0.0
 11
771.8446139100239
 21
359.2786769908772
 31
0.0
  0
LINE
  5
7AE
330
360
100
AcDbEntity
  8
外形寸法
 62
     0
370
    -2
100
AcDbLine
 10
836.7859758535328
 20
838.2786769908772
 30
0.0
 11
771.8446139100239
 21
838.2786769908772
 31
0.0
  0
LINE
  5
7AF
330
360
100
AcDbEntity
  8
外形寸法
 62
     0
370
    -2
100
AcDbLine
 10
773.0946139100239
 20
382.2786769908772
 30
0.0
 11
773.0946139100239
 21
815.2786769908772
 31
0.0
  0
INSERT
  5
7B0
330
360
100
AcDbEntity
  8
外形寸法
 62
     0
370
    -2
100
AcDbBlockReference
  2
_OPEN
 10
773.0946139100239
 20
359.2786769908772
 30
0.0
 41
23.0
 42
23.0
 43
23.0
 50
270.0
  0
INSERT
  5
7B1
330
360
100
AcDbEntity
  8
外形寸法
 62
     0
370
    -2
100
AcDbBlockReference
  2
_OPEN
 10
773.0946139100239
 20
838.2786769908772
 30
0.0
 41
23.0
 42
23.0
 43
23.0
 50
90.0
  0
MTEXT
  5
7B2
330
360
100
AcDbEntity
  8
外形寸法
 62
     0
100
AcDbMText
 10
759.5946139100239
 20
598.7786769908772
 30
0.0
 40
25.0
 41
0.0
 46
0.0
 71
     5
 72
     1
  1
\A1;484
 11
0.0
 21
1.0
 31
0.0
 73
     1
 44
1.0
  0
POINT
  5
7B3
330
360
100
AcDbEntity
  8
Defpoints
 62
     0
100
AcDbPoint
 10
837.4109758535328
 20
359.2786769908772
 30
0.0
  0
POINT
  5
7B4
330
360
100
AcDbEntity
  8
Defpoints
 62
     0
100
AcDbPoint
 10
837.4109758535328
 20
838.2786769908772
 30
0.0
  0
POINT
  5
7B5
330
360
100
AcDbEntity
  8
Defpoints
 62
     0
100
AcDbPoint
 10
773.0946139100239
 20
838.2786769908772
 30
0.0
  0
ENDBLK
  5
36B
330
360
100
AcDbEntity
  8
0
100
AcDbBlockEnd
  0
BLOCK
  5
38F
330
385
100
AcDbEntity
  8
0
100
AcDbBlockBegin
  2
*D5
 70
     1
 10
0.0
 20
0.0
 30
0.0
  3
*D5
  1
*D5
  0
LINE
  5
7BF
330
385
100
AcDbEntity
  8
外形寸法
 62
     0
370
    -2
100
AcDbLine
 10
375.2077216740041
 20
169.1536769908788
 30
0.0
 11
375.2077216740041
 21
102.7935681846994
 31
0.0
  0
LINE
  5
7C0
330
385
100
AcDbEntity
  8
外形寸法
 62
     0
370
    -2
100
AcDbLine
 10
64.20772167400435
 20
149.0145445555792
 30
0.0
 11
64.20772167400435
 21
102.7935681846994
 31
0.0
  0
LINE
  5
7C1
330
385
100
AcDbEntity
  8
外形寸法
 62
     0
370
    -2
100
AcDbLine
 10
352.2077216740041
 20
104.0435681846994
 30
0.0
 11
87.20772167400435
 21
104.0435681846994
 31
0.0
  0
INSERT
  5
7C2
330
385
100
AcDbEntity
  8
外形寸法
 62
     0
370
    -2
100
AcDbBlockReference
  2
_OPEN
 10
375.2077216740041
 20
104.0435681846994
 30
0.0
 41
23.0
 42
23.0
 43
23.0
  0
INSERT
  5
7C3
330
385
100
AcDbEntity
  8
外形寸法
 62
     0
370
    -2
100
AcDbBlockReference
  2
_OPEN
 10
64.20772167400435
 20
104.0435681846994
 30
0.0
 41
23.0
 42
23.0
 43
23.0
 50
180.0
  0
MTEXT
  5
7C4
330
385
100
AcDbEntity
  8
外形寸法
 62
     0
100
AcDbMText
 10
219.7077216740042
 20
117.5435681846994
 30
0.0
 40
25.0
 41
0.0
 46
0.0
 71
     5
 72
     1
  1
\A1;313
 73
     1
 44
1.0
  0
POINT
  5
7C5
330
385
100
AcDbEntity
  8
Defpoints
 62
     0
100
AcDbPoint
 10
375.2077216740041
 20
169.7786769908788
 30
0.0
  0
POINT
  5
7C6
330
385
100
AcDbEntity
  8
Defpoints
 62
     0
100
AcDbPoint
 10
64.20772167400435
 20
149.6395445555792
 30
0.0
  0
POINT
  5
7C7
330
385
100
AcDbEntity
  8
Defpoints
 62
     0
100
AcDbPoint
 10
64.20772167400435
 20
104.0435681846994
 30
0.0
  0
ENDBLK
  5
390
330
385
100
AcDbEntity
  8
0
100
AcDbBlockEnd
  0
BLOCK
  5
3A7
330
39D
100
AcDbEntity
  8
0
100
AcDbBlockBegin
  2
*D6
 70
     1
 10
0.0
 20
0.0
 30
0.0
  3
*D6
  1
*D6
  0
LINE
  5
79B
330
39D
100
AcDbEntity
  8
外形寸法
 62
     0
370
    -2
100
AcDbLine
 10
860.3511174578439
 20
242.6536769908747
 30
0.0
 11
860.3511174578439
 21
73.3474862753593
 31
0.0
  0
LINE
  5
79C
330
39D
100
AcDbEntity
  8
外形寸法
 62
     0
370
    -2
100
AcDbLine
 10
1150.351117457845
 20
242.6536769908752
 30
0.0
 11
1150.351117457845
 21
73.3474862753593
 31
0.0
  0
LINE
  5
79D
330
39D
100
AcDbEntity
  8
外形寸法
 62
     0
370
    -2
100
AcDbLine
 10
883.3511174578439
 20
74.5974862753593
 30
0.0
 11
1127.351117457845
 21
74.5974862753593
 31
0.0
  0
INSERT
  5
79E
330
39D
100
AcDbEntity
  8
外形寸法
 62
     0
370
    -2
100
AcDbBlockReference
  2
_OPEN
 10
860.3511174578439
 20
74.5974862753593
 30
0.0
 41
23.0
 42
23.0
 43
23.0
 50
180.0
  0
INSERT
  5
79F
330
39D
100
AcDbEntity
  8
外形寸法
 62
     0
370
    -2
100
AcDbBlockReference
  2
_OPEN
 10
1150.351117457845
 20
74.5974862753593
 30
0.0
 41
23.0
 42
23.0
 43
23.0
  0
MTEXT
  5
7A0
330
39D
100
AcDbEntity
  8
外形寸法
 62
     0
100
AcDbMText
 10
1005.351117457844
 20
88.0974862753593
 30
0.0
 40
25.0
 41
0.0
 46
0.0
 71
     5
 72
     1
  1
\A1;300
 73
     1
 44
1.0
  0
POINT
  5
7A1
330
39D
100
AcDbEntity
  8
Defpoints
 62
     0
100
AcDbPoint
 10
860.3511174578439
 20
243.2786769908747
 30
0.0
  0
POINT
  5
7A2
330
39D
100
AcDbEntity
  8
Defpoints
 62
     0
100
AcDbPoint
 10
1150.351117457845
 20
243.2786769908752
 30
0.0
  0
POINT
  5
7A3
330
39D
100
AcDbEntity
  8
Defpoints
 62
     0
100
AcDbPoint
 10
1150.351117457845
 20
74.5974862753593
 30
0.0
  0
ENDBLK
  5
3A8
330
39D
100
AcDbEntity
  8
0
100
AcDbBlockEnd
  0
BLOCK
  5
3B3
330
3A9
100
AcDbEntity
  8
0
100
AcDbBlockBegin
  2
*D7
 70
     1
 10
0.0
 20
0.0
 30
0.0
  3
*D7
  1
*D7
  0
LINE
  5
7DC
330
3A9
100
AcDbEntity
  8
外形寸法
 62
     0
370
    -2
100
AcDbLine
 10
375.2077216740041
 20
136.7633698743185
 30
0.0
 11
375.2077216740041
 21
102.7935681846994
 31
0.0
  0
LINE
  5
7DD
330
3A9
100
AcDbEntity
  8
外形寸法
 62
     0
370
    -2
100
AcDbLine
 10
582.2077216740158
 20
136.7633698743185
 30
0.0
 11
582.2077216740158
 21
102.7935681846994
 31
0.0
  0
LINE
  5
7DE
330
3A9
100
AcDbEntity
  8
外形寸法
 62
     0
370
    -2
100
AcDbLine
 10
398.2077216740041
 20
104.0435681846994
 30
0.0
 11
559.2077216740158
 21
104.0435681846994
 31
0.0
  0
INSERT
  5
7DF
330
3A9
100
AcDbEntity
  8
外形寸法
 62
     0
370
    -2
100
AcDbBlockReference
  2
_OPEN
 10
375.2077216740041
 20
104.0435681846994
 30
0.0
 41
23.0
 42
23.0
 43
23.0
 50
180.0
  0
INSERT
  5
7E0
330
3A9
100
AcDbEntity
  8
外形寸法
 62
     0
370
    -2
100
AcDbBlockReference
  2
_OPEN
 10
582.2077216740158
 20
104.0435681846994
 30
0.0
 41
23.0
 42
23.0
 43
23.0
  0
MTEXT
  5
7E1
330
3A9
100
AcDbEntity
  8
外形寸法
 62
     0
100
AcDbMText
 10
478.7077216740099
 20
117.5435681846994
 30
0.0
 40
25.0
 41
0.0
 46
0.0
 71
     5
 72
     1
  1
\A1;207
 73
     1
 44
1.0
  0
POINT
  5
7E2
330
3A9
100
AcDbEntity
  8
Defpoints
 62
     0
100
AcDbPoint
 10
375.2077216740041
 20
137.3883698743185
 30
0.0
  0
POINT
  5
7E3
330
3A9
100
AcDbEntity
  8
Defpoints
 62
     0
100
AcDbPoint
 10
582.2077216740158
 20
137.3883698743185
 30
0.0
  0
POINT
  5
7E4
330
3A9
100
AcDbEntity
  8
Defpoints
 62
     0
100
AcDbPoint
 10
582.2077216740158
 20
104.0435681846994
 30
0.0
  0
ENDBLK
  5
3B4
330
3A9
100
AcDbEntity
  8
0
100
AcDbBlockEnd
  0
BLOCK
  5
3E3
330
3D9
100
AcDbEntity
  8
0
100
AcDbBlockBegin
  2
*D8
 70
     1
 10
0.0
 20
0.0
 30
0.0
  3
*D8
  1
*D8
  0
LINE
  5
7D3
330
3D9
100
AcDbEntity
  8
外形寸法
 62
     0
370
    -2
100
AcDbLine
 10
860.7261174578448
 20
359.2786769908772
 30
0.0
 11
771.8446139100239
 21
359.2786769908772
 31
0.0
  0
LINE
  5
7D4
330
3D9
100
AcDbEntity
  8
外形寸法
 62
     0
370
    -2
100
AcDbLine
 10
845.3281126772821
 20
183.2786769908774
 30
0.0
 11
771.8446139100238
 21
183.2786769908775
 31
0.0
  0
LINE
  5
7D5
330
3D9
100
AcDbEntity
  8
外形寸法
 62
     0
370
    -2
100
AcDbLine
 10
773.0946139100239
 20
336.2786769908772
 30
0.0
 11
773.0946139100238
 21
206.2786769908775
 31
0.0
  0
INSERT
  5
7D6
330
3D9
100
AcDbEntity
  8
外形寸法
 62
     0
370
    -2
100
AcDbBlockReference
  2
_OPEN
 10
773.0946139100239
 20
359.2786769908772
 30
0.0
 41
23.0
 42
23.0
 43
23.0
 50
90.0
  0
INSERT
  5
7D7
330
3D9
100
AcDbEntity
  8
外形寸法
 62
     0
370
    -2
100
AcDbBlockReference
  2
_OPEN
 10
773.0946139100238
 20
183.2786769908775
 30
0.0
 41
23.0
 42
23.0
 43
23.0
 50
270.0
  0
MTEXT
  5
7D8
330
3D9
100
AcDbEntity
  8
外形寸法
 62
     0
100
AcDbMText
 10
759.5946139100238
 20
271.2786769908774
 30
0.0
 40
25.0
 41
0.0
 46
0.0
 71
     5
 72
     1
  1
\A1;176
 11
6.123031769111886E-17
 21
1.0
 31
0.0
 73
     1
 44
1.0
  0
POINT
  5
7D9
330
3D9
100
AcDbEntity
  8
Defpoints
 62
     0
100
AcDbPoint
 10
861.3511174578448
 20
359.2786769908772
 30
0.0
  0
POINT
  5
7DA
330
3D9
100
AcDbEntity
  8
Defpoints
 62
     0
100
AcDbPoint
 10
845.9531126772821
 20
183.2786769908774
 30
0.0
  0
POINT
  5
7DB
330
3D9
100
AcDbEntity
  8
Defpoints
 62
     0
100
AcDbPoint
 10
773.0946139100238
 20
183.2786769908775
 30
0.0
  0
ENDBLK
  5
3E4
330
3D9
100
AcDbEntity
  8
0
100
AcDbBlockEnd
  0
BLOCK
  5
3EF
330
3E5
100
AcDbEntity
  8
0
100
AcDbBlockBegin
  2
*D9
 70
     1
 10
0.0
 20
0.0
 30
0.0
  3
*D9
  1
*D9
  0
LINE
  5
7EE
330
3E5
100
AcDbEntity
  8
外形寸法
 62
     0
370
    -2
100
AcDbLine
 10
859.7261174578439
 20
183.2786769908774
 30
0.0
 11
771.8446139100238
 21
183.2786769908775
 31
0.0
  0
LINE
  5
7EF
330
3E5
100
AcDbEntity
  8
外形寸法
 62
     0
370
    -2
100
AcDbLine
 10
840.3591092890842
 20
163.2786769908772
 30
0.0
 11
771.8446139100238
 21
163.2786769908772
 31
0.0
  0
LINE
  5
7F0
330
3E5
100
AcDbEntity
  8
外形寸法
 62
     0
370
    -2
100
AcDbLine
 10
773.0946139100238
 20
206.2786769908775
 30
0.0
 11
773.0946139100238
 21
229.2786769908775
 31
0.0
  0
LINE
  5
7F1
330
3E5
100
AcDbEntity
  8
外形寸法
 62
     0
370
    -2
100
AcDbLine
 10
773.0946139100238
 20
140.2786769908772
 30
0.0
 11
773.0946139100238
 21
77.77867699087724
 31
0.0
  0
LINE
  5
7F2
330
3E5
100
AcDbEntity
  8
外形寸法
 62
     0
370
    -2
100
AcDbLine
 10
773.0946139100238
 20
183.2786769908775
 30
0.0
 11
773.0946139100238
 21
163.2786769908772
 31
0.0
  0
INSERT
  5
7F3
330
3E5
100
AcDbEntity
  8
外形寸法
 62
     0
370
    -2
100
AcDbBlockReference
  2
_OPEN
 10
773.0946139100238
 20
183.2786769908775
 30
0.0
 41
23.0
 42
23.0
 43
23.0
 50
270.0
  0
INSERT
  5
7F4
330
3E5
100
AcDbEntity
  8
外形寸法
 62
     0
370
    -2
100
AcDbBlockReference
  2
_OPEN
 10
773.0946139100238
 20
163.2786769908772
 30
0.0
 41
23.0
 42
23.0
 43
23.0
 50
90.0
  0
MTEXT
  5
7F5
330
3E5
100
AcDbEntity
  8
外形寸法
 62
     0
100
AcDbMText
 10
759.5946139100238
 20
97.52867699087737
 30
0.0
 40
25.0
 41
0.0
 46
0.0
 71
     5
 72
     1
  1
\A1;20
 11
6.123031769111886E-17
 21
1.0
 31
0.0
 73
     1
 44
1.0
  0
POINT
  5
7F6
330
3E5
100
AcDbEntity
  8
Defpoints
 62
     0
100
AcDbPoint
 10
860.3511174578439
 20
183.2786769908774
 30
0.0
  0
POINT
  5
7F7
330
3E5
100
AcDbEntity
  8
Defpoints
 62
     0
100
AcDbPoint
 10
840.9841092890842
 20
163.2786769908772
 30
0.0
  0
POINT
  5
7F8
330
3E5
100
AcDbEntity
  8
Defpoints
 62
     0
100
AcDbPoint
 10
773.0946139100238
 20
163.2786769908772
 30
0.0
  0
ENDBLK
  5
3F0
330
3E5
100
AcDbEntity
  8
0
100
AcDbBlockEnd
  0
BLOCK
  5
407
330
3FD
100
AcDbEntity
  8
0
100
AcDbBlockBegin
  2
*D10
 70
     1
 10
0.0
 20
0.0
 30
0.0
  3
*D10
  1
*D10
  0
LINE
  5
7F9
330
3FD
100
AcDbEntity
  8
外形寸法
 62
     0
370
    -2
100
AcDbLine
 10
64.20772167400423
 20
831.4036769908772
 30
0.0
 11
64.20772167400423
 21
915.684015573152
 31
0.0
  0
LINE
  5
7FA
330
3FD
100
AcDbEntity
  8
外形寸法
 62
     0
370
    -2
100
AcDbLine
 10
409.2077216740041
 20
831.4036769908772
 30
0.0
 11
409.2077216740041
 21
915.684015573152
 31
0.0
  0
LINE
  5
7FB
330
3FD
100
AcDbEntity
  8
外形寸法
 62
     0
370
    -2
100
AcDbLine
 10
87.20772167400423
 20
914.434015573152
 30
0.0
 11
386.2077216740041
 21
914.434015573152
 31
0.0
  0
INSERT
  5
7FC
330
3FD
100
AcDbEntity
  8
外形寸法
 62
     0
370
    -2
100
AcDbBlockReference
  2
_OPEN
 10
64.20772167400423
 20
914.434015573152
 30
0.0
 41
23.0
 42
23.0
 43
23.0
 50
180.0
  0
INSERT
  5
7FD
330
3FD
100
AcDbEntity
  8
外形寸法
 62
     0
370
    -2
100
AcDbBlockReference
  2
_OPEN
 10
409.2077216740041
 20
914.434015573152
 30
0.0
 41
23.0
 42
23.0
 43
23.0
  0
MTEXT
  5
7FE
330
3FD
100
AcDbEntity
  8
外形寸法
 62
     0
100
AcDbMText
 10
231.7831810874432
 20
927.934015573152
 30
0.0
 40
25.0
 41
0.0
 46
0.0
 71
     5
 72
     1
  1
\A1;345
 73
     1
 44
1.0
  0
POINT
  5
7FF
330
3FD
100
AcDbEntity
  8
Defpoints
 62
     0
100
AcDbPoint
 10
64.20772167400423
 20
830.7786769908772
 30
0.0
  0
POINT
  5
800
330
3FD
100
AcDbEntity
  8
Defpoints
 62
     0
100
AcDbPoint
 10
409.2077216740041
 20
830.7786769908772
 30
0.0
  0
POINT
  5
801
330
3FD
100
AcDbEntity
  8
Defpoints
 62
     0
100
AcDbPoint
 10
409.2077216740041
 20
914.434015573152
 30
0.0
  0
ENDBLK
  5
408
330
3FD
100
AcDbEntity
  8
0
100
AcDbBlockEnd
  0
BLOCK
  5
413
330
409
100
AcDbEntity
  8
0
100
AcDbBlockBegin
  2
*D11
 70
     1
 10
0.0
 20
0.0
 30
0.0
  3
*D11
  1
*D11
  0
LINE
  5
792
330
409
100
AcDbEntity
  8
外形寸法
 62
     0
370
    -2
100
AcDbLine
 10
850.3511174578446
 20
838.9036769908772
 30
0.0
 11
850.3511174578446
 21
918.67365711918
 31
0.0
  0
LINE
  5
793
330
409
100
AcDbEntity
  8
外形寸法
 62
     0
370
    -2
100
AcDbLine
 10
1160.351117457845
 20
838.9036769908772
 30
0.0
 11
1160.351117457845
 21
918.67365711918
 31
0.0
  0
LINE
  5
794
330
409
100
AcDbEntity
  8
外形寸法
 62
     0
370
    -2
100
AcDbLine
 10
873.3511174578446
 20
917.42365711918
 30
0.0
 11
1137.351117457845
 21
917.42365711918
 31
0.0
  0
INSERT
  5
795
330
409
100
AcDbEntity
  8
外形寸法
 62
     0
370
    -2
100
AcDbBlockReference
  2
_OPEN
 10
850.3511174578446
 20
917.42365711918
 30
0.0
 41
23.0
 42
23.0
 43
23.0
 50
180.0
  0
INSERT
  5
796
330
409
100
AcDbEntity
  8
外形寸法
 62
     0
370
    -2
100
AcDbBlockReference
  2
_OPEN
 10
1160.351117457845
 20
917.42365711918
 30
0.0
 41
23.0
 42
23.0
 43
23.0
  0
MTEXT
  5
797
330
409
100
AcDbEntity
  8
外形寸法
 62
     0
100
AcDbMText
 10
997.7043236609079
 20
930.92365711918
 30
0.0
 40
25.0
 41
0.0
 46
0.0
 71
     5
 72
     1
  1
\A1;310
 73
     1
 44
1.0
  0
POINT
  5
798
330
409
100
AcDbEntity
  8
Defpoints
 62
     0
100
AcDbPoint
 10
850.3511174578446
 20
838.2786769908772
 30
0.0
  0
POINT
  5
799
330
409
100
AcDbEntity
  8
Defpoints
 62
     0
100
AcDbPoint
 10
1160.351117457845
 20
838.2786769908772
 30
0.0
  0
POINT
  5
79A
330
409
100
AcDbEntity
  8
Defpoints
 62
     0
100
AcDbPoint
 10
1160.351117457845
 20
917.42365711918
 30
0.0
  0
ENDBLK
  5
414
330
409
100
AcDbEntity
  8
0
100
AcDbBlockEnd
  0
BLOCK
  5
568
330
55E
100
AcDbEntity
  8
0
100
AcDbBlockBegin
  2
*D12
 70
     1
 10
0.0
 20
0.0
 30
0.0
  3
*D12
  1
*D12
  0
LINE
  5
7E5
330
55E
100
AcDbEntity
  8
外形寸法
 62
     0
370
    -2
100
AcDbLine
 10
582.2077216740158
 20
136.1383698743185
 30
0.0
 11
582.2077216740158
 21
58.14638634137691
 31
0.0
  0
LINE
  5
7E6
330
55E
100
AcDbEntity
  8
外形寸法
 62
     0
370
    -2
100
AcDbLine
 10
692.2077216740158
 20
136.1383698743185
 30
0.0
 11
692.2077216740158
 21
58.14638634137691
 31
0.0
  0
LINE
  5
7E7
330
55E
100
AcDbEntity
  8
外形寸法
 62
     0
370
    -2
100
AcDbLine
 10
605.2077216740158
 20
59.39638634137691
 30
0.0
 11
669.2077216740158
 21
59.39638634137691
 31
0.0
  0
INSERT
  5
7E8
330
55E
100
AcDbEntity
  8
外形寸法
 62
     0
370
    -2
100
AcDbBlockReference
  2
_OPEN
 10
582.2077216740158
 20
59.39638634137691
 30
0.0
 41
23.0
 42
23.0
 43
23.0
 50
180.0
  0
INSERT
  5
7E9
330
55E
100
AcDbEntity
  8
外形寸法
 62
     0
370
    -2
100
AcDbBlockReference
  2
_OPEN
 10
692.2077216740158
 20
59.39638634137691
 30
0.0
 41
23.0
 42
23.0
 43
23.0
  0
MTEXT
  5
7EA
330
55E
100
AcDbEntity
  8
外形寸法
 62
     0
100
AcDbMText
 10
632.695028790954
 20
72.89638634137691
 30
0.0
 40
25.0
 41
0.0
 46
0.0
 71
     5
 72
     1
  1
\A1;110
 73
     1
 44
1.0
  0
POINT
  5
7EB
330
55E
100
AcDbEntity
  8
Defpoints
 62
     0
100
AcDbPoint
 10
582.2077216740158
 20
136.7633698743185
 30
0.0
  0
POINT
  5
7EC
330
55E
100
AcDbEntity
  8
Defpoints
 62
     0
100
AcDbPoint
 10
692.2077216740158
 20
136.7633698743185
 30
0.0
  0
POINT
  5
7ED
330
55E
100
AcDbEntity
  8
Defpoints
 62
     0
100
AcDbPoint
 10
692.2077216740158
 20
59.39638634137691
 30
0.0
  0
ENDBLK
  5
569
330
55E
100
AcDbEntity
  8
0
100
AcDbBlockEnd
  0
BLOCK
  5
62E
330
624
100
AcDbEntity
  8
0
100
AcDbBlockBegin
  2
*D13
 70
     1
 10
0.0
 20
0.0
 30
0.0
  3
*D13
  1
*D13
  0
LINE
  5
748
330
624
100
AcDbEntity
  8
外形寸法
 62
     0
370
    -2
100
AcDbLine
 10
63.58272167400742
 20
1286.656941609883
 30
0.0
 11
-74.80226808301263
 21
1286.656941609883
 31
0.0
  0
LINE
  5
749
330
624
100
AcDbEntity
  8
外形寸法
 62
     0
370
    -2
100
AcDbLine
 10
63.58272167400742
 20
996.6569416098828
 30
0.0
 11
-74.80226808301265
 21
996.6569416098828
 31
0.0
  0
LINE
  5
74A
330
624
100
AcDbEntity
  8
外形寸法
 62
     0
370
    -2
100
AcDbLine
 10
-73.55226808301263
 20
1263.656941609883
 30
0.0
 11
-73.55226808301265
 21
1019.656941609883
 31
0.0
  0
INSERT
  5
74B
330
624
100
AcDbEntity
  8
外形寸法
 62
     0
370
    -2
100
AcDbBlockReference
  2
_OPEN
 10
-73.55226808301263
 20
1286.656941609883
 30
0.0
 41
23.0
 42
23.0
 43
23.0
 50
90.0
  0
INSERT
  5
74C
330
624
100
AcDbEntity
  8
外形寸法
 62
     0
370
    -2
100
AcDbBlockReference
  2
_OPEN
 10
-73.55226808301265
 20
996.6569416098828
 30
0.0
 41
23.0
 42
23.0
 43
23.0
 50
270.0
  0
MTEXT
  5
74D
330
624
100
AcDbEntity
  8
外形寸法
 62
     0
100
AcDbMText
 10
-87.05226808301265
 20
1141.656941609883
 30
0.0
 40
25.0
 41
0.0
 46
0.0
 71
     5
 72
     1
  1
\A1;300
 11
4.900294729379998E-17
 21
1.0
 31
0.0
 73
     1
 44
1.0
  0
POINT
  5
74E
330
624
100
AcDbEntity
  8
Defpoints
 62
     0
100
AcDbPoint
 10
64.20772167400742
 20
1286.656941609883
 30
0.0
  0
POINT
  5
74F
330
624
100
AcDbEntity
  8
Defpoints
 62
     0
100
AcDbPoint
 10
64.20772167400742
 20
996.6569416098828
 30
0.0
  0
POINT
  5
750
330
624
100
AcDbEntity
  8
Defpoints
 62
     0
100
AcDbPoint
 10
-73.55226808301265
 20
996.6569416098828
 30
0.0
  0
ENDBLK
  5
62F
330
624
100
AcDbEntity
  8
0
100
AcDbBlockEnd
  0
BLOCK
  5
651
330
647
100
AcDbEntity
  8
0
100
AcDbBlockBegin
  2
*D14
 70
     1
 10
0.0
 20
0.0
 30
0.0
  3
*D14
  1
*D14
  0
LINE
  5
7B6
330
647
100
AcDbEntity
  8
外形寸法
 62
     0
370
    -2
100
AcDbLine
 10
582.2077216740158
 20
169.1536769908749
 30
0.0
 11
582.2077216740158
 21
58.14638634137691
 31
0.0
  0
LINE
  5
7B7
330
647
100
AcDbEntity
  8
外形寸法
 62
     0
370
    -2
100
AcDbLine
 10
34.20772167400422
 20
196.9226848931798
 30
0.0
 11
34.20772167400423
 21
58.14638634137691
 31
0.0
  0
LINE
  5
7B8
330
647
100
AcDbEntity
  8
外形寸法
 62
     0
370
    -2
100
AcDbLine
 10
559.2077216740158
 20
59.39638634137691
 30
0.0
 11
57.20772167400423
 21
59.39638634137691
 31
0.0
  0
INSERT
  5
7B9
330
647
100
AcDbEntity
  8
外形寸法
 62
     0
370
    -2
100
AcDbBlockReference
  2
_OPEN
 10
582.2077216740158
 20
59.39638634137691
 30
0.0
 41
23.0
 42
23.0
 43
23.0
  0
INSERT
  5
7BA
330
647
100
AcDbEntity
  8
外形寸法
 62
     0
370
    -2
100
AcDbBlockReference
  2
_OPEN
 10
34.20772167400423
 20
59.39638634137691
 30
0.0
 41
23.0
 42
23.0
 43
23.0
 50
180.0
  0
MTEXT
  5
7BB
330
647
100
AcDbEntity
  8
外形寸法
 62
     0
100
AcDbMText
 10
297.6045268448515
 20
72.89638634137691
 30
0.0
 40
25.0
 41
0.0
 46
0.0
 71
     5
 72
     1
  1
\A1;550
 73
     1
 44
1.0
  0
POINT
  5
7BC
330
647
100
AcDbEntity
  8
Defpoints
 62
     0
100
AcDbPoint
 10
582.2077216740158
 20
169.7786769908749
 30
0.0
  0
POINT
  5
7BD
330
647
100
AcDbEntity
  8
Defpoints
 62
     0
100
AcDbPoint
 10
34.20772167400422
 20
197.5476848931798
 30
0.0
  0
POINT
  5
7BE
330
647
100
AcDbEntity
  8
Defpoints
 62
     0
100
AcDbPoint
 10
34.20772167400422
 20
59.39638634137691
 30
0.0
  0
ENDBLK
  5
652
330
647
100
AcDbEntity
  8
0
100
AcDbBlockEnd
  0
BLOCK
  5
65E
330
654
100
AcDbEntity
  8
0
100
AcDbBlockBegin
  2
*D15
 70
     1
 10
0.0
 20
0.0
 30
0.0
  3
*D15
  1
*D15
  0
LINE
  5
7C8
330
654
100
AcDbEntity
  8
外形寸法
 62
     0
370
    -2
100
AcDbLine
 10
64.20772167400423
 20
214.0422337949562
 30
0.0
 11
64.20772167400423
 21
102.7935681846994
 31
0.0
  0
LINE
  5
7C9
330
654
100
AcDbEntity
  8
外形寸法
 62
     0
370
    -2
100
AcDbLine
 10
34.20772167400423
 20
459.8471800415165
 30
0.0
 11
34.20772167400421
 21
102.7935681846994
 31
0.0
  0
LINE
  5
7CA
330
654
100
AcDbEntity
  8
外形寸法
 62
     0
370
    -2
100
AcDbLine
 10
87.20772167400423
 20
104.0435681846994
 30
0.0
 11
110.2077216740042
 21
104.0435681846994
 31
0.0
  0
LINE
  5
7CB
330
654
100
AcDbEntity
  8
外形寸法
 62
     0
370
    -2
100
AcDbLine
 10
11.20772167400421
 20
104.0435681846994
 30
0.0
 11
-51.29227832599579
 21
104.0435681846994
 31
0.0
  0
LINE
  5
7CC
330
654
100
AcDbEntity
  8
外形寸法
 62
     0
370
    -2
100
AcDbLine
 10
64.20772167400423
 20
104.0435681846994
 30
0.0
 11
34.20772167400421
 21
104.0435681846994
 31
0.0
  0
INSERT
  5
7CD
330
654
100
AcDbEntity
  8
外形寸法
 62
     0
370
    -2
100
AcDbBlockReference
  2
_OPEN
 10
64.20772167400423
 20
104.0435681846994
 30
0.0
 41
23.0
 42
23.0
 43
23.0
 50
180.0
  0
INSERT
  5
7CE
330
654
100
AcDbEntity
  8
外形寸法
 62
     0
370
    -2
100
AcDbBlockReference
  2
_OPEN
 10
34.20772167400421
 20
104.0435681846994
 30
0.0
 41
23.0
 42
23.0
 43
23.0
  0
MTEXT
  5
7CF
330
654
100
AcDbEntity
  8
外形寸法
 62
     0
100
AcDbMText
 10
-31.54227832599579
 20
117.5435681846994
 30
0.0
 40
25.0
 41
0.0
 46
0.0
 71
     5
 72
     1
  1
\A1;30
 73
     1
 44
1.0
  0
POINT
  5
7D0
330
654
100
AcDbEntity
  8
Defpoints
 62
     0
100
AcDbPoint
 10
64.20772167400423
 20
214.6672337949562
 30
0.0
  0
POINT
  5
7D1
330
654
100
AcDbEntity
  8
Defpoints
 62
     0
100
AcDbPoint
 10
34.20772167400423
 20
460.4721800415165
 30
0.0
  0
POINT
  5
7D2
330
654
100
AcDbEntity
  8
Defpoints
 62
     0
100
AcDbPoint
 10
34.20772167400421
 20
104.0435681846994
 30
0.0
  0
ENDBLK
  5
65F
330
654
100
AcDbEntity
  8
0
100
AcDbBlockEnd
  0
BLOCK
  5
66B
330
661
100
AcDbEntity
  8
0
100
AcDbBlockBegin
  2
*D16
 70
     1
 10
0.0
 20
0.0
 30
0.0
  3
*D16
  1
*D16
  0
LINE
  5
7A4
330
661
100
AcDbEntity
  8
外形寸法
 62
     0
370
    -2
100
AcDbLine
 10
97.58272167400423
 20
163.2786769908772
 30
0.0
 11
-74.80226808301279
 21
163.2786769908772
 31
0.0
  0
LINE
  5
7A5
330
661
100
AcDbEntity
  8
外形寸法
 62
     0
370
    -2
100
AcDbLine
 10
97.58272167400428
 20
838.2786769908772
 30
0.0
 11
-74.80226808301275
 21
838.2786769908773
 31
0.0
  0
LINE
  5
7A6
330
661
100
AcDbEntity
  8
外形寸法
 62
     0
370
    -2
100
AcDbLine
 10
-73.55226808301279
 20
186.2786769908772
 30
0.0
 11
-73.55226808301275
 21
815.2786769908773
 31
0.0
  0
INSERT
  5
7A7
330
661
100
AcDbEntity
  8
外形寸法
 62
     0
370
    -2
100
AcDbBlockReference
  2
_OPEN
 10
-73.55226808301279
 20
163.2786769908772
 30
0.0
 41
23.0
 42
23.0
 43
23.0
 50
270.0
  0
INSERT
  5
7A8
330
661
100
AcDbEntity
  8
外形寸法
 62
     0
370
    -2
100
AcDbBlockReference
  2
_OPEN
 10
-73.55226808301275
 20
838.2786769908773
 30
0.0
 41
23.0
 42
23.0
 43
23.0
 50
90.0
  0
MTEXT
  5
7A9
330
661
100
AcDbEntity
  8
外形寸法
 62
     0
100
AcDbMText
 10
-87.05226808301278
 20
500.7786769908772
 30
0.0
 40
25.0
 41
0.0
 46
0.0
 71
     5
 72
     1
  1
\A1;680
 11
6.315935428978668E-17
 21
1.0
 31
0.0
 73
     1
 44
1.0
  0
POINT
  5
7AA
330
661
100
AcDbEntity
  8
Defpoints
 62
     0
100
AcDbPoint
 10
98.20772167400423
 20
163.2786769908772
 30
0.0
  0
POINT
  5
7AB
330
661
100
AcDbEntity
  8
Defpoints
 62
     0
100
AcDbPoint
 10
98.20772167400428
 20
838.2786769908772
 30
0.0
  0
POINT
  5
7AC
330
661
100
AcDbEntity
  8
Defpoints
 62
     0
100
AcDbPoint
 10
-73.55226808301275
 20
838.2786769908772
 30
0.0
  0
ENDBLK
  5
66C
330
661
100
AcDbEntity
  8
0
100
AcDbBlockEnd
  0
BLOCK
  5
8D7
330
8CD
100
AcDbEntity
  8
0
100
AcDbBlockBegin
  2
*D17
 70
     1
 10
0.0
 20
0.0
 30
0.0
  3
*D17
  1
*D17
  0
LINE
  5
91A
330
8CD
100
AcDbEntity
  8
外形寸法
 62
     0
370
    -2
100
AcDbLine
 10
1639.702865523014
 20
645.2816215209803
 30
0.0
 11
1639.702865523014
 21
555.7308741737118
 31
0.0
  0
LINE
  5
91B
330
8CD
100
AcDbEntity
  8
外形寸法
 62
     0
370
    -2
100
AcDbLine
 10
1865.702865523014
 20
763.7816215209803
 30
0.0
 11
1865.702865523014
 21
555.7308741737118
 31
0.0
  0
LINE
  5
91C
330
8CD
100
AcDbEntity
  8
外形寸法
 62
     0
370
    -2
100
AcDbLine
 10
1662.702865523014
 20
556.9808741737118
 30
0.0
 11
1842.702865523014
 21
556.9808741737118
 31
0.0
  0
INSERT
  5
91D
330
8CD
100
AcDbEntity
  8
外形寸法
 62
     0
370
    -2
100
AcDbBlockReference
  2
_OPEN
 10
1639.702865523014
 20
556.9808741737118
 30
0.0
 41
23.0
 42
23.0
 43
23.0
 50
180.0
  0
INSERT
  5
91E
330
8CD
100
AcDbEntity
  8
外形寸法
 62
     0
370
    -2
100
AcDbBlockReference
  2
_OPEN
 10
1865.702865523014
 20
556.9808741737118
 30
0.0
 41
23.0
 42
23.0
 43
23.0
  0
MTEXT
  5
91F
330
8CD
100
AcDbEntity
  8
外形寸法
 62
     0
100
AcDbMText
 10
1752.702865523014
 20
570.4808741737118
 30
0.0
 40
25.0
 41
0.0
 46
0.0
 71
     5
 72
     1
  1
\A1;226
 73
     1
 44
1.0
  0
POINT
  5
920
330
8CD
100
AcDbEntity
  8
Defpoints
 62
     0
100
AcDbPoint
 10
1639.702865523014
 20
645.9066215209803
 30
0.0
  0
POINT
  5
921
330
8CD
100
AcDbEntity
  8
Defpoints
 62
     0
100
AcDbPoint
 10
1865.702865523014
 20
764.4066215209803
 30
0.0
  0
POINT
  5
922
330
8CD
100
AcDbEntity
  8
Defpoints
 62
     0
100
AcDbPoint
 10
1865.702865523014
 20
556.9808741737118
 30
0.0
  0
ENDBLK
  5
8D8
330
8CD
100
AcDbEntity
  8
0
100
AcDbBlockEnd
  0
BLOCK
  5
8ED
330
8E3
100
AcDbEntity
  8
0
100
AcDbBlockBegin
  2
*D18
 70
     1
 10
0.0
 20
0.0
 30
0.0
  3
*D18
  1
*D18
  0
LINE
  5
911
330
8E3
100
AcDbEntity
  8
外形寸法
 62
     0
370
    -2
100
AcDbLine
 10
1639.702865523014
 20
598.0959300395527
 30
0.0
 11
1639.702865523014
 21
555.7308741737118
 31
0.0
  0
LINE
  5
912
330
8E3
100
AcDbEntity
  8
外形寸法
 62
     0
370
    -2
100
AcDbLine
 10
1328.702865523014
 20
598.0959300395527
 30
0.0
 11
1328.702865523014
 21
555.7308741737118
 31
0.0
  0
LINE
  5
913
330
8E3
100
AcDbEntity
  8
外形寸法
 62
     0
370
    -2
100
AcDbLine
 10
1616.702865523014
 20
556.9808741737118
 30
0.0
 11
1351.702865523014
 21
556.9808741737118
 31
0.0
  0
INSERT
  5
914
330
8E3
100
AcDbEntity
  8
外形寸法
 62
     0
370
    -2
100
AcDbBlockReference
  2
_OPEN
 10
1639.702865523014
 20
556.9808741737118
 30
0.0
 41
23.0
 42
23.0
 43
23.0
  0
INSERT
  5
915
330
8E3
100
AcDbEntity
  8
外形寸法
 62
     0
370
    -2
100
AcDbBlockReference
  2
_OPEN
 10
1328.702865523014
 20
556.9808741737118
 30
0.0
 41
23.0
 42
23.0
 43
23.0
 50
180.0
  0
MTEXT
  5
916
330
8E3
100
AcDbEntity
  8
外形寸法
 62
     0
100
AcDbMText
 10
1484.202865523014
 20
570.4808741737118
 30
0.0
 40
25.0
 41
0.0
 46
0.0
 71
     5
 72
     1
  1
\A1;311
 73
     1
 44
1.0
  0
POINT
  5
917
330
8E3
100
AcDbEntity
  8
Defpoints
 62
     0
100
AcDbPoint
 10
1639.702865523014
 20
598.7209300395527
 30
0.0
  0
POINT
  5
918
330
8E3
100
AcDbEntity
  8
Defpoints
 62
     0
100
AcDbPoint
 10
1328.702865523014
 20
598.7209300395527
 30
0.0
  0
POINT
  5
919
330
8E3
100
AcDbEntity
  8
Defpoints
 62
     0
100
AcDbPoint
 10
1328.702865523014
 20
556.9808741737118
 30
0.0
  0
ENDBLK
  5
8EE
330
8E3
100
AcDbEntity
  8
0
100
AcDbBlockEnd
  0
BLOCK
  5
8FA
330
8F0
100
AcDbEntity
  8
0
100
AcDbBlockBegin
  2
*D19
 70
     1
 10
0.0
 20
0.0
 30
0.0
  3
*D19
  1
*D19
  0
LINE
  5
908
330
8F0
100
AcDbEntity
  8
外形寸法
 62
     0
370
    -2
100
AcDbLine
 10
1889.991965202137
 20
625.9066215209803
 30
0.0
 11
1943.605226699251
 21
625.9066215209803
 31
0.0
  0
LINE
  5
909
330
8F0
100
AcDbEntity
  8
外形寸法
 62
     0
370
    -2
100
AcDbLine
 10
1889.991965202137
 20
775.9066215209803
 30
0.0
 11
1943.605226699251
 21
775.9066215209803
 31
0.0
  0
LINE
  5
90A
330
8F0
100
AcDbEntity
  8
外形寸法
 62
     0
370
    -2
100
AcDbLine
 10
1942.355226699251
 20
648.9066215209803
 30
0.0
 11
1942.355226699251
 21
752.9066215209803
 31
0.0
  0
INSERT
  5
90B
330
8F0
100
AcDbEntity
  8
外形寸法
 62
     0
370
    -2
100
AcDbBlockReference
  2
_OPEN
 10
1942.355226699251
 20
625.9066215209803
 30
0.0
 41
23.0
 42
23.0
 43
23.0
 50
270.0
  0
INSERT
  5
90C
330
8F0
100
AcDbEntity
  8
外形寸法
 62
     0
370
    -2
100
AcDbBlockReference
  2
_OPEN
 10
1942.355226699251
 20
775.9066215209803
 30
0.0
 41
23.0
 42
23.0
 43
23.0
 50
90.0
  0
MTEXT
  5
90D
330
8F0
100
AcDbEntity
  8
外形寸法
 62
     0
100
AcDbMText
 10
1928.855226699251
 20
700.9066215209806
 30
0.0
 40
25.0
 41
0.0
 46
0.0
 71
     5
 72
     1
  1
\A1;150
 11
6.123031769111886E-17
 21
1.0
 31
0.0
 73
     1
 44
1.0
  0
POINT
  5
90E
330
8F0
100
AcDbEntity
  8
Defpoints
 62
     0
100
AcDbPoint
 10
1889.366965202137
 20
625.9066215209803
 30
0.0
  0
POINT
  5
90F
330
8F0
100
AcDbEntity
  8
Defpoints
 62
     0
100
AcDbPoint
 10
1889.366965202137
 20
775.9066215209803
 30
0.0
  0
POINT
  5
910
330
8F0
100
AcDbEntity
  8
Defpoints
 62
     0
100
AcDbPoint
 10
1942.355226699251
 20
775.9066215209803
 30
0.0
  0
ENDBLK
  5
8FB
330
8F0
100
AcDbEntity
  8
0
100
AcDbBlockEnd
  0
BLOCK
  5
905
330
8FE
100
AcDbEntity
  8
0
100
AcDbBlockBegin
  2
*D20
 70
     1
 10
0.0
 20
0.0
 30
0.0
  3
*D20
  1
*D20
  0
LINE
  5
923
330
8FE
100
AcDbEntity
  8
外形寸法
 62
     0
370
    -2
100
AcDbLine
 10
1623.850218769927
 20
1062.836889951841
 30
0.0
 11
1807.555512276101
 21
1292.376353090123
 31
0.0
  0
INSERT
  5
924
330
8FE
100
AcDbEntity
  8
外形寸法
 62
     0
370
    -2
100
AcDbBlockReference
  2
_OPEN
 10
1621.97567495864
 20
1060.494650532062
 30
0.0
 41
3.0
 42
3.0
 43
3.0
 50
231.3289726889203
  0
INSERT
  5
925
330
8FE
100
AcDbEntity
  8
外形寸法
 62
     0
370
    -2
100
AcDbBlockReference
  2
_OPEN
 10
1809.430056087388
 20
1294.718592509901
 30
0.0
 41
3.0
 42
3.0
 43
3.0
 50
51.32897268892033
  0
MTEXT
  5
926
330
8FE
100
AcDbEntity
  8
外形寸法
 62
     0
100
AcDbMText
 10
1760.133170614865
 20
1254.727471483737
 30
0.0
 40
25.0
 41
0.0
 46
0.0
 71
     5
 72
     1
  1
\A1;∅300
 11
0.6248479370958295
 21
0.780746473259461
 31
0.0
 73
     1
 44
1.0
  0
POINT
  5
927
330
8FE
100
AcDbEntity
  8
Defpoints
 62
     0
100
AcDbPoint
 10
1809.430056087388
 20
1294.718592509901
 30
0.0
  0
POINT
  5
928
330
8FE
100
AcDbEntity
  8
Defpoints
 62
     0
100
AcDbPoint
 10
1621.97567495864
 20
1060.494650532062
 30
0.0
  0
ENDBLK
  5
906
330
8FE
100
AcDbEntity
  8
0
100
AcDbBlockEnd
  0
ENDSEC
  0
SECTION
  2
ENTITIES
  0
DIMENSION
  5
293
330
18
100
AcDbEntity
  8
外形寸法
100
AcDbDimension
280
     0
  2
*D4
 10
773.0946139100239
 20
838.2786769908772
 30
0.0
 11
759.5946139100239
 21
598.7786769908772
 31
0.0
 70
    32
  1
484
 71
     5
 42
479.0
 73
     0
 74
     0
 75
     0
  3
STANDARD$0
100
AcDbAlignedDimension
 13
837.4109758535328
 23
359.2786769908772
 33
0.0
 14
837.4109758535328
 24
838.2786769908772
 34
0.0
 50
90.0
100
AcDbRotatedDimension
1001
ACAD
1000
DSTYLE
1002
{
1070
    40
1040
1.0
1002
}
  0
LINE
  5
296
330
18
100
AcDbEntity
  8
外形
  6
CENTER
100
AcDbLine
 10
1005.351117457845
 20
866.0512165765878
 30
0.0
 11
1005.351117457845
 21
140.2867702139266
 31
0.0
  0
LINE
  5
297
330
18
100
AcDbEntity
  8
外形
100
AcDbLine
 10
1139.351117457845
 20
359.2786769908772
 30
0.0
 11
1139.351117457845
 21
832.2786769908772
 31
0.0
  0
LINE
  5
298
330
18
100
AcDbEntity
  8
外形
100
AcDbLine
 10
871.3511174578448
 20
359.2786769908772
 30
0.0
 11
871.3511174578455
 21
713.7786769908774
 31
0.0
  0
LINE
  5
299
330
18
100
AcDbEntity
  8
外形
100
AcDbLine
 10
386.2077216740044
 20
359.2786769908772
 30
0.0
 11
386.2077216740044
 21
714.9786769908786
 31
0.0
  0
LINE
  5
29A
330
18
100
AcDbEntity
  8
外形
100
AcDbLine
 10
860.3511174578448
 20
832.2786769908772
 30
0.0
 11
860.3511174578439
 21
183.2786769908774
 31
0.0
  0
LINE
  5
29B
330
18
100
AcDbEntity
  8
外形
100
AcDbLine
 10
375.2077216740041
 20
183.2786769908772
 30
0.0
 11
375.2077216740041
 21
714.9786769908786
 31
0.0
  0
LINE
  5
29C
330
18
100
AcDbEntity
  8
外形
100
AcDbLine
 10
64.20772167400423
 20
709.7786769908772
 30
0.0
 11
64.20772167400423
 21
183.2786769908772
 31
0.0
  0
LINE
  5
29D
330
18
100
AcDbEntity
  8
外形
100
AcDbLine
 10
409.2077216740041
 20
360.1786769908771
 30
0.0
 11
409.2077216740041
 21
714.9786769908786
 31
0.0
  0
LINE
  5
29E
330
18
100
AcDbEntity
  8
外形
100
AcDbLine
 10
376.2077216740044
 20
829.8786769908772
 30
0.0
 11
376.2077216740044
 21
359.2786769908772
 31
0.0
  0
LINE
  5
29F
330
18
100
AcDbEntity
  8
外形
100
AcDbLine
 10
1150.351117457845
 20
832.2786769908772
 30
0.0
 11
1150.351117457846
 21
183.2786769908774
 31
0.0
  0
DIMENSION
  5
2A0
330
18
100
AcDbEntity
  8
外形寸法
100
AcDbDimension
280
     0
  2
*D5
 10
64.20772167400435
 20
104.0435681846994
 30
0.0
 11
219.7077216740042
 21
117.5435681846994
 31
0.0
 70
    32
  1
313
 71
     5
 42
310.9999999999998
 73
     0
 74
     0
 75
     0
  3
STANDARD$0
100
AcDbAlignedDimension
 13
375.2077216740041
 23
169.7786769908788
 33
0.0
 14
64.20772167400435
 24
149.6395445555792
 34
0.0
100
AcDbRotatedDimension
1001
ACAD
1000
DSTYLE
1002
{
1070
    40
1040
1.0
1002
}
  0
LINE
  5
2A2
330
18
100
AcDbEntity
  8
外形
100
AcDbLine
 10
64.20772167400423
 20
183.2786769908772
 30
0.0
 11
375.2077216740041
 21
183.2786769908772
 31
0.0
  0
LINE
  5
2A3
330
18
100
AcDbEntity
  8
外形
100
AcDbLine
 10
72.20772167400423
 20
163.2786769908772
 30
0.0
 11
98.20772167400423
 21
163.2786769908772
 31
0.0
  0
LINE
  5
2A4
330
18
100
AcDbEntity
  8
外形
100
AcDbLine
 10
69.207721674004
 20
183.2786769908772
 30
0.0
 11
72.20772167400423
 21
163.2786769908772
 31
0.0
  0
LINE
  5
2A5
330
18
100
AcDbEntity
  8
外形
100
AcDbLine
 10
98.20772167400423
 20
163.2786769908772
 30
0.0
 11
101.2077216740042
 21
183.2786769908772
 31
0.0
  0
DIMENSION
  5
2A6
330
18
100
AcDbEntity
  8
外形寸法
100
AcDbDimension
280
     0
  2
*D6
 10
1150.351117457845
 20
74.5974862753593
 30
0.0
 11
1005.351117457844
 21
88.0974862753593
 31
0.0
 70
    32
  1
300
 71
     5
 42
290.0000000000011
 73
     0
 74
     0
 75
     0
  3
STANDARD$0
100
AcDbAlignedDimension
 13
860.3511174578439
 23
243.2786769908747
 33
0.0
 14
1150.351117457845
 24
243.2786769908752
 34
0.0
100
AcDbRotatedDimension
1001
ACAD
1000
DSTYLE
1002
{
1070
    40
1040
1.0
1002
}
  0
LINE
  5
2A7
330
18
100
AcDbEntity
  8
外形
100
AcDbLine
 10
1005.351117457845
 20
359.2786769908772
 30
0.0
 11
861.3511174578448
 21
359.2786769908772
 31
0.0
  0
LINE
  5
2A8
330
18
100
AcDbEntity
  8
外形
100
AcDbLine
 10
868.3511174578448
 20
163.2786769908772
 30
0.0
 11
894.3511174578448
 21
163.2786769908773
 31
0.0
  0
LINE
  5
2A9
330
18
100
AcDbEntity
  8
外形
100
AcDbLine
 10
860.3511174578439
 20
183.2786769908774
 30
0.0
 11
1005.351117457845
 21
183.278676990877
 31
0.0
  0
LINE
  5
2AA
330
18
100
AcDbEntity
  8
外形
100
AcDbLine
 10
1005.351117457833
 20
199.7786769908747
 30
0.0
 11
870.3511174578331
 21
199.7786769908752
 31
0.0
  0
LINE
  5
2AB
330
18
100
AcDbEntity
  8
外形
100
AcDbLine
 10
870.351117457833
 20
186.2786769908752
 30
0.0
 11
1005.351117457833
 21
186.2786769908747
 31
0.0
  0
LINE
  5
2AC
330
18
100
AcDbEntity
  8
外形
100
AcDbLine
 10
1005.351117457833
 20
169.7786769908747
 30
0.0
 11
877.3511174578331
 21
169.7786769908749
 31
0.0
  0
LINE
  5
2AD
330
18
100
AcDbEntity
  8
外形
100
AcDbLine
 10
470.5940252839785
 20
332.1556626379773
 30
0.0
 11
537.0603045278106
 21
332.1556626379773
 31
0.0
  0
LINE
  5
2AE
330
18
100
AcDbEntity
  8
外形
100
AcDbLine
 10
537.0603045278106
 20
332.1556626379773
 30
0.0
 11
397.0603045278106
 21
332.1556626379775
 31
0.0
  0
DIMENSION
  5
2B1
330
18
100
AcDbEntity
  8
外形寸法
100
AcDbDimension
280
     0
  2
*D7
 10
582.2077216740158
 20
104.0435681846994
 30
0.0
 11
478.7077216740099
 21
117.5435681846994
 31
0.0
 70
    32
 71
     5
 42
207.0000000000118
 73
     0
 74
     0
 75
     0
  3
STANDARD$0
100
AcDbAlignedDimension
 13
375.2077216740041
 23
137.3883698743185
 33
0.0
 14
582.2077216740158
 24
137.3883698743185
 34
0.0
100
AcDbRotatedDimension
1001
ACAD
1000
DSTYLE
1002
{
1070
    40
1040
1.0
1002
}
  0
LINE
  5
2B2
330
18
100
AcDbEntity
  8
外形
100
AcDbLine
 10
572.0603045278106
 20
199.7556626379728
 30
0.0
 11
375.2077216740041
 21
199.7556626379728
 31
0.0
  0
LINE
  5
2B3
330
18
100
AcDbEntity
  8
外形
100
AcDbLine
 10
375.2077216740041
 20
184.7786769908788
 30
0.0
 11
576.5811241144036
 21
184.7786769908749
 31
0.0
  0
LINE
  5
2B4
330
18
100
AcDbEntity
  8
外形
100
AcDbLine
 10
368.2077216740042
 20
163.2786769908772
 30
0.0
 11
371.7342612881735
 21
183.2786769908772
 31
0.0
  0
LINE
  5
2B5
330
18
100
AcDbEntity
  8
外形
100
AcDbLine
 10
342.2077216740042
 20
163.2786769908772
 30
0.0
 11
368.2077216740042
 21
163.2786769908772
 31
0.0
  0
LINE
  5
2B6
330
18
100
AcDbEntity
  8
外形
100
AcDbLine
 10
339.2077216740041
 20
183.2786769908772
 30
0.0
 11
342.2077216740042
 21
163.2786769908772
 31
0.0
  0
LINE
  5
2B7
330
18
100
AcDbEntity
  8
外形
100
AcDbLine
 10
373.7077216740041
 20
169.7786769908788
 30
0.0
 11
374.207721674004
 21
183.2786769908772
 31
0.0
  0
LINE
  5
2B8
330
18
100
AcDbEntity
  8
外形
100
AcDbLine
 10
375.2077216740041
 20
169.7786769908788
 30
0.0
 11
373.7077216740041
 21
169.7786769908788
 31
0.0
  0
LINE
  5
2B9
330
18
100
AcDbEntity
  8
外形
100
AcDbLine
 10
375.2077216740041
 20
183.2786769908772
 30
0.0
 11
375.2077216740041
 21
169.7786769908788
 31
0.0
  0
LINE
  5
2BA
330
18
100
AcDbEntity
  8
外形
100
AcDbLine
 10
397.0603045278106
 20
332.1556626379775
 30
0.0
 11
397.0603045278106
 21
262.2556626379774
 31
0.0
  0
LINE
  5
2BB
330
18
100
AcDbEntity
  8
外形
100
AcDbLine
 10
382.0603045278106
 20
262.2556626379774
 30
0.0
 11
382.0603045278106
 21
199.7556626379728
 31
0.0
  0
LINE
  5
2BC
330
18
100
AcDbEntity
  8
外形
100
AcDbLine
 10
376.2077216740044
 20
359.2786769908772
 30
0.0
 11
409.2077216740041
 21
359.2786769908772
 31
0.0
  0
LINE
  5
2BD
330
18
100
AcDbEntity
  8
外形
100
AcDbLine
 10
376.2077216740044
 20
359.2786769908772
 30
0.0
 11
386.2077216740044
 21
359.2786769908772
 31
0.0
  0
LINE
  5
2BE
330
18
100
AcDbEntity
  8
外形
100
AcDbLine
 10
409.2077216740041
 20
359.2786769908772
 30
0.0
 11
409.2077216740041
 21
365.6901843119123
 31
0.0
  0
DIMENSION
  5
2C2
330
18
100
AcDbEntity
  8
外形寸法
100
AcDbDimension
280
     0
  2
*D8
 10
773.0946139100238
 20
183.2786769908775
 30
0.0
 11
759.5946139100238
 21
271.2786769908774
 31
0.0
 70
    32
 71
     5
 42
175.9999999999997
 73
     0
 74
     0
 75
     0
  3
STANDARD$0
100
AcDbAlignedDimension
 13
861.3511174578448
 23
359.2786769908772
 33
0.0
 14
845.9531126772821
 24
183.2786769908774
 34
0.0
 50
90.0
100
AcDbRotatedDimension
1001
ACAD
1000
DSTYLE
1002
{
1070
    40
1040
1.0
1002
}
  0
DIMENSION
  5
2C3
330
18
100
AcDbEntity
  8
外形寸法
100
AcDbDimension
280
     0
  2
*D9
 10
773.0946139100238
 20
163.2786769908772
 30
0.0
 11
759.5946139100238
 21
97.52867699087737
 31
0.0
 70
    32
 71
     5
 42
20.00000000000023
 73
     0
 74
     0
 75
     0
  3
STANDARD$0
100
AcDbAlignedDimension
 13
860.3511174578439
 23
183.2786769908774
 33
0.0
 14
840.9841092890842
 24
163.2786769908772
 34
0.0
 50
90.0
100
AcDbRotatedDimension
1001
ACAD
1000
DSTYLE
1002
{
1070
    40
1040
1.0
1002
}
  0
LINE
  5
2C4
330
18
100
AcDbEntity
  8
外形
100
AcDbLine
 10
870.3511174578331
 20
199.7786769908752
 30
0.0
 11
870.351117457833
 21
186.2786769908752
 31
0.0
  0
LINE
  5
2C5
330
18
100
AcDbEntity
  8
外形
100
AcDbLine
 10
870.3511174578331
 20
199.7786769908752
 30
0.0
 11
870.351117457833
 21
184.7786769908777
 31
0.0
  0
LINE
  5
2C6
330
18
100
AcDbEntity
  8
外形
100
AcDbLine
 10
871.8511174578331
 20
199.7786769908752
 30
0.0
 11
871.8511174578331
 21
186.2786769908752
 31
0.0
  0
LINE
  5
2C7
330
18
100
AcDbEntity
  8
外形
100
AcDbLine
 10
862.8511174578446
 20
213.2786769908774
 30
0.0
 11
862.8511174578447
 21
184.7786769908777
 31
0.0
  0
LINE
  5
2C8
330
18
100
AcDbEntity
  8
外形
100
AcDbLine
 10
576.5811241144036
 20
198.7786769908774
 30
0.0
 11
572.678685090025
 21
199.6567257713627
 31
0.0
  0
LINE
  5
2C9
330
18
100
AcDbEntity
  8
外形
100
AcDbLine
 10
582.2077216740158
 20
198.7786769908774
 30
0.0
 11
572.0603045278106
 21
199.7556626379728
 31
0.0
  0
LINE
  5
2CB
330
18
100
AcDbEntity
  8
外形
100
AcDbLine
 10
532.2077216740042
 20
163.2786769908772
 30
0.0
 11
558.2077216740042
 21
163.2786769908772
 31
0.0
  0
LINE
  5
2CC
330
18
100
AcDbEntity
  8
外形
100
AcDbLine
 10
529.207721674004
 20
183.2786769908772
 30
0.0
 11
532.2077216740042
 21
163.2786769908772
 31
0.0
  0
LINE
  5
2CD
330
18
100
AcDbEntity
  8
外形
100
AcDbLine
 10
558.2077216740042
 20
163.2786769908772
 30
0.0
 11
561.2077216740042
 21
183.2786769908772
 31
0.0
  0
LINE
  5
2CE
330
18
100
AcDbEntity
  8
外形
100
AcDbLine
 10
576.5811241144036
 20
186.2786769908774
 30
0.0
 11
576.5811241144036
 21
198.7786769908774
 31
0.0
  0
LINE
  5
2CF
330
18
100
AcDbEntity
  8
外形
100
AcDbLine
 10
582.2077216740158
 20
169.7786769908749
 30
0.0
 11
582.2077216740158
 21
198.7786769908774
 31
0.0
  0
LINE
  5
2D0
330
18
100
AcDbEntity
  8
外形
100
AcDbLine
 10
578.7077216740158
 20
169.7786769908749
 30
0.0
 11
582.2077216740158
 21
169.7786769908749
 31
0.0
  0
LINE
  5
2D1
330
18
100
AcDbEntity
  8
外形
100
AcDbLine
 10
578.7077216740158
 20
184.7786769908749
 30
0.0
 11
578.7077216740158
 21
169.7786769908749
 31
0.0
  0
LINE
  5
2D2
330
18
100
AcDbEntity
  8
外形
100
AcDbLine
 10
576.5811241144036
 20
184.7786769908749
 30
0.0
 11
578.7077216740158
 21
184.7786769908749
 31
0.0
  0
LINE
  5
2D3
330
18
100
AcDbEntity
  8
外形
100
AcDbLine
 10
872.3511174578331
 20
186.2786769908752
 30
0.0
 11
872.3511174578331
 21
174.7786769908752
 31
0.0
  0
ARC
  5
2D4
330
18
100
AcDbEntity
  8
外形
100
AcDbCircle
 10
877.3511174578332
 20
174.7786769908749
 30
0.0
 40
5.0
100
AcDbArc
 50
180.0
 51
270.0
  0
LINE
  5
2D5
330
18
100
AcDbEntity
  8
外形
100
AcDbLine
 10
865.3511174578448
 20
183.2786769908772
 30
0.0
 11
868.3511174578448
 21
163.2786769908772
 31
0.0
  0
LINE
  5
2D6
330
18
100
AcDbEntity
  8
外形
100
AcDbLine
 10
862.8511174578447
 20
184.7786769908777
 30
0.0
 11
872.3511174578331
 21
184.7786769908777
 31
0.0
  0
LINE
  5
2D8
330
18
100
AcDbEntity
  8
外形
100
AcDbLine
 10
572.0603045278106
 20
238.1924574935797
 30
0.0
 11
673.9307774176859
 21
279.4870286786775
 31
0.0
  0
LINE
  5
2D9
330
18
100
AcDbEntity
  8
外形
100
AcDbLine
 10
537.0603045278106
 20
332.1556626379773
 30
0.0
 11
537.0603045278106
 21
262.4216091870733
 31
0.0
  0
LINE
  5
2DA
330
18
100
AcDbEntity
  8
外形
100
AcDbLine
 10
572.0603045278106
 20
260.0762462858048
 30
0.0
 11
665.8892812949963
 21
299.3247697969125
 31
0.0
  0
LINE
  5
2DB
330
18
100
AcDbEntity
  8
外形
100
AcDbLine
 10
572.0603045278106
 20
262.2556626379774
 30
0.0
 11
572.0603045278106
 21
199.7556626379728
 31
0.0
  0
LINE
  5
2DC
330
18
100
AcDbEntity
  8
外形
100
AcDbLine
 10
870.3511174578446
 20
359.2786769908772
 30
0.0
 11
870.3511174578446
 21
213.2786769908774
 31
0.0
  0
LINE
  5
2DD
330
18
100
AcDbEntity
  8
外形
100
AcDbLine
 10
870.3511174578446
 20
213.2786769908774
 30
0.0
 11
860.3511174578439
 21
213.2786769908774
 31
0.0
  0
LINE
  5
2DE
330
18
100
AcDbEntity
  8
外形
100
AcDbLine
 10
861.3511174578448
 20
359.2786769908772
 30
0.0
 11
871.3511174578448
 21
359.2786769908772
 31
0.0
  0
LINE
  5
2DF
330
18
100
AcDbEntity
  8
外形
100
AcDbLine
 10
1105.864378217688
 20
262.2786769908772
 30
0.0
 11
1105.864378217688
 21
186.2786769908751
 31
0.0
  0
LINE
  5
2E0
330
18
100
AcDbEntity
  8
外形
100
AcDbLine
 10
904.8378566980014
 20
262.2786769908772
 30
0.0
 11
904.8378566980011
 21
186.2786769908751
 31
0.0
  0
LINE
  5
2E1
330
18
100
AcDbEntity
  8
外形
100
AcDbLine
 10
1138.851117457856
 20
199.7786769908752
 30
0.0
 11
1138.851117457856
 21
186.2786769908752
 31
0.0
  0
LINE
  5
2E2
330
18
100
AcDbEntity
  8
外形
100
AcDbLine
 10
1140.351117457856
 20
199.7786769908752
 30
0.0
 11
1140.351117457856
 21
184.7786769908777
 31
0.0
  0
LINE
  5
2E3
330
18
100
AcDbEntity
  8
外形
100
AcDbLine
 10
1147.851117457845
 20
213.2786769908774
 30
0.0
 11
1147.851117457845
 21
184.7786769908777
 31
0.0
  0
LINE
  5
2E4
330
18
100
AcDbEntity
  8
外形
100
AcDbLine
 10
1140.351117457856
 20
199.7786769908752
 30
0.0
 11
1140.351117457856
 21
186.2786769908752
 31
0.0
  0
LINE
  5
2E5
330
18
100
AcDbEntity
  8
外形
100
AcDbLine
 10
1005.351117457856
 20
169.7786769908747
 30
0.0
 11
1133.351117457856
 21
169.7786769908749
 31
0.0
  0
LINE
  5
2E6
330
18
100
AcDbEntity
  8
外形
100
AcDbLine
 10
1140.351117457856
 20
186.2786769908752
 30
0.0
 11
1005.351117457856
 21
186.2786769908747
 31
0.0
  0
LINE
  5
2E7
330
18
100
AcDbEntity
  8
外形
100
AcDbLine
 10
1150.351117457846
 20
183.2786769908774
 30
0.0
 11
1005.351117457845
 21
183.278676990877
 31
0.0
  0
LINE
  5
2E8
330
18
100
AcDbEntity
  8
外形
100
AcDbLine
 10
894.3511174578448
 20
163.2786769908773
 30
0.0
 11
895.3261174578445
 21
169.7786769908749
 31
0.0
  0
LINE
  5
2E9
330
18
100
AcDbEntity
  8
外形
100
AcDbLine
 10
1147.851117457845
 20
184.7786769908777
 30
0.0
 11
1138.351117457856
 21
184.7786769908777
 31
0.0
  0
LINE
  5
2EA
330
18
100
AcDbEntity
  8
外形
100
AcDbLine
 10
1142.351117457845
 20
163.2786769908772
 30
0.0
 11
1116.351117457845
 21
163.2786769908773
 31
0.0
  0
LINE
  5
2EB
330
18
100
AcDbEntity
  8
外形
100
AcDbLine
 10
1116.351117457845
 20
163.2786769908773
 30
0.0
 11
1115.376117457845
 21
169.7786769908749
 31
0.0
  0
ARC
  5
2EC
330
18
100
AcDbEntity
  8
外形
100
AcDbCircle
 10
1133.351117457856
 20
174.7786769908749
 30
0.0
 40
5.0
100
AcDbArc
 50
270.0
 51
0.0
  0
LINE
  5
2ED
330
18
100
AcDbEntity
  8
外形
100
AcDbLine
 10
1138.351117457856
 20
186.2786769908752
 30
0.0
 11
1138.351117457856
 21
174.7786769908752
 31
0.0
  0
LINE
  5
2EE
330
18
100
AcDbEntity
  8
外形
100
AcDbLine
 10
1145.351117457845
 20
183.2786769908772
 30
0.0
 11
1142.351117457845
 21
163.2786769908772
 31
0.0
  0
LINE
  5
2EF
330
18
100
AcDbEntity
  8
外形
100
AcDbLine
 10
1088.714365810996
 20
341.2786769908772
 30
0.0
 11
1005.351117457845
 21
341.2786769908772
 31
0.0
  0
LINE
  5
2F0
330
18
100
AcDbEntity
  8
外形
100
AcDbLine
 10
904.8378566980014
 20
262.2786769908772
 30
0.0
 11
1105.864378217688
 21
262.2786769908772
 31
0.0
  0
LINE
  5
2F1
330
18
100
AcDbEntity
  8
外形
100
AcDbLine
 10
1005.351117457845
 20
359.2786769908772
 30
0.0
 11
1149.351117457845
 21
359.2786769908772
 31
0.0
  0
LINE
  5
2F2
330
18
100
AcDbEntity
  8
外形
100
AcDbLine
 10
1005.351117457856
 20
199.7786769908747
 30
0.0
 11
1140.351117457856
 21
199.7786769908752
 31
0.0
  0
LINE
  5
2F3
330
18
100
AcDbEntity
  8
外形
100
AcDbLine
 10
921.9878691046929
 20
262.2786769908772
 30
0.0
 11
921.9878691046929
 21
341.2786769908772
 31
0.0
  0
LINE
  5
2F4
330
18
100
AcDbEntity
  8
外形
100
AcDbLine
 10
921.9878691046929
 20
341.2786769908772
 30
0.0
 11
1005.351117457845
 21
341.2786769908772
 31
0.0
  0
LINE
  5
2F5
330
18
100
AcDbEntity
  8
外形
100
AcDbLine
 10
1088.714365810996
 20
262.2786769908772
 30
0.0
 11
1088.714365810996
 21
341.2786769908772
 31
0.0
  0
LINE
  5
2F6
330
18
100
AcDbEntity
  8
外形
100
AcDbLine
 10
1140.351117457845
 20
359.2786769908772
 30
0.0
 11
1140.351117457845
 21
213.2786769908774
 31
0.0
  0
LINE
  5
2F7
330
18
100
AcDbEntity
  8
外形
100
AcDbLine
 10
1140.351117457845
 20
213.2786769908774
 30
0.0
 11
1150.351117457845
 21
213.2786769908774
 31
0.0
  0
LINE
  5
2F8
330
18
100
AcDbEntity
  8
外形
100
AcDbLine
 10
1149.351117457845
 20
359.2786769908772
 30
0.0
 11
1139.351117457845
 21
359.2786769908772
 31
0.0
  0
LINE
  5
2F9
330
18
100
AcDbEntity
  8
外形
100
AcDbLine
 10
64.20772167400776
 20
996.6569416098828
 30
0.0
 11
390.2077216740074
 21
996.6569416098828
 31
0.0
  0
LINE
  5
2FA
330
18
100
AcDbEntity
  8
外形
100
AcDbLine
 10
390.2077216740074
 20
1286.656941609883
 30
0.0
 11
64.20772167400742
 21
1286.656941609883
 31
0.0
  0
DIMENSION
  5
2FB
330
18
100
AcDbEntity
  8
外形寸法
100
AcDbDimension
280
     0
  2
*D10
 10
409.2077216740041
 20
914.434015573152
 30
0.0
 11
231.7831810874432
 21
914.434015573152
 31
0.0
 70
   160
 71
     5
 42
344.9999999999998
 73
     0
 74
     0
 75
     0
  3
STANDARD$0
100
AcDbAlignedDimension
 13
64.20772167400423
 23
830.7786769908772
 33
0.0
 14
409.2077216740041
 24
830.7786769908772
 34
0.0
100
AcDbRotatedDimension
1001
ACAD
1000
DSTYLE
1002
{
1070
    40
1040
1.0
1002
}
  0
LINE
  5
2FC
330
18
100
AcDbEntity
  8
外形
100
AcDbLine
 10
66.70772167400423
 20
835.0786769908773
 30
0.0
 11
395.6095681173372
 21
835.0786769908773
 31
0.0
  0
LINE
  5
2FD
330
18
100
AcDbEntity
  8
外形
100
AcDbLine
 10
376.2077216740045
 20
709.7786769908772
 30
0.0
 11
64.70772167400423
 21
709.7786769908772
 31
0.0
  0
LINE
  5
2FE
330
18
100
AcDbEntity
  8
外形
100
AcDbLine
 10
64.70772167400423
 20
830.7786769908772
 30
0.0
 11
409.2077216740041
 21
830.7786769908772
 31
0.0
  0
LINE
  5
2FF
330
18
100
AcDbEntity
  8
外形
100
AcDbLine
 10
64.20772167400742
 20
1286.656941609883
 30
0.0
 11
64.20772167400776
 21
996.6569416098828
 31
0.0
  0
LINE
  5
300
330
18
100
AcDbEntity
  8
外形
100
AcDbLine
 10
64.20772167400423
 20
709.7786769908772
 30
0.0
 11
64.20772167400423
 21
830.7786769908772
 31
0.0
  0
LINE
  5
301
330
18
100
AcDbEntity
  8
外形
100
AcDbLine
 10
44.20772167400423
 20
451.778676990877
 30
0.0
 11
64.20772167400423
 21
451.778676990877
 31
0.0
  0
LINE
  5
302
330
18
100
AcDbEntity
  8
外形
100
AcDbLine
 10
64.20772167400423
 20
491.778676990877
 30
0.0
 11
44.20772167400423
 21
491.778676990877
 31
0.0
  0
LINE
  5
303
330
18
100
AcDbEntity
  8
外形
100
AcDbLine
 10
34.20772167400423
 20
460.4721800415165
 30
0.0
 11
44.20772167400423
 21
460.4721800415165
 31
0.0
  0
LINE
  5
304
330
18
100
AcDbEntity
  8
外形
100
AcDbLine
 10
34.20772167400423
 20
483.9489321530428
 30
0.0
 11
34.20772167400423
 21
460.4721800415165
 31
0.0
  0
LINE
  5
305
330
18
100
AcDbEntity
  8
外形
100
AcDbLine
 10
44.20772167400423
 20
483.9489321530428
 30
0.0
 11
34.20772167400423
 21
483.9489321530428
 31
0.0
  0
LINE
  5
306
330
18
100
AcDbEntity
  8
外形
100
AcDbLine
 10
44.20772167400423
 20
491.778676990877
 30
0.0
 11
44.20772167400423
 21
451.778676990877
 31
0.0
  0
LINE
  5
307
330
18
100
AcDbEntity
  8
外形
100
AcDbLine
 10
64.20772167400423
 20
471.778676990877
 30
0.0
 11
64.20772167400423
 21
491.778676990877
 31
0.0
  0
LINE
  5
308
330
18
100
AcDbEntity
  8
外形
100
AcDbLine
 10
64.70772167400423
 20
709.7786769908772
 30
0.0
 11
64.20772167400423
 21
709.7786769908772
 31
0.0
  0
LINE
  5
309
330
18
100
AcDbEntity
  8
外形
100
AcDbLine
 10
66.70772167400423
 20
831.0786769908773
 30
0.0
 11
66.70772167400423
 21
835.0786769908773
 31
0.0
  0
LINE
  5
30A
330
18
100
AcDbEntity
  8
外形
100
AcDbLine
 10
64.20772167400423
 20
830.7786769908772
 30
0.0
 11
64.70772167400423
 21
830.7786769908772
 31
0.0
  0
LINE
  5
30B
330
18
100
AcDbEntity
  8
外形
100
AcDbLine
 10
64.20772167400423
 20
1046.656941609883
 30
0.0
 11
44.20772167400423
 21
1046.656941609883
 31
0.0
  0
LINE
  5
30C
330
18
100
AcDbEntity
  8
外形
100
AcDbLine
 10
44.20772167400423
 20
1006.656941609883
 30
0.0
 11
64.20772167400423
 21
1006.656941609883
 31
0.0
  0
LINE
  5
30D
330
18
100
AcDbEntity
  8
外形
100
AcDbLine
 10
44.20772167400423
 20
1046.656941609883
 30
0.0
 11
44.20772167400423
 21
1006.656941609883
 31
0.0
  0
LINE
  5
30E
330
18
100
AcDbEntity
  8
外形
100
AcDbLine
 10
44.20772167400423
 20
1038.827196772049
 30
0.0
 11
34.20772167400423
 21
1038.827196772049
 31
0.0
  0
LINE
  5
30F
330
18
100
AcDbEntity
  8
外形
100
AcDbLine
 10
34.20772167400423
 20
1038.827196772049
 30
0.0
 11
34.20772167400423
 21
1015.350444660522
 31
0.0
  0
LINE
  5
310
330
18
100
AcDbEntity
  8
外形
100
AcDbLine
 10
34.20772167400423
 20
1015.350444660522
 30
0.0
 11
44.20772167400423
 21
1015.350444660522
 31
0.0
  0
LINE
  5
311
330
18
100
AcDbEntity
  8
外形
100
AcDbLine
 10
64.20772167400423
 20
1026.656941609883
 30
0.0
 11
64.20772167400423
 21
1046.656941609883
 31
0.0
  0
LINE
  5
312
330
18
100
AcDbEntity
  8
外形
100
AcDbLine
 10
582.2077216740159
 20
1276.65694160988
 30
0.0
 11
582.2077216740159
 21
1006.656941609883
 31
0.0
  0
ARC
  5
313
330
18
100
AcDbEntity
  8
外形
100
AcDbCircle
 10
46.8455222685576
 20
1141.915891728083
 30
0.0
 40
361.362292186537
100
AcDbArc
 50
341.8396996719564
 51
18.1603003280436
  0
LINE
  5
314
330
18
100
AcDbEntity
  8
外形
100
AcDbLine
 10
1160.351117457845
 20
832.2786769908772
 30
0.0
 11
850.3511174578446
 21
832.2786769908772
 31
0.0
  0
LINE
  5
315
330
18
100
AcDbEntity
  8
外形
100
AcDbLine
 10
850.3511174578446
 20
836.2786769908772
 30
0.0
 11
1160.351117457845
 21
836.2786769908772
 31
0.0
  0
DIMENSION
  5
316
330
18
100
AcDbEntity
  8
外形寸法
100
AcDbDimension
280
     0
  2
*D11
 10
1160.351117457845
 20
917.42365711918
 30
0.0
 11
997.7043236609079
 21
917.42365711918
 31
0.0
 70
   160
 71
     5
 42
310.0
 73
     0
 74
     0
 75
     0
  3
STANDARD$0
100
AcDbAlignedDimension
 13
850.3511174578446
 23
838.2786769908772
 33
0.0
 14
1160.351117457845
 24
838.2786769908772
 34
0.0
100
AcDbRotatedDimension
1001
ACAD
1000
DSTYLE
1002
{
1070
    40
1040
1.0
1002
}
  0
LINE
  5
317
330
18
100
AcDbEntity
  8
外形
100
AcDbLine
 10
1005.351117457845
 20
832.2786769908772
 30
0.0
 11
860.3511174578448
 21
832.2786769908772
 31
0.0
  0
LINE
  5
318
330
18
100
AcDbEntity
  8
外形
100
AcDbLine
 10
1005.351117457845
 20
715.9786769908791
 30
0.0
 11
860.3511174578446
 21
715.9786769908793
 31
0.0
  0
LINE
  5
319
330
18
100
AcDbEntity
  8
外形
100
AcDbLine
 10
860.3511174578446
 20
713.7786769908774
 30
0.0
 11
1005.351117457845
 21
713.7786769908772
 31
0.0
  0
LINE
  5
31A
330
18
100
AcDbEntity
  8
外形
100
AcDbLine
 10
871.3511174578455
 20
713.7786769908774
 30
0.0
 11
871.3511174578455
 21
832.2786769908772
 31
0.0
  0
LINE
  5
31B
330
18
100
AcDbEntity
  8
外形
100
AcDbLine
 10
386.2077216740044
 20
714.9786769908786
 30
0.0
 11
386.2077216740044
 21
830.7786769908772
 31
0.0
  0
LINE
  5
31C
330
18
100
AcDbEntity
  8
外形
100
AcDbLine
 10
376.2077216740044
 20
714.9786769908786
 30
0.0
 11
376.2077216740044
 21
829.8786769908772
 31
0.0
  0
LINE
  5
31D
330
18
100
AcDbEntity
  8
外形
100
AcDbLine
 10
409.2077216740041
 20
830.7786769908772
 30
0.0
 11
409.2077216740043
 21
715.978676990878
 31
0.0
  0
LINE
  5
31E
330
18
100
AcDbEntity
  8
外形
100
AcDbLine
 10
208.2077216740042
 20
620.0286769908774
 30
0.0
 11
208.2077216740042
 21
690.0286769908774
 31
0.0
  0
LINE
  5
31F
330
18
100
AcDbEntity
  8
外形
100
AcDbLine
 10
247.207721674004
 20
690.0286769908774
 30
0.0
 11
247.207721674004
 21
620.0286769908774
 31
0.0
  0
LINE
  5
320
330
18
100
AcDbEntity
  8
外形
100
AcDbLine
 10
210.207721674004
 20
612.7786769908776
 30
0.0
 11
244.207721674004
 21
612.2786769908772
 31
0.0
  0
LINE
  5
321
330
18
100
AcDbEntity
  8
外形
100
AcDbLine
 10
247.207721674004
 20
620.0286769908774
 30
0.0
 11
208.2077216740042
 21
620.0286769908774
 31
0.0
  0
LINE
  5
322
330
18
100
AcDbEntity
  8
外形
100
AcDbLine
 10
210.207721674004
 20
620.0286769908774
 30
0.0
 11
210.207721674004
 21
612.7786769908776
 31
0.0
  0
LINE
  5
323
330
18
100
AcDbEntity
  8
外形
100
AcDbLine
 10
244.207721674004
 20
612.2786769908772
 30
0.0
 11
244.207721674004
 21
620.0286769908774
 31
0.0
  0
LINE
  5
324
330
18
100
AcDbEntity
  8
外形
100
AcDbLine
 10
214.707721674004
 20
644.6286769908775
 30
0.0
 11
214.707721674004
 21
684.7786769908779
 31
0.0
  0
LINE
  5
325
330
18
100
AcDbEntity
  8
外形
100
AcDbLine
 10
239.707721674004
 20
644.6286769908775
 30
0.0
 11
214.707721674004
 21
644.6286769908775
 31
0.0
  0
LINE
  5
326
330
18
100
AcDbEntity
  8
外形
100
AcDbLine
 10
239.707721674004
 20
684.6286769908775
 30
0.0
 11
239.707721674004
 21
644.6286769908775
 31
0.0
  0
LINE
  5
327
330
18
100
AcDbEntity
  8
外形
100
AcDbLine
 10
214.707721674004
 20
684.6286769908775
 30
0.0
 11
239.707721674004
 21
684.6286769908775
 31
0.0
  0
LINE
  5
328
330
18
100
AcDbEntity
  8
外形
100
AcDbLine
 10
220.2077216740039
 20
656.5116282339096
 30
0.0
 11
220.2077216740039
 21
677.8640775800951
 31
0.0
  0
LINE
  5
329
330
18
100
AcDbEntity
  8
外形
100
AcDbLine
 10
234.2077216740039
 20
656.5116282339096
 30
0.0
 11
220.2077216740039
 21
656.5116282339096
 31
0.0
  0
LINE
  5
32A
330
18
100
AcDbEntity
  8
外形
100
AcDbLine
 10
234.2077216740039
 20
677.8640775800951
 30
0.0
 11
234.2077216740039
 21
656.5116282339096
 31
0.0
  0
LINE
  5
32B
330
18
100
AcDbEntity
  8
外形
100
AcDbLine
 10
220.2077216740039
 20
677.8640775800951
 30
0.0
 11
234.2077216740039
 21
677.8640775800951
 31
0.0
  0
LINE
  5
32C
330
18
100
AcDbEntity
  8
外形
100
AcDbLine
 10
178.2077216740041
 20
736.778676990878
 30
0.0
 11
272.2077216740042
 21
736.778676990878
 31
0.0
  0
LINE
  5
32D
330
18
100
AcDbEntity
  8
外形
100
AcDbLine
 10
182.7077216740041
 20
740.7786769908779
 30
0.0
 11
267.7077216740042
 21
740.7786769908779
 31
0.0
  0
LINE
  5
32E
330
18
100
AcDbEntity
  8
外形
100
AcDbLine
 10
182.7077216740042
 20
769.778676990878
 30
0.0
 11
267.7077216740042
 21
769.778676990878
 31
0.0
  0
LINE
  5
32F
330
18
100
AcDbEntity
  8
外形
100
AcDbLine
 10
178.2077216740041
 20
781.7786769908779
 30
0.0
 11
272.2077216740042
 21
781.7786769908779
 31
0.0
  0
ARC
  5
330
330
18
100
AcDbEntity
  8
外形
100
AcDbCircle
 10
178.2077216740041
 20
741.778676990878
 30
0.0
 40
5.0
100
AcDbArc
 50
180.0
 51
270.0
  0
LINE
  5
331
330
18
100
AcDbEntity
  8
外形
100
AcDbLine
 10
208.2077216740042
 20
690.0286769908774
 30
0.0
 11
247.207721674004
 21
690.0286769908774
 31
0.0
  0
ARC
  5
332
330
18
100
AcDbEntity
  8
外形
100
AcDbCircle
 10
182.7077216740041
 20
745.7786769908779
 30
0.0
 40
5.0
100
AcDbArc
 50
180.0
 51
270.0
  0
ARC
  5
333
330
18
100
AcDbEntity
  8
外形
100
AcDbCircle
 10
182.7077216740042
 20
764.778676990878
 30
0.0
 40
5.0
100
AcDbArc
 50
90.0
 51
180.0
  0
ARC
  5
334
330
18
100
AcDbEntity
  8
外形
100
AcDbCircle
 10
178.2077216740041
 20
776.7786769908779
 30
0.0
 40
5.0
100
AcDbArc
 50
90.0
 51
180.0
  0
LINE
  5
335
330
18
100
AcDbEntity
  8
外形
100
AcDbLine
 10
177.7077216740042
 20
764.778676990878
 30
0.0
 11
177.7077216740041
 21
745.7786769908779
 31
0.0
  0
LINE
  5
336
330
18
100
AcDbEntity
  8
外形
100
AcDbLine
 10
173.2077216740041
 20
776.7786769908779
 30
0.0
 11
173.2077216740041
 21
741.778676990878
 31
0.0
  0
ARC
  5
337
330
18
100
AcDbEntity
  8
外形
100
AcDbCircle
 10
272.2077216740042
 20
741.778676990878
 30
0.0
 40
5.0
100
AcDbArc
 50
270.0
 51
0.0
  0
ARC
  5
338
330
18
100
AcDbEntity
  8
外形
100
AcDbCircle
 10
267.7077216740042
 20
764.778676990878
 30
0.0
 40
5.0
100
AcDbArc
 50
0.0
 51
90.0
  0
ARC
  5
339
330
18
100
AcDbEntity
  8
外形
100
AcDbCircle
 10
267.7077216740042
 20
745.7786769908779
 30
0.0
 40
5.0
100
AcDbArc
 50
270.0
 51
0.0
  0
ARC
  5
33A
330
18
100
AcDbEntity
  8
外形
100
AcDbCircle
 10
272.2077216740042
 20
776.7786769908779
 30
0.0
 40
5.0
100
AcDbArc
 50
0.0
 51
90.0
  0
LINE
  5
33B
330
18
100
AcDbEntity
  8
外形
100
AcDbLine
 10
272.7077216740042
 20
745.7786769908779
 30
0.0
 11
272.7077216740042
 21
764.778676990878
 31
0.0
  0
LINE
  5
33C
330
18
100
AcDbEntity
  8
外形
100
AcDbLine
 10
277.2077216740042
 20
741.778676990878
 30
0.0
 11
277.2077216740042
 21
776.7786769908779
 31
0.0
  0
LINE
  5
33D
330
18
100
AcDbEntity
  8
外形
100
AcDbLine
 10
409.2077216740043
 20
715.978676990878
 30
0.0
 11
375.2077216740041
 21
715.978676990878
 31
0.0
  0
LINE
  5
33E
330
18
100
AcDbEntity
  8
外形
100
AcDbLine
 10
409.2077216740041
 20
714.9786769908786
 30
0.0
 11
376.2077216740045
 21
714.9786769908786
 31
0.0
  0
LINE
  5
33F
330
18
100
AcDbEntity
  8
外形
100
AcDbLine
 10
375.2077216740041
 20
715.978676990878
 30
0.0
 11
375.2077216740041
 21
709.7786769908772
 31
0.0
  0
LINE
  5
340
330
18
100
AcDbEntity
  8
外形
100
AcDbLine
 10
376.2077216740045
 20
714.9786769908786
 30
0.0
 11
376.2077216740045
 21
709.7786769908772
 31
0.0
  0
LINE
  5
341
330
18
100
AcDbEntity
  8
外形
100
AcDbLine
 10
853.3511174578446
 20
620.0286769908773
 30
0.0
 11
853.3511174578446
 21
690.0286769908772
 31
0.0
  0
LINE
  5
342
330
18
100
AcDbEntity
  8
外形
100
AcDbLine
 10
860.3511174578445
 20
620.0286769908772
 30
0.0
 11
853.3511174578446
 21
620.0286769908773
 31
0.0
  0
LINE
  5
343
330
18
100
AcDbEntity
  8
外形
100
AcDbLine
 10
843.3511174578446
 20
668.5363924434948
 30
0.0
 11
851.3511174578446
 21
668.5363924434948
 31
0.0
  0
LINE
  5
344
330
18
100
AcDbEntity
  8
外形
100
AcDbLine
 10
851.3511174578446
 20
673.5363924434948
 30
0.0
 11
843.3511174578446
 21
673.5363924434948
 31
0.0
  0
LINE
  5
345
330
18
100
AcDbEntity
  8
外形
100
AcDbLine
 10
843.3511174578446
 20
673.5363924434948
 30
0.0
 11
843.3511174578446
 21
668.5363924434948
 31
0.0
  0
LINE
  5
346
330
18
100
AcDbEntity
  8
外形
100
AcDbLine
 10
851.3511174578446
 20
644.4286769908779
 30
0.0
 11
853.3511174578446
 21
644.2786769908772
 31
0.0
  0
LINE
  5
347
330
18
100
AcDbEntity
  8
外形
100
AcDbLine
 10
851.3511174578446
 20
684.4286769908779
 30
0.0
 11
851.3511174578446
 21
644.4286769908779
 31
0.0
  0
LINE
  5
348
330
18
100
AcDbEntity
  8
外形
100
AcDbLine
 10
853.3511174578446
 20
684.4286769908779
 30
0.0
 11
851.3511174578446
 21
684.4286769908779
 31
0.0
  0
LINE
  5
349
330
18
100
AcDbEntity
  8
外形
100
AcDbLine
 10
857.3511174578448
 20
781.7786769908779
 30
0.0
 11
857.3511174578448
 21
736.7786769908779
 31
0.0
  0
LINE
  5
34A
330
18
100
AcDbEntity
  8
外形
100
AcDbLine
 10
853.3511174578446
 20
690.0286769908772
 30
0.0
 11
860.3511174578446
 21
690.0286769908772
 31
0.0
  0
LINE
  5
34B
330
18
100
AcDbEntity
  8
外形
100
AcDbLine
 10
857.3511174578448
 20
736.7786769908779
 30
0.0
 11
860.3511174578448
 21
736.7786769908779
 31
0.0
  0
LINE
  5
34C
330
18
100
AcDbEntity
  8
外形
100
AcDbLine
 10
860.3511174578446
 20
715.7786769908774
 30
0.0
 11
860.3511174578446
 21
713.7786769908774
 31
0.0
  0
LINE
  5
34D
330
18
100
AcDbEntity
  8
外形
100
AcDbLine
 10
860.3511174578448
 20
781.7786769908779
 30
0.0
 11
857.3511174578448
 21
781.7786769908779
 31
0.0
  0
LINE
  5
34E
330
18
100
AcDbEntity
  8
外形
100
AcDbLine
 10
582.2077216740159
 20
1006.656941609883
 30
0.0
 11
390.2077216740074
 21
1006.656941609882
 31
0.0
  0
LINE
  5
34F
330
18
100
AcDbEntity
  8
外形
100
AcDbLine
 10
395.6095681173372
 20
835.0786769908773
 30
0.0
 11
395.6095681173372
 21
831.0786769908773
 31
0.0
  0
LINE
  5
350
330
18
100
AcDbEntity
  8
外形
100
AcDbLine
 10
390.2077216740074
 20
997.6569416098832
 30
0.0
 11
390.2077216740074
 21
1029.28771481946
 31
0.0
  0
LINE
  5
351
330
18
100
AcDbEntity
  8
外形
100
AcDbLine
 10
850.3511174578446
 20
832.2786769908772
 30
0.0
 11
850.3511174578446
 21
836.2786769908772
 31
0.0
  0
LINE
  5
352
330
18
100
AcDbEntity
  8
外形
100
AcDbLine
 10
1153.36863697845
 20
459.2786769908771
 30
0.0
 11
1153.36863697845
 21
489.2786769908771
 31
0.0
  0
LINE
  5
353
330
18
100
AcDbEntity
  8
外形
100
AcDbLine
 10
1150.351117457845
 20
459.2786769908771
 30
0.0
 11
1153.36863697845
 21
459.2786769908771
 31
0.0
  0
LINE
  5
354
330
18
100
AcDbEntity
  8
外形
100
AcDbLine
 10
1150.351117457845
 20
489.2786769908771
 30
0.0
 11
1150.351117457845
 21
459.2786769908771
 31
0.0
  0
LINE
  5
355
330
18
100
AcDbEntity
  8
外形
100
AcDbLine
 10
1153.634367090276
 20
489.2786769908771
 30
0.0
 11
1150.351117457845
 21
489.2786769908771
 31
0.0
  0
LINE
  5
356
330
18
100
AcDbEntity
  8
外形
100
AcDbLine
 10
1150.351117457845
 20
713.7786769908774
 30
0.0
 11
1005.351117457845
 21
713.7786769908772
 31
0.0
  0
LINE
  5
357
330
18
100
AcDbEntity
  8
外形
100
AcDbLine
 10
1005.351117457845
 20
715.9786769908791
 30
0.0
 11
1150.351117457845
 21
715.9786769908793
 31
0.0
  0
LINE
  5
358
330
18
100
AcDbEntity
  8
外形
100
AcDbLine
 10
1153.351117457845
 20
781.7786769908779
 30
0.0
 11
1153.351117457845
 21
736.7786769908779
 31
0.0
  0
LINE
  5
359
330
18
100
AcDbEntity
  8
外形
100
AcDbLine
 10
1150.351117457845
 20
715.7786769908774
 30
0.0
 11
1150.351117457845
 21
713.7786769908774
 31
0.0
  0
LINE
  5
35A
330
18
100
AcDbEntity
  8
外形
100
AcDbLine
 10
1153.351117457845
 20
736.7786769908779
 30
0.0
 11
1150.351117457845
 21
736.7786769908779
 31
0.0
  0
LINE
  5
35B
330
18
100
AcDbEntity
  8
外形
100
AcDbLine
 10
1150.351117457845
 20
781.7786769908779
 30
0.0
 11
1153.351117457845
 21
781.7786769908779
 31
0.0
  0
LINE
  5
35C
330
18
100
AcDbEntity
  8
外形
100
AcDbLine
 10
1005.351117457845
 20
832.2786769908772
 30
0.0
 11
1150.351117457845
 21
832.2786769908772
 31
0.0
  0
LINE
  5
35D
330
18
100
AcDbEntity
  8
外形
100
AcDbLine
 10
1160.351117457845
 20
836.2786769908772
 30
0.0
 11
1160.351117457845
 21
832.2786769908772
 31
0.0
  0
LINE
  5
35E
330
18
100
AcDbEntity
  8
外形
100
AcDbLine
 10
390.2077216740074
 20
1276.65694160988
 30
0.0
 11
582.2077216740159
 21
1276.65694160988
 31
0.0
  0
LINE
  5
35F
330
18
100
AcDbEntity
  8
外形
100
AcDbLine
 10
390.2077216740074
 20
1286.656941609883
 30
0.0
 11
390.2077216740074
 21
1254.544068636707
 31
0.0
  0
LINE
  5
55C
330
18
100
AcDbEntity
  8
外形寸法
100
AcDbLine
 10
692.2077216740158
 20
136.7633698743185
 30
0.0
 11
692.2077216740158
 21
325.042076325125
 31
0.0
  0
DIMENSION
  5
55D
330
18
100
AcDbEntity
  8
外形寸法
100
AcDbDimension
280
     0
  2
*D12
 10
692.2077216740158
 20
59.39638634137691
 30
0.0
 11
632.695028790954
 21
59.39638634137691
 31
0.0
 70
   160
 71
     5
 42
110.0
 73
     0
 74
     0
 75
     0
  3
STANDARD$0
100
AcDbAlignedDimension
 13
582.2077216740158
 23
136.7633698743185
 33
0.0
 14
692.2077216740158
 24
136.7633698743185
 34
0.0
100
AcDbRotatedDimension
1001
ACAD
1000
DSTYLE
1002
{
1070
    40
1040
1.0
1002
}
  0
LINE
  5
56C
330
18
100
AcDbEntity
  8
外形
100
AcDbLine
 10
208.2077216740043
 20
996.6569416098828
 30
0.0
 11
208.2077216740043
 21
990.2709451827554
 31
0.0
  0
LINE
  5
56D
330
18
100
AcDbEntity
  8
外形
100
AcDbLine
 10
208.2077216740043
 20
990.2709451827554
 30
0.0
 11
247.207721674004
 21
990.2709451827554
 31
0.0
  0
LINE
  5
56E
330
18
100
AcDbEntity
  8
外形
100
AcDbLine
 10
247.207721674004
 20
990.2709451827554
 30
0.0
 11
247.207721674004
 21
996.6569416098828
 31
0.0
  0
LINE
  5
570
330
18
100
AcDbEntity
  8
外形
100
AcDbLine
 10
219.425211933647
 20
990.2709451827554
 30
0.0
 11
219.425211933647
 21
982.3850549158797
 31
0.0
  0
LINE
  5
571
330
18
100
AcDbEntity
  8
外形
100
AcDbLine
 10
219.425211933647
 20
982.3850549158797
 30
0.0
 11
237.8393875465208
 21
982.3850549158797
 31
0.0
  0
LINE
  5
572
330
18
100
AcDbEntity
  8
外形
100
AcDbLine
 10
237.8393875465208
 20
982.3850549158797
 30
0.0
 11
237.8393875465208
 21
990.2709451827554
 31
0.0
  0
LINE
  5
57D
330
18
100
AcDbEntity
  8
外形
100
AcDbLine
 10
384.2077216740077
 20
1001.656941609883
 30
0.0
 11
69.20772167400776
 21
1001.656941609883
 31
0.0
  0
LINE
  5
57E
330
18
100
AcDbEntity
  8
外形
100
AcDbLine
 10
69.20772167400776
 20
1001.656941609883
 30
0.0
 11
69.20772167400776
 21
1281.656941609883
 31
0.0
  0
LINE
  5
57F
330
18
100
AcDbEntity
  8
外形
100
AcDbLine
 10
69.20772167400776
 20
1281.656941609883
 30
0.0
 11
384.2077216740078
 21
1281.656941609883
 31
0.0
  0
LINE
  5
581
330
18
100
AcDbEntity
  8
外形
100
AcDbLine
 10
384.2077216740078
 20
1281.656941609883
 30
0.0
 11
384.2077216740077
 21
1001.656941609883
 31
0.0
  0
LINE
  5
583
330
18
100
AcDbEntity
  8
外形
  6
CENTER
100
AcDbLine
 10
35.59243331092603
 20
1141.656941609881
 30
0.0
 11
610.669510196898
 21
1141.656941609881
 31
0.0
  0
LINE
  5
584
330
18
100
AcDbEntity
  8
0
  6
CENTER
100
AcDbLine
 10
346.2180083364174
 20
1214.125865970893
 30
0.0
 11
346.2180083364174
 21
1314.125865970893
 31
0.0
  0
LINE
  5
585
330
18
100
AcDbEntity
  8
0
  6
CENTER
100
AcDbLine
 10
346.2180083364174
 20
1314.125865970893
 30
0.0
 11
649.8475077963794
 21
1314.125865970893
 31
0.0
  0
LINE
  5
586
330
18
100
AcDbEntity
  8
0
  6
CENTER
100
AcDbLine
 10
649.8475077963794
 20
1314.125865970893
 30
0.0
 11
649.8475077963794
 21
1114.125865970893
 31
0.0
  0
LINE
  5
587
330
18
100
AcDbEntity
  8
0
  6
CENTER
100
AcDbLine
 10
649.8475077963794
 20
1114.125865970893
 30
0.0
 11
315.4352891876442
 21
1114.125865970893
 31
0.0
  0
LINE
  5
588
330
18
100
AcDbEntity
  8
0
100
AcDbLine
 10
582.2077216740159
 20
1114.125865970893
 30
0.0
 11
577.2077216740159
 21
1114.125865970893
 31
0.0
  0
LINE
  5
589
330
18
100
AcDbEntity
  8
0
100
AcDbLine
 10
577.2077216740159
 20
1114.125865970893
 30
0.0
 11
577.2077216740159
 21
1314.125865970893
 31
0.0
  0
LINE
  5
58A
330
18
100
AcDbEntity
  8
0
100
AcDbLine
 10
577.2077216740159
 20
1314.125865970893
 30
0.0
 11
387.2077216740159
 21
1314.125865970893
 31
0.0
  0
LINE
  5
58B
330
18
100
AcDbEntity
  8
0
100
AcDbLine
 10
387.2077216740159
 20
1314.125865970893
 30
0.0
 11
387.2077216740159
 21
936.1253665103022
 31
0.0
  0
LINE
  5
58C
330
18
100
AcDbEntity
  8
0
100
AcDbLine
 10
577.2077216740159
 20
1114.125865970893
 30
0.0
 11
577.2077216740159
 21
1015.820937473453
 31
0.0
  0
LINE
  5
58D
330
18
100
AcDbEntity
  8
0
100
AcDbLine
 10
577.2077216740159
 20
1015.820937473453
 30
0.0
 11
542.2077216740159
 21
1015.820937473453
 31
0.0
  0
LINE
  5
58E
330
18
100
AcDbEntity
  8
0
100
AcDbLine
 10
542.2077216740159
 20
1015.820937473453
 30
0.0
 11
542.2077216740159
 21
1411.502462048719
 31
0.0
  0
LINE
  5
58F
330
18
100
AcDbEntity
  8
0
100
AcDbLine
 10
542.2077216740159
 20
1214.125865970893
 30
0.0
 11
542.2077216740159
 21
1299.125865970893
 31
0.0
  0
LINE
  5
590
330
18
100
AcDbEntity
  8
0
100
AcDbLine
 10
542.2077216740159
 20
1299.125865970893
 30
0.0
 11
300.0439351714067
 21
1299.125865970893
 31
0.0
  0
LINE
  5
591
330
18
100
AcDbEntity
  8
0
100
AcDbLine
 10
300.0439351714067
 20
1299.125865970893
 30
0.0
 11
300.0439351714066
 21
1129.125865970893
 31
0.0
  0
LINE
  5
592
330
18
100
AcDbEntity
  8
0
100
AcDbLine
 10
300.0439351714066
 20
1129.125865970893
 30
0.0
 11
542.2077216740159
 21
1129.125865970893
 31
0.0
  0
LINE
  5
593
330
18
100
AcDbEntity
  8
0
100
AcDbLine
 10
542.2077216740159
 20
1214.125865970893
 30
0.0
 11
542.2077216740159
 21
1274.125865970893
 31
0.0
  0
LINE
  5
594
330
18
100
AcDbEntity
  8
0
100
AcDbLine
 10
542.2077216740159
 20
1274.125865970893
 30
0.0
 11
577.2077216740159
 21
1274.125865970893
 31
0.0
  0
LINE
  5
595
330
18
100
AcDbEntity
  8
0
100
AcDbLine
 10
577.2077216740159
 20
1274.125865970893
 30
0.0
 11
697.2077216740159
 21
1274.125865970893
 31
0.0
  0
LINE
  5
596
330
18
100
AcDbEntity
  8
0
100
AcDbLine
 10
697.2077216740159
 20
1274.125865970893
 30
0.0
 11
697.2077216740159
 21
1154.125865970893
 31
0.0
  0
LINE
  5
597
330
18
100
AcDbEntity
  8
0
100
AcDbLine
 10
697.2077216740159
 20
1154.125865970893
 30
0.0
 11
542.2077216740159
 21
1154.125865970893
 31
0.0
  0
LINE
  5
598
330
18
100
AcDbEntity
  8
0
100
AcDbLine
 10
542.2077216740159
 20
1154.125865970893
 30
0.0
 11
542.2077216740159
 21
1150.125865970893
 31
0.0
  0
LINE
  5
599
330
18
100
AcDbEntity
  8
0
100
AcDbLine
 10
542.2077216740159
 20
1150.125865970893
 30
0.0
 11
756.1877941411612
 21
1150.125865970893
 31
0.0
  0
LINE
  5
59A
330
18
100
AcDbEntity
  8
0
100
AcDbLine
 10
697.2077216740159
 20
1274.125865970893
 30
0.0
 11
697.2077216740159
 21
1278.125865970893
 31
0.0
  0
LINE
  5
59B
330
18
100
AcDbEntity
  8
0
100
AcDbLine
 10
697.2077216740159
 20
1278.125865970893
 30
0.0
 11
542.2077216740159
 21
1278.125865970893
 31
0.0
  0
LINE
  5
59C
330
18
100
AcDbEntity
  8
0
100
AcDbLine
 10
697.2077216740159
 20
1274.125865970893
 30
0.0
 11
672.2077216740159
 21
1274.125865970893
 31
0.0
  0
LINE
  5
59D
330
18
100
AcDbEntity
  8
0
100
AcDbLine
 10
672.2077216740159
 20
1274.125865970893
 30
0.0
 11
672.2077216740159
 21
1154.125865970893
 31
0.0
  0
LINE
  5
59E
330
18
100
AcDbEntity
  8
外形
100
AcDbLine
 10
394.1701962881049
 20
1241.656941609881
 30
0.0
 11
577.2077216740159
 21
1241.656941609881
 31
0.0
  0
LINE
  5
59F
330
18
100
AcDbEntity
  8
外形
100
AcDbLine
 10
577.2077216740159
 20
1241.656941609881
 30
0.0
 11
577.2077216740159
 21
1041.656941609881
 31
0.0
  0
LINE
  5
5A0
330
18
100
AcDbEntity
  8
外形
100
AcDbLine
 10
577.2077216740159
 20
1041.656941609881
 30
0.0
 11
394.0210529954567
 21
1041.656941609881
 31
0.0
  0
LINE
  5
5A1
330
18
100
AcDbEntity
  8
外形
100
AcDbLine
 10
398.1312473973176
 20
1226.656941609881
 30
0.0
 11
542.2077216740159
 21
1226.656941609881
 31
0.0
  0
LINE
  5
5A2
330
18
100
AcDbEntity
  8
外形
100
AcDbLine
 10
542.2077216740159
 20
1226.656941609881
 30
0.0
 11
542.2077216740159
 21
1056.656941609881
 31
0.0
  0
LINE
  5
5A3
330
18
100
AcDbEntity
  8
外形
100
AcDbLine
 10
542.2077216740159
 20
1056.656941609881
 30
0.0
 11
398.0059096117915
 21
1056.656941609881
 31
0.0
  0
LINE
  5
5A4
330
18
100
AcDbEntity
  8
外形
100
AcDbLine
 10
577.2077216740159
 20
1205.656941609881
 30
0.0
 11
697.2077216740159
 21
1205.656941609881
 31
0.0
  0
LINE
  5
5A5
330
18
100
AcDbEntity
  8
外形
100
AcDbLine
 10
697.2077216740159
 20
1205.656941609881
 30
0.0
 11
697.2077216740159
 21
1077.656941609881
 31
0.0
  0
LINE
  5
5A6
330
18
100
AcDbEntity
  8
外形
100
AcDbLine
 10
697.2077216740159
 20
1077.656941609881
 30
0.0
 11
577.2077216740159
 21
1077.656941609881
 31
0.0
  0
LINE
  5
5A7
330
18
100
AcDbEntity
  8
外形
100
AcDbLine
 10
577.2077216740159
 20
1201.656941609881
 30
0.0
 11
697.2077216740159
 21
1201.656941609881
 31
0.0
  0
LINE
  5
5A8
330
18
100
AcDbEntity
  8
外形
100
AcDbLine
 10
577.2077216740159
 20
1081.656941609881
 30
0.0
 11
697.2077216740159
 21
1081.656941609881
 31
0.0
  0
LINE
  5
5A9
330
18
100
AcDbEntity
  8
外形
100
AcDbLine
 10
672.2077216740159
 20
1201.656941609881
 30
0.0
 11
672.2077216740159
 21
1081.656941609881
 31
0.0
  0
LINE
  5
5AA
330
18
100
AcDbEntity
  8
外形
100
AcDbLine
 10
582.2077216740159
 20
1276.65694160988
 30
0.0
 11
582.2077216740159
 21
1274.65694160988
 31
0.0
  0
LINE
  5
5AB
330
18
100
AcDbEntity
  8
外形
100
AcDbLine
 10
582.2077216740159
 20
1274.65694160988
 30
0.0
 11
390.2077216740074
 21
1274.65694160988
 31
0.0
  0
LINE
  5
5AC
330
18
100
AcDbEntity
  8
外形
100
AcDbLine
 10
582.2077216740159
 20
1006.656941609883
 30
0.0
 11
582.2077216740159
 21
1008.656941609883
 31
0.0
  0
LINE
  5
5AD
330
18
100
AcDbEntity
  8
外形
100
AcDbLine
 10
582.2077216740159
 20
1008.656941609883
 30
0.0
 11
390.2077216740074
 21
1008.656941609883
 31
0.0
  0
LINE
  5
5AE
330
18
100
AcDbEntity
  8
外形
100
AcDbLine
 10
382.0603045278106
 20
262.2556626379774
 30
0.0
 11
572.0603045278106
 21
262.2556626379774
 31
0.0
  0
CIRCLE
  5
5B3
330
18
100
AcDbEntity
  8
外形
100
AcDbCircle
 10
679.7077216740158
 20
294.5318102127035
 30
0.0
 40
12.5
  0
DIMENSION
  5
623
330
18
100
AcDbEntity
  8
外形寸法
100
AcDbDimension
280
     0
  2
*D13
 10
-73.55226808301265
 20
996.6569416098828
 30
0.0
 11
-87.05226808301265
 21
1141.656941609883
 31
0.0
 70
    32
  1
300
 71
     5
 42
290.0000000000002
 73
     0
 74
     0
 75
     0
  3
STANDARD$0
100
AcDbAlignedDimension
 13
64.20772167400742
 23
1286.656941609883
 33
0.0
 14
64.20772167400742
 24
996.6569416098828
 34
0.0
 50
90.0
100
AcDbRotatedDimension
1001
ACAD
1000
DSTYLE
1002
{
1070
    40
1040
1.0
1002
}
  0
DIMENSION
  5
646
330
18
100
AcDbEntity
  8
外形寸法
100
AcDbDimension
280
     0
  2
*D14
 10
34.20772167400423
 20
59.39638634137691
 30
0.0
 11
297.6045268448515
 21
59.39638634137691
 31
0.0
 70
   160
  1
550
 71
     5
 42
548.0000000000116
 73
     0
 74
     0
 75
     0
  3
STANDARD$0
100
AcDbAlignedDimension
 13
582.2077216740158
 23
169.7786769908749
 33
0.0
 14
34.20772167400422
 24
197.5476848931798
 34
0.0
100
AcDbRotatedDimension
1001
ACAD
1000
DSTYLE
1002
{
1070
    40
1040
1.0
1002
}
  0
DIMENSION
  5
653
330
18
100
AcDbEntity
  8
外形寸法
100
AcDbDimension
280
     0
  2
*D15
 10
34.20772167400421
 20
104.0435681846994
 30
0.0
 11
-31.54227832599579
 21
117.5435681846994
 31
0.0
 70
    32
 71
     5
 42
30.0
 73
     0
 74
     0
 75
     0
  3
STANDARD$0
100
AcDbAlignedDimension
 13
64.20772167400423
 23
214.6672337949562
 33
0.0
 14
34.20772167400423
 24
460.4721800415165
 34
0.0
100
AcDbRotatedDimension
1001
ACAD
1000
DSTYLE
1002
{
1070
    40
1040
1.0
1002
}
  0
DIMENSION
  5
660
330
18
100
AcDbEntity
  8
外形寸法
100
AcDbDimension
280
     0
  2
*D16
 10
-73.55226808301275
 20
838.2786769908773
 30
0.0
 11
-73.55226808301278
 21
500.7786769908772
 31
0.0
 70
   160
  1
680
 71
     5
 42
675.0
 73
     0
 74
     0
 75
     0
  3
STANDARD$0
100
AcDbAlignedDimension
 13
98.20772167400423
 23
163.2786769908772
 33
0.0
 14
98.20772167400428
 24
838.2786769908772
 34
0.0
 50
90.0
100
AcDbRotatedDimension
1001
ACAD
1000
DSTYLE
1002
{
1070
    40
1040
1.0
1002
}
  0
LINE
  5
672
330
18
100
AcDbEntity
  8
外形
100
AcDbLine
 10
390.2077216740074
 20
1286.656941609883
 30
0.0
 11
390.2077216740074
 21
1296.656941609883
 31
0.0
  0
LINE
  5
673
330
18
100
AcDbEntity
  8
外形
100
AcDbLine
 10
390.2077216740074
 20
1296.656941609883
 30
0.0
 11
350.2077216740074
 21
1296.656941609883
 31
0.0
  0
LINE
  5
674
330
18
100
AcDbEntity
  8
外形
100
AcDbLine
 10
350.2077216740074
 20
1296.656941609883
 30
0.0
 11
350.2077216740074
 21
1286.656941609883
 31
0.0
  0
LINE
  5
675
330
18
100
AcDbEntity
  8
外形
100
AcDbLine
 10
1150.351117457845
 20
643.7786769908774
 30
0.0
 11
1150.351117457845
 21
652.7786769908774
 31
0.0
  0
LINE
  5
676
330
18
100
AcDbEntity
  8
外形
100
AcDbLine
 10
1150.351117457845
 20
652.7786769908774
 30
0.0
 11
1160.351117457845
 21
652.7786769908774
 31
0.0
  0
LINE
  5
677
330
18
100
AcDbEntity
  8
外形
100
AcDbLine
 10
1160.351117457845
 20
652.7786769908774
 30
0.0
 11
1160.351117457845
 21
634.7786769908774
 31
0.0
  0
LINE
  5
678
330
18
100
AcDbEntity
  8
外形
100
AcDbLine
 10
1160.351117457845
 20
634.7786769908774
 30
0.0
 11
1150.351117457845
 21
634.7786769908774
 31
0.0
  0
LINE
  5
679
330
18
100
AcDbEntity
  8
外形
100
AcDbLine
 10
1160.351117457845
 20
404.7786769908774
 30
0.0
 11
1150.351117457845
 21
404.7786769908774
 31
0.0
  0
LINE
  5
67A
330
18
100
AcDbEntity
  8
外形
100
AcDbLine
 10
1150.351117457845
 20
422.7786769908774
 30
0.0
 11
1160.351117457845
 21
422.7786769908774
 31
0.0
  0
LINE
  5
67B
330
18
100
AcDbEntity
  8
外形
100
AcDbLine
 10
1150.351117457845
 20
413.7786769908774
 30
0.0
 11
1150.351117457845
 21
422.7786769908774
 31
0.0
  0
LINE
  5
67C
330
18
100
AcDbEntity
  8
外形
100
AcDbLine
 10
1160.351117457845
 20
422.7786769908774
 30
0.0
 11
1160.351117457845
 21
404.7786769908774
 31
0.0
  0
MTEXT
  5
685
330
18
100
AcDbEntity
  8
注釈文字
100
AcDbMText
 10
-127.905633182575
 20
1409.47535707336
 30
0.0
 40
30.0
 41
1521.413
 46
0.0
 71
     1
 72
     5
  1
{\L卓上おにぎり機（にぎりっ子）TO-3AH/5AH型　製品仕様書}
 73
     1
 44
1.0
  0
MTEXT
  5
686
330
18
100
AcDbEntity
  8
注釈文字
100
AcDbMText
 10
1295.422798404395
 20
499.5075467959687
 30
0.0
 40
25.0
 41
817.6500000000001
 46
383.3335698053066
 71
     1
 72
     5
  3
{　　仕様\P\H0.6x;　\P\H1.66667x;機種名　　　卓上おにぎり機（にぎりっ子）\P型　式　　　TO-3AH/5AH型\P本体寸法　　\H0.919998x;幅300\H0.652174x;(突起部除く)\H1.53333x;　奥行550　高さ680mm\H0.652174x;\P\H1.66667x;本体重量　　36 kg\P電　源　　　AC 100 V\P           差込みプラグ形状(二股・アースクリップ付)\P           コード長さ　2.7m\P消費電力
  1
　　60 W　　　　　　}
 73
     1
 44
1.0
1001
ACAD
1000
ACAD_MTEXT_DEFINED_HEIGHT_BEGIN
1070
    46
1040
383.3335698053066
1000
ACAD_MTEXT_DEFINED_HEIGHT_END
  0
LWPOLYLINE
  5
688
330
18
100
AcDbEntity
  8
実体線
100
AcDbPolyline
 90
        4
 70
     1
 43
0.0
 10
-252.6017661338292
 20
1485.580107753351
 10
2171.145873937813
 20
1485.580107753351
 10
2171.145873937813
 20
-55.12078437008017
 10
-252.6017661338292
 20
-55.12078437008017
  0
LINE
  5
6D0
330
18
100
AcDbEntity
  8
0
100
AcDbLine
 10
1511.099372005723
 20
539.3111399017862
 30
0.0
 11
1292.064233190908
 21
539.3111399017862
 31
0.0
  0
LINE
  5
6D2
330
18
100
AcDbEntity
  8
0
100
AcDbLine
 10
1292.064233190908
 20
559.8111399017862
 30
0.0
 11
2149.833114233192
 21
559.8111399017862
 31
0.0
  0
LINE
  5
6D3
330
18
100
AcDbEntity
  8
0
100
AcDbLine
 10
1292.064233190908
 20
518.8111399017862
 30
0.0
 11
2149.833114233192
 21
518.8111399017862
 31
0.0
  0
LINE
  5
6D4
330
18
100
AcDbEntity
  8
0
100
AcDbLine
 10
1292.064233190908
 20
477.8111399017862
 30
0.0
 11
2149.833114233192
 21
477.8111399017862
 31
0.0
  0
LINE
  5
6D5
330
18
100
AcDbEntity
  8
0
100
AcDbLine
 10
1292.064233190908
 20
436.8111399017862
 30
0.0
 11
2149.833114233192
 21
436.8111399017862
 31
0.0
  0
LINE
  5
6D6
330
18
100
AcDbEntity
  8
0
100
AcDbLine
 10
1292.064233190908
 20
395.8111399017862
 30
0.0
 11
2149.833114233192
 21
395.8111399017862
 31
0.0
  0
LINE
  5
6D7
330
18
100
AcDbEntity
  8
0
100
AcDbLine
 10
1292.064233190908
 20
354.8111399017862
 30
0.0
 11
2149.833114233192
 21
354.8111399017862
 31
0.0
  0
LINE
  5
6D8
330
18
100
AcDbEntity
  8
0
100
AcDbLine
 10
1292.064233190908
 20
313.8111399017862
 30
0.0
 11
2149.833114233192
 21
313.8111399017862
 31
0.0
  0
LINE
  5
6D9
330
18
100
AcDbEntity
  8
0
100
AcDbLine
 10
1292.064233190908
 20
272.8111399017862
 30
0.0
 11
2149.833114233192
 21
272.8111399017862
 31
0.0
  0
LINE
  5
6DA
330
18
100
AcDbEntity
  8
0
100
AcDbLine
 10
1292.064233190908
 20
231.8111399017862
 30
0.0
 11
2149.833114233192
 21
231.8111399017862
 31
0.0
  0
LINE
  5
6DB
330
18
100
AcDbEntity
  8
注釈文字
100
AcDbLine
 10
1308.120487627862
 20
465.435261590232
 30
0.0
 11
1462.756455685052
 21
465.435261590232
 31
0.0
  0
LINE
  5
6DC
330
18
100
AcDbEntity
  8
注釈文字
100
AcDbLine
 10
1263.778124693841
 20
436.8632794799003
 30
0.0
 11
1263.778124693841
 21
108.8632794799003
 31
0.0
  0
LINE
  5
6DD
330
18
100
AcDbEntity
  8
注釈文字
100
AcDbLine
 10
1263.778124693841
 20
108.8632794799003
 30
0.0
 11
2077.007587708401
 21
108.8632794799003
 31
0.0
  0
LINE
  5
6DE
330
18
100
AcDbEntity
  8
注釈文字
100
AcDbLine
 10
2077.007587708401
 20
108.8632794799003
 30
0.0
 11
2077.007587708401
 21
436.8632794799003
 31
0.0
  0
LINE
  5
6DF
330
18
100
AcDbEntity
  8
注釈文字
100
AcDbLine
 10
2077.007587708401
 20
436.8632794799003
 30
0.0
 11
1263.778124693841
 21
436.8632794799003
 31
0.0
  0
LINE
  5
6E0
330
18
100
AcDbEntity
  8
注釈文字
100
AcDbLine
 10
1263.778124693841
 20
395.8632794799003
 30
0.0
 11
2077.007587708401
 21
395.8632794799003
 31
0.0
  0
LINE
  5
6E1
330
18
100
AcDbEntity
  8
注釈文字
100
AcDbLine
 10
2077.007587708401
 20
395.8632794799003
 30
0.0
 11
2077.007587708401
 21
354.8632794799003
 31
0.0
  0
LINE
  5
6E2
330
18
100
AcDbEntity
  8
注釈文字
100
AcDbLine
 10
2077.007587708401
 20
354.8632794799003
 30
0.0
 11
1263.778124693841
 21
354.8632794799003
 31
0.0
  0
LINE
  5
6E3
330
18
100
AcDbEntity
  8
注釈文字
100
AcDbLine
 10
1263.778124693841
 20
354.8632794799003
 30
0.0
 11
1263.778124693841
 21
313.8632794799003
 31
0.0
  0
LINE
  5
6E4
330
18
100
AcDbEntity
  8
注釈文字
100
AcDbLine
 10
1263.778124693841
 20
313.8632794799003
 30
0.0
 11
2077.007587708401
 21
313.8632794799003
 31
0.0
  0
LINE
  5
6E5
330
18
100
AcDbEntity
  8
注釈文字
100
AcDbLine
 10
2077.007587708401
 20
313.8632794799003
 30
0.0
 11
2077.007587708401
 21
272.8632794799003
 31
0.0
  0
LINE
  5
6E7
330
18
100
AcDbEntity
  8
注釈文字
100
AcDbLine
 10
1263.778124693841
 20
272.8632794799003
 30
0.0
 11
1263.778124693841
 21
149.8632794799003
 31
0.0
  0
LINE
  5
6E8
330
18
100
AcDbEntity
  8
注釈文字
100
AcDbLine
 10
1263.778124693841
 20
149.8632794799003
 30
0.0
 11
2077.007587708401
 21
149.8632794799003
 31
0.0
  0
LINE
  5
6E9
330
18
100
AcDbEntity
  8
注釈文字
100
AcDbLine
 10
1429.538989749511
 20
436.8632794799003
 30
0.0
 11
1429.538989749511
 21
108.8632794799003
 31
0.0
  0
LINE
  5
6EB
330
18
100
AcDbEntity
  8
注釈文字
100
AcDbLine
 10
1263.778124693841
 20
267.2269245275078
 30
0.0
 11
2077.007587708401
 21
267.2269245275078
 31
0.0
  0
MTEXT
  5
6EC
330
18
100
AcDbEntity
  8
注釈文字
100
AcDbMText
 10
1585.482587327681
 20
57.26985397005819
 30
0.0
 40
30.0
 41
501.7820000000002
 46
30.0
 71
     1
 72
     5
  1
{\Farsimp.shx|c128;製造元：㈱トップ}
 73
     1
 44
1.0
1001
ACAD
1000
ACAD_MTEXT_DEFINED_HEIGHT_BEGIN
1070
    46
1040
30.0
1000
ACAD_MTEXT_DEFINED_HEIGHT_END
  0
LINE
  5
844
330
18
100
AcDbEntity
  8
外形
100
AcDbLine
 10
1822.702865523014
 20
625.9066215209803
 30
0.0
 11
1825.702865523014
 21
645.9066215209803
 31
0.0
  0
LINE
  5
845
330
18
100
AcDbEntity
  8
外形
100
AcDbLine
 10
1639.702865523014
 20
647.4066215209818
 30
0.0
 11
1841.076267963414
 21
647.406621520978
 31
0.0
  0
LINE
  5
846
330
18
100
AcDbEntity
  8
外形
100
AcDbLine
 10
1836.555448376821
 20
662.3836071680759
 30
0.0
 11
1639.702865523014
 21
662.3836071680759
 31
0.0
  0
LINE
  5
848
330
18
100
AcDbEntity
  8
外形
100
AcDbLine
 10
1632.702865523014
 20
625.9066215209803
 30
0.0
 11
1636.229405137183
 21
645.9066215209803
 31
0.0
  0
LINE
  5
849
330
18
100
AcDbEntity
  8
外形
100
AcDbLine
 10
1603.702865523014
 20
645.9066215209803
 30
0.0
 11
1606.702865523014
 21
625.9066215209803
 31
0.0
  0
LINE
  5
84A
330
18
100
AcDbEntity
  8
外形
100
AcDbLine
 10
1606.702865523014
 20
625.9066215209803
 30
0.0
 11
1632.702865523014
 21
625.9066215209803
 31
0.0
  0
LINE
  5
84B
330
18
100
AcDbEntity
  8
外形
100
AcDbLine
 10
1639.702865523014
 20
645.9066215209803
 30
0.0
 11
1639.702865523014
 21
632.4066215209818
 31
0.0
  0
LINE
  5
84C
330
18
100
AcDbEntity
  8
外形
100
AcDbLine
 10
1639.702865523014
 20
632.4066215209818
 30
0.0
 11
1638.202865523014
 21
632.4066215209818
 31
0.0
  0
LINE
  5
84D
330
18
100
AcDbEntity
  8
外形
100
AcDbLine
 10
1638.202865523014
 20
632.4066215209818
 30
0.0
 11
1638.702865523014
 21
645.9066215209803
 31
0.0
  0
LINE
  5
84E
330
18
100
AcDbEntity
  8
外形
100
AcDbLine
 10
1793.702865523014
 20
645.9066215209803
 30
0.0
 11
1796.702865523014
 21
625.9066215209803
 31
0.0
  0
LINE
  5
84F
330
18
100
AcDbEntity
  8
外形
100
AcDbLine
 10
1796.702865523014
 20
625.9066215209803
 30
0.0
 11
1822.702865523014
 21
625.9066215209803
 31
0.0
  0
LINE
  5
850
330
18
100
AcDbEntity
  8
外形
100
AcDbLine
 10
1846.702865523026
 20
632.406621520978
 30
0.0
 11
1846.702865523026
 21
661.4066215209805
 31
0.0
  0
LINE
  5
851
330
18
100
AcDbEntity
  8
外形
100
AcDbLine
 10
1841.076267963414
 20
648.9066215209805
 30
0.0
 11
1841.076267963414
 21
661.4066215209805
 31
0.0
  0
LINE
  5
852
330
18
100
AcDbEntity
  8
外形
100
AcDbLine
 10
1841.076267963414
 20
647.406621520978
 30
0.0
 11
1843.202865523026
 21
647.406621520978
 31
0.0
  0
LINE
  5
853
330
18
100
AcDbEntity
  8
外形
100
AcDbLine
 10
1843.202865523026
 20
647.406621520978
 30
0.0
 11
1843.202865523026
 21
632.406621520978
 31
0.0
  0
LINE
  5
854
330
18
100
AcDbEntity
  8
外形
100
AcDbLine
 10
1843.202865523026
 20
632.406621520978
 30
0.0
 11
1846.702865523026
 21
632.406621520978
 31
0.0
  0
LINE
  5
855
330
18
100
AcDbEntity
  8
外形
100
AcDbLine
 10
1846.702865523026
 20
661.4066215209805
 30
0.0
 11
1836.555448376821
 21
662.3836071680759
 31
0.0
  0
LINE
  5
856
330
18
100
AcDbEntity
  8
外形
100
AcDbLine
 10
1841.076267963414
 20
661.4066215209805
 30
0.0
 11
1837.173828939035
 21
662.2846703014658
 31
0.0
  0
LINE
  5
857
330
18
100
AcDbEntity
  8
外形
100
AcDbLine
 10
1639.702865523014
 20
821.9066215209803
 30
0.0
 11
1659.702865523014
 21
821.9066215209803
 31
0.0
  0
LINE
  5
859
330
18
100
AcDbEntity
  8
外形
100
AcDbLine
 10
1659.702865523014
 20
821.9066215209803
 30
0.0
 11
1659.702865523014
 21
828.3181288420153
 31
0.0
  0
LINE
  5
85A
330
18
100
AcDbEntity
  8
外形
100
AcDbLine
 10
1639.702865523014
 20
645.9066215209803
 30
0.0
 11
1639.702865523014
 21
934.0118268068351
 31
0.0
  0
LINE
  5
85B
330
18
100
AcDbEntity
  8
外形
100
AcDbLine
 10
1659.702865523014
 20
822.8066215209801
 30
0.0
 11
1659.702865523014
 21
934.170232334226
 31
0.0
  0
LINE
  5
872
330
18
100
AcDbEntity
  8
外形
100
AcDbLine
 10
1639.702886584189
 20
735.4066215209803
 30
0.0
 11
1755.702865523014
 21
735.4066215209803
 31
0.0
  0
LINE
  5
873
330
18
100
AcDbEntity
  8
外形
100
AcDbLine
 10
1755.702865523014
 20
735.4066215209803
 30
0.0
 11
1755.702865523014
 21
662.3836071680759
 31
0.0
  0
LINE
  5
874
330
18
100
AcDbEntity
  8
外形
100
AcDbLine
 10
1639.702900388993
 20
774.4066215209803
 30
0.0
 11
1860.702865523014
 21
774.4066215209803
 31
0.0
  0
LINE
  5
876
330
18
100
AcDbEntity
  8
外形
100
AcDbLine
 10
1860.702865523014
 20
764.4066215209803
 30
0.0
 11
1640.702865523014
 21
764.4066215209803
 31
0.0
  0
LINE
  5
877
330
18
100
AcDbEntity
  8
外形
100
AcDbLine
 10
1640.702865523014
 20
764.4066215209803
 30
0.0
 11
1640.702865523042
 21
764.4066993942326
 31
0.0
  0
LINE
  5
878
330
18
100
AcDbEntity
  8
外形
100
AcDbLine
 10
1640.702865523042
 20
764.4066993942326
 30
0.0
 11
1640.702865523042
 21
762.4066215209803
 31
0.0
  0
LINE
  5
879
330
18
100
AcDbEntity
  8
外形
100
AcDbLine
 10
1640.702865523042
 20
762.4066215209803
 30
0.0
 11
1790.702865523014
 21
762.4066215209803
 31
0.0
  0
LINE
  5
87A
330
18
100
AcDbEntity
  8
外形
100
AcDbLine
 10
1790.702865523014
 20
762.4066215209803
 30
0.0
 11
1790.702865523014
 21
764.4066215209803
 31
0.0
  0
LINE
  5
87B
330
18
100
AcDbEntity
  8
外形
100
AcDbLine
 10
1690.702865523014
 20
762.4066215209803
 30
0.0
 11
1690.702865523014
 21
736.4066215209805
 31
0.0
  0
LINE
  5
87C
330
18
100
AcDbEntity
  8
外形
100
AcDbLine
 10
1690.702865523014
 20
736.4066215209805
 30
0.0
 11
1740.702865523014
 21
736.4066215209805
 31
0.0
  0
LINE
  5
87D
330
18
100
AcDbEntity
  8
外形
100
AcDbLine
 10
1740.702865523014
 20
736.4066215209805
 30
0.0
 11
1740.702865523014
 21
762.4066215209803
 31
0.0
  0
LINE
  5
87E
330
18
100
AcDbEntity
  8
外形
  6
CENTER
100
AcDbLine
 10
1715.702865523014
 20
699.8330712092109
 30
0.0
 11
1715.702865523014
 21
786.2982344221498
 31
0.0
  0
LINE
  5
880
330
18
100
AcDbEntity
  8
外形
100
AcDbLine
 10
1638.202865523014
 20
645.9066215209803
 30
0.0
 11
1509.896658848738
 21
645.9066215209803
 31
0.0
  0
LINE
  5
883
330
18
100
AcDbEntity
  8
外形
100
AcDbLine
 10
1635.702865523014
 20
1317.606621520983
 30
0.0
 11
1635.702865523014
 21
1037.606621520983
 31
0.0
  0
ARC
  5
884
330
18
100
AcDbEntity
  8
外形
100
AcDbCircle
 10
1298.340666117564
 20
1177.865571639184
 30
0.0
 40
361.362292186537
100
AcDbArc
 50
341.8396996719564
 51
18.1603003280436
  0
LINE
  5
885
330
18
100
AcDbEntity
  8
外形
100
AcDbLine
 10
1833.702865523022
 20
1312.60662152098
 30
0.0
 11
1833.702865523022
 21
1270.213316743293
 31
0.0
  0
LINE
  5
886
330
18
100
AcDbEntity
  8
外形
100
AcDbLine
 10
1833.702865523022
 20
1044.606621520983
 30
0.0
 11
1785.064238058456
 21
1044.606621520983
 31
0.0
  0
LINE
  5
888
330
18
100
AcDbEntity
  8
外形
100
AcDbLine
 10
1833.702865523022
 20
1042.606621520983
 30
0.0
 11
1781.086349676127
 21
1042.606621520983
 31
0.0
  0
LINE
  5
88A
330
18
100
AcDbEntity
  8
外形
100
AcDbLine
 10
1641.702865523014
 20
1033.606621520983
 30
0.0
 11
1641.702865523014
 21
1065.23739473056
 31
0.0
  0
LINE
  5
88B
330
18
100
AcDbEntity
  8
外形
100
AcDbLine
 10
1833.702865523022
 20
1042.606621520983
 30
0.0
 11
1833.702865523022
 21
1044.606621520983
 31
0.0
  0
LINE
  5
88C
330
18
100
AcDbEntity
  8
外形
100
AcDbLine
 10
1833.702865523022
 20
1310.60662152098
 30
0.0
 11
1781.086349676127
 21
1310.60662152098
 31
0.0
  0
LINE
  5
88E
330
18
100
AcDbEntity
  8
外形
100
AcDbLine
 10
1641.702865523014
 20
1312.60662152098
 30
0.0
 11
1650.319381369901
 21
1312.60662152098
 31
0.0
  0
LINE
  5
88F
330
18
100
AcDbEntity
  8
外形
100
AcDbLine
 10
1641.702865523014
 20
1332.606621520983
 30
0.0
 11
1601.702865523014
 21
1332.606621520983
 31
0.0
  0
LINE
  5
890
330
18
100
AcDbEntity
  8
外形
100
AcDbLine
 10
1601.702865523014
 20
1332.606621520983
 30
0.0
 11
1601.702865523014
 21
1322.606621520983
 31
0.0
  0
LINE
  5
892
330
18
100
AcDbEntity
  8
外形
100
AcDbLine
 10
1641.702865523014
 20
1322.606621520983
 30
0.0
 11
1641.702865523014
 21
1290.493748547807
 31
0.0
  0
LINE
  5
893
330
18
100
AcDbEntity
  8
外形
100
AcDbLine
 10
1641.702865523014
 20
1322.606621520983
 30
0.0
 11
1641.702865523014
 21
1332.606621520983
 31
0.0
  0
LINE
  5
894
330
18
100
AcDbEntity
  8
外形
100
AcDbLine
 10
1833.702865523022
 20
1312.60662152098
 30
0.0
 11
1833.702865523022
 21
1310.60662152098
 31
0.0
  0
LINE
  5
895
330
18
100
AcDbEntity
  8
外形
  6
CENTER
100
AcDbLine
 10
1494.29422752588
 20
1177.606621520982
 30
0.0
 11
1893.936643128925
 21
1177.606621520982
 31
0.0
  0
LINE
  5
896
330
18
100
AcDbEntity
  8
外形
100
AcDbLine
 10
1522.003263246219
 20
1317.606621520983
 30
0.0
 11
1635.702865523014
 21
1317.606621520983
 31
0.0
  0
LINE
  5
897
330
18
100
AcDbEntity
  8
外形
100
AcDbLine
 10
1641.702865523014
 20
1322.606621520983
 30
0.0
 11
1522.003263246219
 21
1322.606621520983
 31
0.0
  0
LINE
  5
898
330
18
100
AcDbEntity
  8
外形
100
AcDbLine
 10
1635.702865523014
 20
1037.606621520983
 30
0.0
 11
1533.296632643149
 21
1037.606621520983
 31
0.0
  0
LINE
  5
899
330
18
100
AcDbEntity
  8
外形
100
AcDbLine
 10
1540.026648152496
 20
1032.606621520983
 30
0.0
 11
1641.702865523014
 21
1032.606621520983
 31
0.0
  0
SPLINE
  5
89A
330
18
100
AcDbEntity
  8
外形
100
AcDbSpline
210
0.0
220
0.0
230
1.0
 70
  1064
 71
     3
 72
    12
 73
     8
 74
     6
 42
0.000000001
 43
0.0000000001
 44
0.0000000001
 40
0.0
 40
0.0
 40
0.0
 40
0.0
 40
126.3663815515393
 40
177.4980740310519
 40
317.2970839540704
 40
386.9382272921314
 40
409.9382272921314
 40
409.9382272921314
 40
409.9382272921314
 40
409.9382272921314
 10
1509.896658848738
 20
645.9066215209803
 30
0.0
 10
1545.942710229255
 20
687.407213825078
 30
0.0
 10
1596.574093496778
 20
745.7002116515675
 30
0.0
 10
1496.710228144547
 20
813.4695698714218
 30
0.0
 10
1536.452828395566
 20
956.0247154603597
 30
0.0
 10
1621.495269760216
 20
933.1431505428795
 30
0.0
 10
1652.103712858332
 20
933.9659548554749
 30
0.0
 10
1659.702865523014
 20
934.1702323342258
 30
0.0
 11
1509.896658848738
 21
645.9066215209803
 31
0.0
 11
1564.05782580956
 21
760.0776790612833
 31
0.0
 11
1531.0149523724
 21
799.0984234267523
 31
0.0
 11
1567.061722184953
 21
934.1702323342258
 31
0.0
 11
1636.702865523014
 21
934.1702323342258
 31
0.0
 11
1659.702865523014
 21
934.1702323342258
 31
0.0
  0
SPLINE
  5
89B
330
18
100
AcDbEntity
  8
外形
100
AcDbSpline
210
0.0
220
0.0
230
1.0
 70
  1064
 71
     3
 72
    12
 73
     8
 74
     6
 42
0.000000001
 43
0.0000000001
 44
0.0000000001
 40
0.0
 40
0.0
 40
0.0
 40
0.0
 40
81.60305091816905
 40
184.5456390090073
 40
233.5464965073133
 40
334.8328775547354
 40
339.8328775547354
 40
339.8328775547354
 40
339.8328775547354
 40
339.8328775547354
 10
1540.026648152496
 20
1032.606621520983
 30
0.0
 10
1511.616769353305
 20
1053.659421361388
 30
0.0
 10
1447.367710302527
 20
1101.270415751441
 30
0.0
 10
1587.177676855553
 20
1164.703597096624
 30
0.0
 10
1493.954270075197
 20
1227.136231331383
 30
0.0
 10
1522.327189008507
 20
1285.587526287487
 30
0.0
 10
1522.017816948085
 20
1320.943385872332
 30
0.0
 10
1522.003263246219
 20
1322.606621520983
 30
0.0
 11
1540.026648152496
 21
1032.606621520983
 31
0.0
 11
1488.96038980906
 21
1096.2564068934
 31
0.0
 11
1552.042233654071
 21
1177.606621520982
 31
0.0
 11
1522.003263246219
 21
1216.320240473561
 31
0.0
 11
1522.003263246219
 21
1317.606621520983
 31
0.0
 11
1522.003263246219
 21
1322.606621520983
 31
0.0
  0
LINE
  5
8B2
330
18
100
AcDbEntity
  8
外形
  6
CENTER
100
AcDbLine
 10
1715.702865523014
 20
1339.943657672556
 30
0.0
 11
1715.702865523014
 21
974.089808910943
 31
0.0
  0
LINE
  5
8B5
330
18
100
AcDbEntity
  8
外形
100
AcDbLine
 10
1860.702865523014
 20
774.4066215209803
 30
0.0
 11
1865.702865523014
 21
774.4066215209803
 31
0.0
  0
LINE
  5
8B6
330
18
100
AcDbEntity
  8
外形
100
AcDbLine
 10
1860.702865523014
 20
764.4066215209803
 30
0.0
 11
1865.702865523014
 21
764.4066215209803
 31
0.0
  0
LINE
  5
8B7
330
18
100
AcDbEntity
  8
外形
100
AcDbLine
 10
1865.702865523014
 20
764.4066215209803
 30
0.0
 11
1865.702865523014
 21
774.4066215209803
 31
0.0
  0
ARC
  5
8B8
330
18
100
AcDbEntity
  8
外形
100
AcDbCircle
 10
1715.702865523014
 20
1177.606621520982
 30
0.0
 40
150.0
100
AcDbArc
 50
240.4400916213213
 51
119.5599083786786
  0
LINE
  5
8B9
330
18
100
AcDbEntity
  8
外形
100
AcDbLine
 10
1646.341492987572
 20
1310.60662152098
 30
0.0
 11
1641.702865523014
 21
1310.60662152098
 31
0.0
  0
LINE
  5
8BA
330
18
100
AcDbEntity
  8
外形
100
AcDbLine
 10
1781.086349676127
 20
1312.60662152098
 30
0.0
 11
1833.702865523022
 21
1312.60662152098
 31
0.0
  0
LINE
  5
8BB
330
18
100
AcDbEntity
  8
外形
100
AcDbLine
 10
1833.702865523022
 20
1084.99992629867
 30
0.0
 11
1833.702865523022
 21
1042.606621520983
 31
0.0
  0
LINE
  5
8BC
330
18
100
AcDbEntity
  8
外形
100
AcDbLine
 10
1650.319381369902
 20
1042.606621520983
 30
0.0
 11
1641.702865523014
 21
1042.606621520983
 31
0.0
  0
LINE
  5
8BD
330
18
100
AcDbEntity
  8
外形
100
AcDbLine
 10
1646.341492987572
 20
1044.606621520983
 30
0.0
 11
1641.702865523014
 21
1044.606621520983
 31
0.0
  0
CIRCLE
  5
8BE
330
18
100
AcDbEntity
  8
外形
100
AcDbCircle
 10
1715.702865523014
 20
1177.606621520982
 30
0.0
 40
5.0
  0
DIMENSION
  5
8CC
330
18
100
AcDbEntity
  8
外形寸法
100
AcDbDimension
280
     0
  2
*D17
 10
1865.702865523014
 20
556.9808741737118
 30
0.0
 11
1752.702865523014
 21
570.4808741737118
 31
0.0
 70
    32
 71
     5
 42
226.0
 73
     0
 74
     0
 75
     0
  3
STANDARD$0
100
AcDbAlignedDimension
 13
1639.702865523014
 23
645.9066215209803
 33
0.0
 14
1865.702865523014
 24
764.4066215209803
 34
0.0
100
AcDbRotatedDimension
1001
ACAD
1000
DSTYLE
1002
{
1070
    40
1040
1.0
1002
}
  0
DIMENSION
  5
8E2
330
18
100
AcDbEntity
  8
外形寸法
100
AcDbDimension
280
     0
  2
*D18
 10
1328.702865523014
 20
556.9808741737118
 30
0.0
 11
1484.202865523014
 21
570.4808741737118
 31
0.0
 70
    32
 71
     5
 42
311.0
 73
     0
 74
     0
 75
     0
  3
STANDARD$0
100
AcDbAlignedDimension
 13
1639.702865523014
 23
598.7209300395527
 33
0.0
 14
1328.702865523014
 24
598.7209300395527
 34
0.0
100
AcDbRotatedDimension
1001
ACAD
1000
DSTYLE
1002
{
1070
    40
1040
1.0
1002
}
  0
DIMENSION
  5
8EF
330
18
100
AcDbEntity
  8
外形寸法
100
AcDbDimension
280
     0
  2
*D19
 10
1942.355226699251
 20
775.9066215209803
 30
0.0
 11
1928.855226699251
 21
700.9066215209806
 31
0.0
 70
    32
 71
     5
 42
150.0
 73
     0
 74
     0
 75
     0
  3
STANDARD$0
100
AcDbAlignedDimension
 13
1889.366965202137
 23
625.9066215209803
 33
0.0
 14
1889.366965202137
 24
775.9066215209803
 34
0.0
 50
90.0
100
AcDbRotatedDimension
1001
ACAD
1000
DSTYLE
1002
{
1070
    40
1040
1.0
1002
}
  0
LINE
  5
8FC
330
18
100
AcDbEntity
  8
外形寸法
100
AcDbLine
 10
1889.991965202137
 20
625.9066215209803
 30
0.0
 11
1822.702865523014
 21
625.9066215209803
 31
0.0
  0
DIMENSION
  5
8FD
330
18
100
AcDbEntity
  8
外形寸法
100
AcDbDimension
280
     0
  2
*D20
 10
1621.97567495864
 20
1060.494650532062
 30
0.0
 11
1770.673248003868
 21
1246.292024332943
 31
0.0
 70
   163
 71
     5
 42
300.0
 73
     0
 74
     0
 75
     0
  3
STANDARD$3
100
AcDbDiametricDimension
 15
1809.430056087388
 25
1294.718592509901
 35
0.0
 40
0.0
1001
ACAD
1000
DSTYLE
1002
{
1070
    40
1040
1.0
1070
   288
1070
     1
1002
}
  0
MTEXT
  5
907
330
18
100
AcDbEntity
  8
注釈文字
100
AcDbMText
 10
1236.316706432422
 20
1433.311936437246
 30
0.0
 40
25.0
 41
885.9639999999999
 46
0.0
 71
     1
 72
     5
  1
{\Lターンテーブルユニット セット時（シャリ玉モード）\P＊兼用型の場合（オプション設定）}
 73
     1
 44
1.0
  0
VIEWPORT
  5
680
330
15
100
AcDbEntity
 67
     1
  8
0
100
AcDbViewport
 10
0.0
 20
0.0
 30
0.0
 40
1638.136666666666
 41
888.7199999999999
 68
     1
 69
     1
 12
523.2645329896546
 22
492.8496872102955
 13
0.0
 23
0.0
 14
10.0
 24
10.0
 15
10.0
 25
10.0
 16
0.0
 26
0.0
 36
1.0
 17
0.0
 27
0.0
 37
0.0
 42
50.0
 43
0.0
 44
0.0
 45
888.7199999999999
 50
0.0
 51
0.0
 72
   100
 90
    32816
  1

281
     0
 71
     1
 74
     0
110
0.0
120
0.0
130
0.0
111
1.0
121
0.0
131
0.0
112
0.0
122
1.0
132
0.0
 79
     0
146
0.0
170
     0
 61
     5
348
94E
292
     1
282
     1
141
0.0
142
0.0
 63
   256
361
999
  0
VIEWPORT
  5
682
330
15
100
AcDbEntity
 67
     1
  8
外形
100
AcDbViewport
 10
573.6742919696658
 20
398.5920699391158
 30
0.0
 40
1154.756094693283
 41
804.7086579842903
 68
     2
 69
     2
 12
931.1801062836621
 22
706.7781762916275
 13
0.0
 23
0.0
 14
10.0
 24
10.0
 15
10.0
 25
10.0
 16
0.0
 26
0.0
 36
1.0
 17
48.5834045084448
 27
-9.639179957312876
 37
0.0
 42
50.0
 43
0.0
 44
0.0
 45
1768.403051367763
 50
0.0
 51
0.0
 72
   100
 90
    32816
  1

281
     0
 71
     1
 74
     0
110
0.0
120
0.0
130
0.0
111
1.0
121
0.0
131
0.0
112
0.0
122
1.0
132
0.0
 79
     0
146
0.0
170
     0
 61
     5
348
94E
292
     1
282
     1
141
0.0
142
0.0
 63
   256
361
98D
  0
ENDSEC
  0
SECTION
  2
OBJECTS
  0
DICTIONARY
  5
C
330
0
100
AcDbDictionary
281
     1
  3
ACAD_DETAILVIEWSTYLE
350
997
  3
ACAD_GROUP
350
D
  3
ACAD_IMAGE_VARS
350
98E
  3
ACAD_LAYOUT
350
B8
  3
ACAD_MATERIAL
350
984
  3
ACAD_MLEADERSTYLE
350
98A
  3
ACAD_MLINESTYLE
350
1B
  3
ACAD_PLOTSETTINGS
350
B9
  3
ACAD_PLOTSTYLENAME
350
B6
  3
ACAD_SCALELIST
350
962
  3
ACAD_SECTIONVIEWSTYLE
350
998
  3
ACAD_TABLESTYLE
350
988
  3
ACAD_VISUALSTYLE
350
949
  3
ACDB_RECOMPOSE_DATA
350
9B5
  3
AcDbVariableDictionary
350
98F
  3
APPDATA
350
98C
  3
CONTENTDICTIONARY
350
8C
  3
DRAWINGVARIABLESDICT
350
4A
  0
SUN
  5
99A
330
948
100
AcDbSun
 90
        1
290
     0
 63
     7
421
 16777215
 40
1.0
291
     1
 91
  2455826
 92
 54000000
292
     0
 70
     2
 71
   256
280
     1
  0
SUN
  5
999
330
680
100
AcDbSun
 90
        1
290
     0
 63
     7
421
 16777215
 40
1.0
291
     1
 91
  2455826
 92
 54000000
292
     0
 70
     2
 71
   256
280
     1
  0
SUN
  5
98D
330
682
100
AcDbSun
 90
        1
290
     0
 63
     7
421
 16777215
 40
1.0
291
     1
 91
  2455826
 92
 54000000
292
     0
 70
     2
 71
   256
280
     1
  0
DICTIONARY
  5
997
102
{ACAD_REACTORS
330
C
102
}
330
C
100
AcDbDictionary
281
     1
  0
DICTIONARY
  5
D
102
{ACAD_REACTORS
330
C
102
}
330
C
100
AcDbDictionary
281
     1
  0
RASTERVARIABLES
  5
98E
102
{ACAD_REACTORS
330
C
102
}
330
C
100
AcDbRasterVariables
 90
        0
 70
     1
 71
     1
 72
     0
  0
DICTIONARY
  5
B8
102
{ACAD_REACTORS
330
C
102
}
330
C
100
AcDbDictionary
281
     1
  3
Model
350
BA
  3
ﾚｲｱｳﾄ1
350
BB
  0
DICTIONARY
  5
984
102
{ACAD_REACTORS
330
C
102
}
330
C
100
AcDbDictionary
281
     1
  3
ByBlock
350
986
  3
ByLayer
350
985
  3
Global
350
987
  0
DICTIONARY
  5
98A
102
{ACAD_REACTORS
330
C
102
}
330
C
100
AcDbDictionary
281
     1
  3
Standard
350
98B
  0
DICTIONARY
  5
1B
102
{ACAD_REACTORS
330
C
102
}
330
C
100
AcDbDictionary
281
     1
  3
STANDARD
350
1C
  0
DICTIONARY
  5
B9
102
{ACAD_REACTORS
330
C
102
}
330
C
100
AcDbDictionary
281
     1
  0
ACDBDICTIONARYWDFLT
  5
B6
102
{ACAD_REACTORS
330
C
102
}
330
C
100
AcDbDictionary
281
     1
  3
Normal
350
B7
100
AcDbDictionaryWithDefault
340
B7
  0
DICTIONARY
  5
962
102
{ACAD_REACTORS
330
C
102
}
330
C
100
AcDbDictionary
281
     1
  3
A0
350
963
  3
A1
350
964
  3
A2
350
965
  3
A3
350
966
  3
A4
350
967
  3
A5
350
968
  3
A6
350
969
  3
A7
350
96A
  3
A8
350
96B
  3
A9
350
96C
  3
B0
350
96D
  3
B1
350
96E
  3
B2
350
96F
  3
B3
350
970
  3
B4
350
971
  3
B5
350
972
  3
B6
350
973
  3
B7
350
974
  3
B8
350
975
  3
B9
350
976
  3
C0
350
977
  3
C1
350
978
  3
C2
350
979
  3
C3
350
97A
  3
C4
350
97B
  3
C5
350
97C
  3
C6
350
97D
  3
C7
350
97E
  3
C8
350
97F
  3
C9
350
980
  3
D0
350
981
  3
D1
350
982
  3
D2
350
983
  0
DICTIONARY
  5
998
102
{ACAD_REACTORS
330
C
102
}
330
C
100
AcDbDictionary
281
     1
  0
DICTIONARY
  5
988
102
{ACAD_REACTORS
330
C
102
}
330
C
100
AcDbDictionary
281
     1
  3
Standard
350
989
  0
DICTIONARY
  5
949
102
{ACAD_REACTORS
330
C
102
}
330
C
100
AcDbDictionary
281
     1
  3
2dWireframe
350
94E
  3
Basic
350
951
  3
Brighten
350
955
  3
ColorChange
350
959
  3
Conceptual
350
953
  3
Dim
350
954
  3
EdgeColorOff
350
95C
  3
Facepattern
350
958
  3
Flat
350
94A
  3
FlatWithEdges
350
94B
  3
Gouraud
350
94C
  3
GouraudWithEdges
350
94D
  3
Hidden
350
950
  3
JitterOff
350
95A
  3
Linepattern
350
957
  3
OverhangOff
350
95B
  3
Realistic
350
952
  3
Shaded
350
961
  3
Shaded with edges
350
960
  3
Shades of Gray
350
95D
  3
Sketchy
350
95E
  3
Thicken
350
956
  3
Wireframe
350
94F
  3
X-Ray
350
95F
  0
XRECORD
  5
9B5
102
{ACAD_REACTORS
330
C
102
}
330
C
100
AcDbXrecord
280
     1
 90
        1
330
989
  0
DICTIONARY
  5
98F
102
{ACAD_REACTORS
330
C
102
}
330
C
100
AcDbDictionary
281
     1
  3
CANNOSCALE
350
990
  3
CMLEADERSTYLE
350
995
  3
CTABLESTYLE
350
994
  3
MSLTSCALE
350
996
  0
DICTIONARY
  5
98C
102
{ACAD_REACTORS
330
C
102
}
330
C
100
AcDbDictionary
281
     1
  0
DICTIONARY
  5
8C
102
{ACAD_REACTORS
330
C
102
}
330
C
100
AcDbDictionary
281
     1
  0
DICTIONARY
  5
4A
102
{ACAD_REACTORS
330
C
102
}
330
C
100
AcDbDictionary
281
     1
1001
DRAWINGVARIABLESXDATA
1000
POLARMODE
1000
3
  0
LAYOUT
  5
BA
102
{ACAD_REACTORS
330
B8
102
}
330
B8
100
AcDbPlotSettings
  1

  2
\\Server01\Canon iR C2880/C3380 LIPSLX
  4
A4
  6

 40
3.174999952316284
 41
3.174999952316284
 42
3.175003051757812
 43
3.17498779296875
 44
210.0
 45
297.0
 46
12.24
 47
4.4
 48
0.0
 49
0.0
140
0.0
141
0.0
142
1.0
143
8.6
 70
 11940
 72
     1
 73
     1
 74
     1
  7
monochrome.ctb
 75
     0
 76
     0
 77
     2
 78
   300
147
0.1162790697674419
148
273.98848710327
149
33.85503953813259
100
AcDbLayout
  1
Model
 70
     1
 71
     0
 10
0.0
 20
0.0
 11
12.0
 21
9.0
 12
0.0
 22
0.0
 32
0.0
 14
-252.6017661338292
 24
-55.12078437008017
 34
0.0
 15
2171.145873937813
 25
1485.580107753351
 35
0.0
146
0.0
 13
0.0
 23
0.0
 33
0.0
 16
1.0
 26
0.0
 36
0.0
 17
0.0
 27
1.0
 37
0.0
 76
     0
330
18
331
948
  0
LAYOUT
  5
BB
102
{ACAD_REACTORS
330
B8
102
}
330
B8
100
AcDbPlotSettings
  1

  2
\\Server01\Canon iR C2880/C3380 LIPSLX
  4
A4
  6

 40
3.174999952316284
 41
3.174999952316284
 42
3.175003051757812
 43
3.17498779296875
 44
210.0
 45
297.0
 46
1.23
 47
0.97
 48
0.0
 49
0.0
140
0.0
141
0.0
142
1.0
143
4.0
 70
   692
 72
     1
 73
     1
 74
     1
  7
monochrome.ctb
 75
    18
 76
     0
 77
     2
 78
   300
147
0.25
148
3.724182505137378
149
3.780479647105949
100
AcDbLayout
  1
ﾚｲｱｳﾄ1
 70
     1
 71
     1
 10
-20.30413367701238
 20
-21.40047945637109
 11
1167.695866322988
 21
818.599520543629
 12
0.0
 22
0.0
 32
0.0
 14
-3.70375537697555
 24
-3.762259053029311
 34
0.0
 15
1151.052339316307
 25
800.946398931261
 35
0.0
146
0.0
 13
0.0
 23
0.0
 33
0.0
 16
1.0
 26
0.0
 36
0.0
 17
0.0
 27
1.0
 37
0.0
 76
     0
330
15
331
680
  0
MATERIAL
  5
986
102
{ACAD_REACTORS
330
984
102
}
330
984
100
AcDbMaterial
  1
ByBlock
 72
     1
 94
      127
  0
MATERIAL
  5
985
102
{ACAD_REACTORS
330
984
102
}
330
984
100
AcDbMaterial
  1
ByLayer
 72
     1
 94
      127
  0
MATERIAL
  5
987
102
{ACAD_REACTORS
330
984
102
}
330
984
100
AcDbMaterial
  1
Global
 72
     1
 94
      127
  0
MLEADERSTYLE
  5
98B
102
{ACAD_REACTORS
330
98A
102
}
330
98A
100
AcDbMLeaderStyle
179
     2
170
     2
171
     1
172
     0
 90
        2
 40
0.0
 41
0.0
173
     1
 91
-1056964608
340
12
 92
       -2
290
     1
 42
2.0
291
     1
 43
8.0
  3
Standard
341
0
 44
4.0
300

342
F
174
     1
178
     6
175
     1
176
     0
 93
-1056964608
 45
4.0
292
     0
297
     0
 46
4.0
343
0
 94
-1056964608
 47
1.0
 49
1.0
140
1.0
293
     1
141
0.0
294
     1
177
     0
142
1.0
295
     0
296
     0
143
3.75
271
     0
272
     9
273
     9
298
     0
  0
MLINESTYLE
  5
1C
102
{ACAD_REACTORS
330
1B
102
}
330
1B
100
AcDbMlineStyle
  2
STANDARD
 70
     0
  3

 62
   256
 51
90.0
 52
90.0
 71
     2
 49
0.5
 62
   256
  6
BYLAYER
 49
-0.5
 62
   256
  6
BYLAYER
  0
ACDBPLACEHOLDER
  5
B7
102
{ACAD_REACTORS
330
B6
102
}
330
B6
  0
SCALE
  5
963
102
{ACAD_REACTORS
330
962
102
}
330
962
100
AcDbScale
 70
     0
300
1:1
140
1.0
141
1.0
290
     1
  0
SCALE
  5
964
102
{ACAD_REACTORS
330
962
102
}
330
962
100
AcDbScale
 70
     0
300
1:2
140
1.0
141
2.0
290
     0
  0
SCALE
  5
965
102
{ACAD_REACTORS
330
962
102
}
330
962
100
AcDbScale
 70
     0
300
1:4
140
1.0
141
4.0
290
     0
  0
SCALE
  5
966
102
{ACAD_REACTORS
330
962
102
}
330
962
100
AcDbScale
 70
     0
300
1:5
140
1.0
141
5.0
290
     0
  0
SCALE
  5
967
102
{ACAD_REACTORS
330
962
102
}
330
962
100
AcDbScale
 70
     0
300
1:8
140
1.0
141
8.0
290
     0
  0
SCALE
  5
968
102
{ACAD_REACTORS
330
962
102
}
330
962
100
AcDbScale
 70
     0
300
1:10
140
1.0
141
10.0
290
     0
  0
SCALE
  5
969
102
{ACAD_REACTORS
330
962
102
}
330
962
100
AcDbScale
 70
     0
300
1:16
140
1.0
141
16.0
290
     0
  0
SCALE
  5
96A
102
{ACAD_REACTORS
330
962
102
}
330
962
100
AcDbScale
 70
     0
300
1:20
140
1.0
141
20.0
290
     0
  0
SCALE
  5
96B
102
{ACAD_REACTORS
330
962
102
}
330
962
100
AcDbScale
 70
     0
300
1:30
140
1.0
141
30.0
290
     0
  0
SCALE
  5
96C
102
{ACAD_REACTORS
330
962
102
}
330
962
100
AcDbScale
 70
     0
300
1:40
140
1.0
141
40.0
290
     0
  0
SCALE
  5
96D
102
{ACAD_REACTORS
330
962
102
}
330
962
100
AcDbScale
 70
     0
300
1:50
140
1.0
141
50.0
290
     0
  0
SCALE
  5
96E
102
{ACAD_REACTORS
330
962
102
}
330
962
100
AcDbScale
 70
     0
300
1:100
140
1.0
141
100.0
290
     0
  0
SCALE
  5
96F
102
{ACAD_REACTORS
330
962
102
}
330
962
100
AcDbScale
 70
     0
300
2:1
140
2.0
141
1.0
290
     0
  0
SCALE
  5
970
102
{ACAD_REACTORS
330
962
102
}
330
962
100
AcDbScale
 70
     0
300
4:1
140
4.0
141
1.0
290
     0
  0
SCALE
  5
971
102
{ACAD_REACTORS
330
962
102
}
330
962
100
AcDbScale
 70
     0
300
8:1
140
8.0
141
1.0
290
     0
  0
SCALE
  5
972
102
{ACAD_REACTORS
330
962
102
}
330
962
100
AcDbScale
 70
     0
300
10:1
140
10.0
141
1.0
290
     0
  0
SCALE
  5
973
102
{ACAD_REACTORS
330
962
102
}
330
962
100
AcDbScale
 70
     0
300
100:1
140
100.0
141
1.0
290
     0
  0
SCALE
  5
974
102
{ACAD_REACTORS
330
962
102
}
330
962
100
AcDbScale
 70
     0
300
1/128" = 1'-0"
140
0.0078125
141
12.0
290
     0
  0
SCALE
  5
975
102
{ACAD_REACTORS
330
962
102
}
330
962
100
AcDbScale
 70
     0
300
1/64" = 1'-0"
140
0.015625
141
12.0
290
     0
  0
SCALE
  5
976
102
{ACAD_REACTORS
330
962
102
}
330
962
100
AcDbScale
 70
     0
300
1/32" = 1'-0"
140
0.03125
141
12.0
290
     0
  0
SCALE
  5
977
102
{ACAD_REACTORS
330
962
102
}
330
962
100
AcDbScale
 70
     0
300
1/16" = 1'-0"
140
0.0625
141
12.0
290
     0
  0
SCALE
  5
978
102
{ACAD_REACTORS
330
962
102
}
330
962
100
AcDbScale
 70
     0
300
3/32" = 1'-0"
140
0.09375
141
12.0
290
     0
  0
SCALE
  5
979
102
{ACAD_REACTORS
330
962
102
}
330
962
100
AcDbScale
 70
     0
300
1/8" = 1'-0"
140
0.125
141
12.0
290
     0
  0
SCALE
  5
97A
102
{ACAD_REACTORS
330
962
102
}
330
962
100
AcDbScale
 70
     0
300
3/16" = 1'-0"
140
0.1875
141
12.0
290
     0
  0
SCALE
  5
97B
102
{ACAD_REACTORS
330
962
102
}
330
962
100
AcDbScale
 70
     0
300
1/4" = 1'-0"
140
0.25
141
12.0
290
     0
  0
SCALE
  5
97C
102
{ACAD_REACTORS
330
962
102
}
330
962
100
AcDbScale
 70
     0
300
3/8" = 1'-0"
140
0.375
141
12.0
290
     0
  0
SCALE
  5
97D
102
{ACAD_REACTORS
330
962
102
}
330
962
100
AcDbScale
 70
     0
300
1/2" = 1'-0"
140
0.5
141
12.0
290
     0
  0
SCALE
  5
97E
102
{ACAD_REACTORS
330
962
102
}
330
962
100
AcDbScale
 70
     0
300
3/4" = 1'-0"
140
0.75
141
12.0
290
     0
  0
SCALE
  5
97F
102
{ACAD_REACTORS
330
962
102
}
330
962
100
AcDbScale
 70
     0
300
1" = 1'-0"
140
1.0
141
12.0
290
     0
  0
SCALE
  5
980
102
{ACAD_REACTORS
330
962
102
}
330
962
100
AcDbScale
 70
     0
300
1-1/2" = 1'-0"
140
1.5
141
12.0
290
     0
  0
SCALE
  5
981
102
{ACAD_REACTORS
330
962
102
}
330
962
100
AcDbScale
 70
     0
300
3" = 1'-0"
140
3.0
141
12.0
290
     0
  0
SCALE
  5
982
102
{ACAD_REACTORS
330
962
102
}
330
962
100
AcDbScale
 70
     0
300
6" = 1'-0"
140
6.0
141
12.0
290
     0
  0
SCALE
  5
983
102
{ACAD_REACTORS
330
962
102
}
330
962
100
AcDbScale
 70
     0
300
1'-0" = 1'-0"
140
12.0
141
12.0
290
     0
  0
TABLESTYLE
  5
989
102
{ACAD_REACTORS
330
988
102
}
102
{ACAD_XDICTIONARY
360
9B3
102
}
330
988
100
AcDbTableStyle
  3
Standard
 70
     0
 71
     0
 40
1.5
 41
1.5
280
     0
281
     0
  7
STANDARD
140
4.5
170
     2
 62
     0
 63
   257
283
     0
 90
        4
 91
        0
  1

274
    -2
284
     1
 64
     0
275
    -2
285
     1
 65
     0
276
    -2
286
     1
 66
     0
277
    -2
287
     1
 67
     0
278
    -2
288
     1
 68
     0
279
    -2
289
     1
 69
     0
  7
STANDARD
140
6.0
170
     5
 62
     0
 63
   257
283
     0
 90
        4
 91
        0
  1

274
    -2
284
     1
 64
     0
275
    -2
285
     1
 65
     0
276
    -2
286
     1
 66
     0
277
    -2
287
     1
 67
     0
278
    -2
288
     1
 68
     0
279
    -2
289
     1
 69
     0
  7
STANDARD
140
4.5
170
     5
 62
     0
 63
   257
283
     0
 90
        4
 91
        0
  1

274
    -2
284
     1
 64
     0
275
    -2
285
     1
 65
     0
276
    -2
286
     1
 66
     0
277
    -2
287
     1
 67
     0
278
    -2
288
     1
 68
     0
279
    -2
289
     1
 69
     0
  0
VISUALSTYLE
  5
94E
102
{ACAD_REACTORS
330
949
102
}
330
949
100
AcDbVisualStyle
  2
2dWireframe
 70
     4
177
     3
291
     0
 70
    58
 90
        0
176
     1
 90
        2
176
     1
 90
        0
176
     1
 90
        0
176
     1
 40
0.6
176
     1
 40
30.0
176
     1
 62
     7
420
 16777215
176
     1
 90
        1
176
     1
 90
        4
176
     1
 62
     7
176
     1
 62
   257
176
     1
 90
        1
176
     1
 90
        1
176
     1
 40
1.0
176
     1
 90
        0
176
     1
 62
   257
176
     1
 40
1.0
176
     1
 90
        1
176
     1
 90
        6
176
     1
 90
        2
176
     1
 62
     7
176
     1
 90
        5
176
     1
 90
        0
176
     1
 90
        0
176
     1
290
     0
176
     1
 90
        1
176
     1
 40
0.0
176
     1
 90
        0
176
     1
290
     1
176
     1
290
     1
176
     1
290
     0
176
     1
290
     0
176
     1
290
     0
176
     1
290
     0
176
     1
290
     0
176
     1
290
     0
176
     1
290
     0
176
     1
 90
       50
176
     1
 40
0.0
176
     1
 40
1.0
176
     1
 90
        0
176
     1
 62
    18
420
        0
176
     1
 90
       50
176
     1
 90
        3
176
     1
 62
     5
420
      255
176
     1
290
     0
176
     1
 90
       50
176
     1
 90
       50
176
     1
 90
       50
176
     1
290
     0
176
     1
 90
       50
176
     1
 62
   256
176
     0
 40
1.0
176
     0
 90
        2
176
     1
  1
strokes_ogs.tif
176
     1
290
     0
176
     1
 40
1.0
176
     1
 40
1.0
176
     1
  0
VISUALSTYLE
  5
951
102
{ACAD_REACTORS
330
949
102
}
330
949
100
AcDbVisualStyle
  2
Basic
 70
     7
177
     3
291
     1
 70
    58
 90
        1
176
     1
 90
        0
176
     1
 90
        1
176
     1
 90
        0
176
     1
 40
0.6
176
     1
 40
30.0
176
     1
 62
     7
420
 16777215
176
     1
 90
        0
176
     1
 90
        4
176
     1
 62
     7
176
     1
 62
   257
176
     1
 90
        1
176
     1
 90
        1
176
     1
 40
1.0
176
     1
 90
        8
176
     1
 62
     7
176
     1
 40
1.0
176
     1
 90
        1
176
     1
 90
        6
176
     1
 90
        2
176
     1
 62
     7
176
     1
 90
        5
176
     1
 90
        0
176
     1
 90
        0
176
     1
290
     0
176
     1
 90
        1
176
     1
 40
0.0
176
     1
 90
        0
176
     1
290
     0
176
     1
290
     1
176
     1
290
     1
176
     1
290
     0
176
     1
290
     0
176
     1
290
     0
176
     1
290
     0
176
     1
290
     0
176
     1
290
     0
176
     1
 90
       50
176
     1
 40
0.0
176
     1
 40
1.0
176
     1
 90
        0
176
     1
 62
    18
420
        0
176
     1
 90
       50
176
     1
 90
        3
176
     1
 62
     5
420
      255
176
     1
290
     0
176
     1
 90
       50
176
     1
 90
       50
176
     1
 90
       50
176
     1
290
     0
176
     1
 90
       50
176
     1
 62
   256
176
     0
 40
1.0
176
     0
 90
        2
176
     1
  1
strokes_ogs.tif
176
     1
290
     0
176
     1
 40
1.0
176
     1
 40
1.0
176
     1
  0
VISUALSTYLE
  5
955
102
{ACAD_REACTORS
330
949
102
}
330
949
100
AcDbVisualStyle
  2
Brighten
 70
    12
177
     3
291
     1
 70
    58
 90
        2
176
     1
 90
        2
176
     1
 90
        0
176
     1
 90
        0
176
     1
 40
0.6
176
     1
 40
30.0
176
     1
 62
     7
420
 16777215
176
     1
 90
        1
176
     1
 90
        4
176
     1
 62
     7
176
     1
 62
   257
176
     1
 90
        1
176
     1
 90
        1
176
     1
 40
1.0
176
     1
 90
        8
176
     1
 62
     7
176
     1
 40
1.0
176
     1
 90
        1
176
     1
 90
        6
176
     1
 90
        2
176
     1
 62
     7
176
     1
 90
        5
176
     1
 90
        0
176
     1
 90
        0
176
     1
290
     0
176
     1
 90
        1
176
     1
 40
50.0
176
     1
 90
        0
176
     1
290
     0
176
     1
290
     1
176
     1
290
     1
176
     1
290
     0
176
     1
290
     0
176
     1
290
     0
176
     1
290
     0
176
     1
290
     0
176
     1
290
     0
176
     1
 90
       50
176
     1
 40
0.0
176
     1
 40
1.0
176
     1
 90
        0
176
     1
 62
    18
420
        0
176
     1
 90
       50
176
     1
 90
        3
176
     1
 62
     5
420
      255
176
     1
290
     0
176
     1
 90
       50
176
     1
 90
       50
176
     1
 90
       50
176
     1
290
     0
176
     1
 90
       50
176
     1
 62
   256
176
     0
 40
1.0
176
     0
 90
        2
176
     1
  1
strokes_ogs.tif
176
     1
290
     0
176
     1
 40
1.0
176
     1
 40
1.0
176
     1
  0
VISUALSTYLE
  5
959
102
{ACAD_REACTORS
330
949
102
}
330
949
100
AcDbVisualStyle
  2
ColorChange
 70
    16
177
     3
291
     1
 70
    58
 90
        2
176
     1
 90
        2
176
     1
 90
        3
176
     1
 90
        0
176
     1
 40
0.6
176
     1
 40
30.0
176
     1
 62
     8
420
  8421504
176
     1
 90
        1
176
     1
 90
        4
176
     1
 62
     7
176
     1
 62
   257
176
     1
 90
        1
176
     1
 90
        1
176
     1
 40
1.0
176
     1
 90
        8
176
     1
 62
     8
420
  8421504
176
     1
 40
1.0
176
     1
 90
        1
176
     1
 90
        6
176
     1
 90
        2
176
     1
 62
     7
176
     1
 90
        5
176
     1
 90
        0
176
     1
 90
        0
176
     1
290
     0
176
     1
 90
        1
176
     1
 40
0.0
176
     1
 90
        0
176
     1
290
     0
176
     1
290
     1
176
     1
290
     1
176
     1
290
     0
176
     1
290
     0
176
     1
290
     0
176
     1
290
     0
176
     1
290
     0
176
     1
290
     0
176
     1
 90
       50
176
     1
 40
0.0
176
     1
 40
1.0
176
     1
 90
        0
176
     1
 62
    18
420
        0
176
     1
 90
       50
176
     1
 90
        3
176
     1
 62
     5
420
      255
176
     1
290
     0
176
     1
 90
       50
176
     1
 90
       50
176
     1
 90
       50
176
     1
290
     0
176
     1
 90
       50
176
     1
 62
   256
176
     0
 40
1.0
176
     0
 90
        2
176
     1
  1
strokes_ogs.tif
176
     1
290
     0
176
     1
 40
1.0
176
     1
 40
1.0
176
     1
  0
VISUALSTYLE
  5
953
102
{ACAD_REACTORS
330
949
102
}
330
949
100
AcDbVisualStyle
  2
Conceptual
 70
     9
177
     3
291
     0
 70
    58
 90
        3
176
     1
 90
        2
176
     1
 90
        0
176
     1
 90
        0
176
     1
 40
0.6
176
     1
 40
30.0
176
     1
 62
     7
420
 16777215
176
     1
 90
        2
176
     1
 90
        2
176
     1
 62
     7
176
     1
 62
   257
176
     1
 90
        1
176
     1
 90
        1
176
     1
 40
179.0
176
     1
 90
        8
176
     1
 62
     7
176
     1
 40
1.0
176
     1
 90
        1
176
     1
 90
        6
176
     1
 90
        2
176
     1
 62
     7
176
     1
 90
        3
176
     1
 90
        0
176
     1
 90
        0
176
     1
290
     0
176
     1
 90
        1
176
     1
 40
0.0
176
     1
 90
        0
176
     1
290
     0
176
     1
290
     1
176
     1
290
     1
176
     1
290
     0
176
     1
290
     0
176
     1
290
     0
176
     1
290
     0
176
     1
290
     0
176
     1
290
     0
176
     1
 90
       50
176
     1
 40
0.0
176
     1
 40
1.0
176
     1
 90
        0
176
     1
 62
    18
420
        0
176
     1
 90
       50
176
     1
 90
        3
176
     1
 62
     5
420
      255
176
     1
290
     0
176
     1
 90
       50
176
     1
 90
       50
176
     1
 90
       50
176
     1
290
     0
176
     1
 90
       50
176
     1
 62
   256
176
     0
 40
1.0
176
     0
 90
        2
176
     1
  1
strokes_ogs.tif
176
     1
290
     0
176
     1
 40
1.0
176
     1
 40
1.0
176
     1
  0
VISUALSTYLE
  5
954
102
{ACAD_REACTORS
330
949
102
}
330
949
100
AcDbVisualStyle
  2
Dim
 70
    11
177
     3
291
     1
 70
    58
 90
        2
176
     1
 90
        2
176
     1
 90
        0
176
     1
 90
        0
176
     1
 40
0.6
176
     1
 40
30.0
176
     1
 62
     7
420
 16777215
176
     1
 90
        1
176
     1
 90
        4
176
     1
 62
     7
176
     1
 62
   257
176
     1
 90
        1
176
     1
 90
        1
176
     1
 40
1.0
176
     1
 90
        8
176
     1
 62
     7
176
     1
 40
1.0
176
     1
 90
        1
176
     1
 90
        6
176
     1
 90
        2
176
     1
 62
     7
176
     1
 90
        5
176
     1
 90
        0
176
     1
 90
        0
176
     1
290
     0
176
     1
 90
        1
176
     1
 40
-50.0
176
     1
 90
        0
176
     1
290
     0
176
     1
290
     1
176
     1
290
     1
176
     1
290
     0
176
     1
290
     0
176
     1
290
     0
176
     1
290
     0
176
     1
290
     0
176
     1
290
     0
176
     1
 90
       50
176
     1
 40
0.0
176
     1
 40
1.0
176
     1
 90
        0
176
     1
 62
    18
420
        0
176
     1
 90
       50
176
     1
 90
        3
176
     1
 62
     5
420
      255
176
     1
290
     0
176
     1
 90
       50
176
     1
 90
       50
176
     1
 90
       50
176
     1
290
     0
176
     1
 90
       50
176
     1
 62
   256
176
     0
 40
1.0
176
     0
 90
        2
176
     1
  1
strokes_ogs.tif
176
     1
290
     0
176
     1
 40
1.0
176
     1
 40
1.0
176
     1
  0
VISUALSTYLE
  5
95C
102
{ACAD_REACTORS
330
949
102
}
330
949
100
AcDbVisualStyle
  2
EdgeColorOff
 70
    22
177
     3
291
     1
 70
    58
 90
        2
176
     0
 90
        2
176
     0
 90
        0
176
     0
 90
        0
176
     0
 40
0.6
176
     0
 40
30.0
176
     0
 62
     7
420
 16777215
176
     0
 90
        1
176
     0
 90
        4
176
     0
 62
     7
176
     0
 62
   257
176
     0
 90
        1
176
     0
 90
        1
176
     0
 40
1.0
176
     0
 90
        8
176
     2
 62
     7
176
     0
 40
1.0
176
     0
 90
        1
176
     0
 90
        6
176
     0
 90
        2
176
     0
 62
     7
176
     0
 90
        5
176
     0
 90
        0
176
     0
 90
        0
176
     0
290
     0
176
     0
 90
        1
176
     0
 40
0.0
176
     0
 90
        0
176
     0
290
     0
176
     0
290
     1
176
     0
290
     1
176
     0
290
     0
176
     0
290
     0
176
     0
290
     0
176
     0
290
     0
176
     0
290
     0
176
     0
290
     0
176
     0
 90
       50
176
     0
 40
0.0
176
     0
 40
1.0
176
     0
 90
        0
176
     0
 62
    18
420
        0
176
     0
 90
       50
176
     0
 90
        3
176
     0
 62
     5
420
      255
176
     0
290
     0
176
     0
 90
       50
176
     0
 90
       50
176
     0
 90
       50
176
     0
290
     0
176
     0
 90
       50
176
     0
 62
   256
176
     0
 40
1.0
176
     0
 90
        2
176
     0
  1
strokes_ogs.tif
176
     0
290
     0
176
     0
 40
1.0
176
     0
 40
1.0
176
     0
  0
VISUALSTYLE
  5
958
102
{ACAD_REACTORS
330
949
102
}
330
949
100
AcDbVisualStyle
  2
Facepattern
 70
    15
177
     3
291
     1
 70
    58
 90
        2
176
     1
 90
        2
176
     1
 90
        0
176
     1
 90
        0
176
     1
 40
0.6
176
     1
 40
30.0
176
     1
 62
     7
420
 16777215
176
     1
 90
        1
176
     1
 90
        4
176
     1
 62
     7
176
     1
 62
   257
176
     1
 90
        1
176
     1
 90
        1
176
     1
 40
1.0
176
     1
 90
        8
176
     1
 62
     7
176
     1
 40
1.0
176
     1
 90
        1
176
     1
 90
        6
176
     1
 90
        2
176
     1
 62
     7
176
     1
 90
        5
176
     1
 90
        0
176
     1
 90
        0
176
     1
290
     0
176
     1
 90
        1
176
     1
 40
0.0
176
     1
 90
        0
176
     1
290
     0
176
     1
290
     1
176
     1
290
     1
176
     1
290
     0
176
     1
290
     0
176
     1
290
     0
176
     1
290
     0
176
     1
290
     0
176
     1
290
     0
176
     1
 90
       50
176
     1
 40
0.0
176
     1
 40
1.0
176
     1
 90
        0
176
     1
 62
    18
420
        0
176
     1
 90
       50
176
     1
 90
        3
176
     1
 62
     5
420
      255
176
     1
290
     0
176
     1
 90
       50
176
     1
 90
       50
176
     1
 90
       50
176
     1
290
     0
176
     1
 90
       50
176
     1
 62
   256
176
     0
 40
1.0
176
     0
 90
        2
176
     1
  1
strokes_ogs.tif
176
     1
290
     0
176
     1
 40
1.0
176
     1
 40
1.0
176
     1
  0
VISUALSTYLE
  5
94A
102
{ACAD_REACTORS
330
949
102
}
330
949
100
AcDbVisualStyle
  2
Flat
 70
     0
177
     3
291
     1
 70
    58
 90
        2
176
     1
 90
        1
176
     1
 90
        1
176
     1
 90
        2
176
     1
 40
0.6
176
     1
 40
30.0
176
     1
 62
     7
420
 16777215
176
     1
 90
        0
176
     1
 90
        0
176
     1
 62
     7
176
     1
 62
   257
176
     1
 90
        1
176
     1
 90
        1
176
     1
 40
1.0
176
     1
 90
        8
176
     1
 62
     7
176
     1
 40
1.0
176
     1
 90
        1
176
     1
 90
        6
176
     1
 90
        2
176
     1
 62
     7
176
     1
 90
        5
176
     1
 90
        0
176
     1
 90
        0
176
     1
290
     0
176
     1
 90
       13
176
     1
 40
0.0
176
     1
 90
        0
176
     1
290
     0
176
     1
290
     1
176
     1
290
     1
176
     1
290
     0
176
     1
290
     0
176
     1
290
     0
176
     1
290
     0
176
     1
290
     0
176
     1
290
     0
176
     1
 90
       50
176
     1
 40
0.0
176
     1
 40
1.0
176
     1
 90
        0
176
     1
 62
    18
420
        0
176
     1
 90
       50
176
     1
 90
        3
176
     1
 62
     5
420
      255
176
     1
290
     0
176
     1
 90
       50
176
     1
 90
       50
176
     1
 90
       50
176
     1
290
     0
176
     1
 90
       50
176
     1
 62
   256
176
     0
 40
1.0
176
     0
 90
        2
176
     1
  1
strokes_ogs.tif
176
     1
290
     0
176
     1
 40
1.0
176
     1
 40
1.0
176
     1
  0
VISUALSTYLE
  5
94B
102
{ACAD_REACTORS
330
949
102
}
330
949
100
AcDbVisualStyle
  2
FlatWithEdges
 70
     1
177
     3
291
     1
 70
    58
 90
        2
176
     1
 90
        1
176
     1
 90
        1
176
     1
 90
        2
176
     1
 40
0.6
176
     1
 40
30.0
176
     1
 62
     7
420
 16777215
176
     1
 90
        1
176
     1
 90
        0
176
     1
 62
     7
176
     1
 62
   257
176
     1
 90
        1
176
     1
 90
        1
176
     1
 40
1.0
176
     1
 90
        0
176
     1
 62
   257
176
     1
 40
1.0
176
     1
 90
        1
176
     1
 90
        6
176
     1
 90
        2
176
     1
 62
     7
176
     1
 90
        5
176
     1
 90
        0
176
     1
 90
        0
176
     1
290
     0
176
     1
 90
       13
176
     1
 40
0.0
176
     1
 90
        0
176
     1
290
     0
176
     1
290
     1
176
     1
290
     1
176
     1
290
     0
176
     1
290
     0
176
     1
290
     0
176
     1
290
     0
176
     1
290
     0
176
     1
290
     0
176
     1
 90
       50
176
     1
 40
0.0
176
     1
 40
1.0
176
     1
 90
        0
176
     1
 62
    18
420
        0
176
     1
 90
       50
176
     1
 90
        3
176
     1
 62
     5
420
      255
176
     1
290
     0
176
     1
 90
       50
176
     1
 90
       50
176
     1
 90
       50
176
     1
290
     0
176
     1
 90
       50
176
     1
 62
   256
176
     0
 40
1.0
176
     0
 90
        2
176
     1
  1
strokes_ogs.tif
176
     1
290
     0
176
     1
 40
1.0
176
     1
 40
1.0
176
     1
  0
VISUALSTYLE
  5
94C
102
{ACAD_REACTORS
330
949
102
}
330
949
100
AcDbVisualStyle
  2
Gouraud
 70
     2
177
     3
291
     1
 70
    58
 90
        2
176
     1
 90
        2
176
     1
 90
        1
176
     1
 90
        2
176
     1
 40
0.6
176
     1
 40
30.0
176
     1
 62
     7
420
 16777215
176
     1
 90
        0
176
     1
 90
        0
176
     1
 62
     7
176
     1
 62
   257
176
     1
 90
        1
176
     1
 90
        1
176
     1
 40
1.0
176
     1
 90
        0
176
     1
 62
     7
176
     1
 40
1.0
176
     1
 90
        1
176
     1
 90
        6
176
     1
 90
        2
176
     1
 62
     7
176
     1
 90
        5
176
     1
 90
        0
176
     1
 90
        0
176
     1
290
     0
176
     1
 90
       13
176
     1
 40
0.0
176
     1
 90
        0
176
     1
290
     0
176
     1
290
     1
176
     1
290
     1
176
     1
290
     0
176
     1
290
     0
176
     1
290
     0
176
     1
290
     0
176
     1
290
     0
176
     1
290
     0
176
     1
 90
       50
176
     1
 40
0.0
176
     1
 40
1.0
176
     1
 90
        0
176
     1
 62
    18
420
        0
176
     1
 90
       50
176
     1
 90
        3
176
     1
 62
     5
420
      255
176
     1
290
     0
176
     1
 90
       50
176
     1
 90
       50
176
     1
 90
       50
176
     1
290
     0
176
     1
 90
       50
176
     1
 62
   256
176
     0
 40
1.0
176
     0
 90
        2
176
     1
  1
strokes_ogs.tif
176
     1
290
     0
176
     1
 40
1.0
176
     1
 40
1.0
176
     1
  0
VISUALSTYLE
  5
94D
102
{ACAD_REACTORS
330
949
102
}
330
949
100
AcDbVisualStyle
  2
GouraudWithEdges
 70
     3
177
     3
291
     1
 70
    58
 90
        2
176
     1
 90
        2
176
     1
 90
        1
176
     1
 90
        2
176
     1
 40
0.6
176
     1
 40
30.0
176
     1
 62
     7
420
 16777215
176
     1
 90
        1
176
     1
 90
        0
176
     1
 62
     7
176
     1
 62
   257
176
     1
 90
        1
176
     1
 90
        1
176
     1
 40
1.0
176
     1
 90
        0
176
     1
 62
   257
176
     1
 40
1.0
176
     1
 90
        1
176
     1
 90
        6
176
     1
 90
        2
176
     1
 62
     7
176
     1
 90
        5
176
     1
 90
        0
176
     1
 90
        0
176
     1
290
     0
176
     1
 90
       13
176
     1
 40
0.0
176
     1
 90
        0
176
     1
290
     0
176
     1
290
     1
176
     1
290
     1
176
     1
290
     0
176
     1
290
     0
176
     1
290
     0
176
     1
290
     0
176
     1
290
     0
176
     1
290
     0
176
     1
 90
       50
176
     1
 40
0.0
176
     1
 40
1.0
176
     1
 90
        0
176
     1
 62
    18
420
        0
176
     1
 90
       50
176
     1
 90
        3
176
     1
 62
     5
420
      255
176
     1
290
     0
176
     1
 90
       50
176
     1
 90
       50
176
     1
 90
       50
176
     1
290
     0
176
     1
 90
       50
176
     1
 62
   256
176
     0
 40
1.0
176
     0
 90
        2
176
     1
  1
strokes_ogs.tif
176
     1
290
     0
176
     1
 40
1.0
176
     1
 40
1.0
176
     1
  0
VISUALSTYLE
  5
950
102
{ACAD_REACTORS
330
949
102
}
330
949
100
AcDbVisualStyle
  2
Hidden
 70
     6
177
     3
291
     0
 70
    58
 90
        1
176
     1
 90
        2
176
     1
 90
        2
176
     1
 90
        0
176
     1
 40
0.6
176
     1
 40
30.0
176
     1
 62
     7
420
 16777215
176
     1
 90
        2
176
     1
 90
        2
176
     1
 62
     7
176
     1
 62
   257
176
     1
 90
        2
176
     1
 90
        1
176
     1
 40
40.0
176
     1
 90
        0
176
     1
 62
   257
176
     1
 40
1.0
176
     1
 90
        1
176
     1
 90
        6
176
     1
 90
        2
176
     1
 62
     7
176
     1
 90
        3
176
     1
 90
        0
176
     1
 90
        0
176
     1
290
     0
176
     1
 90
        1
176
     1
 40
0.0
176
     1
 90
        0
176
     1
290
     0
176
     1
290
     1
176
     1
290
     1
176
     1
290
     0
176
     1
290
     0
176
     1
290
     0
176
     1
290
     0
176
     1
290
     0
176
     1
290
     0
176
     1
 90
       50
176
     1
 40
0.0
176
     1
 40
1.0
176
     1
 90
        0
176
     1
 62
    18
420
        0
176
     1
 90
       50
176
     1
 90
        3
176
     1
 62
     5
420
      255
176
     1
290
     0
176
     1
 90
       50
176
     1
 90
       50
176
     1
 90
       50
176
     1
290
     0
176
     1
 90
       50
176
     1
 62
   256
176
     0
 40
1.0
176
     0
 90
        2
176
     1
  1
strokes_ogs.tif
176
     1
290
     0
176
     1
 40
1.0
176
     1
 40
1.0
176
     1
  0
VISUALSTYLE
  5
95A
102
{ACAD_REACTORS
330
949
102
}
330
949
100
AcDbVisualStyle
  2
JitterOff
 70
    20
177
     3
291
     1
 70
    58
 90
        2
176
     0
 90
        2
176
     0
 90
        0
176
     0
 90
        0
176
     0
 40
0.6
176
     0
 40
30.0
176
     0
 62
     7
420
 16777215
176
     0
 90
        1
176
     0
 90
        4
176
     0
 62
     7
176
     0
 62
   257
176
     0
 90
        1
176
     0
 90
        1
176
     0
 40
1.0
176
     0
 90
       10
176
     2
 62
     7
176
     0
 40
1.0
176
     0
 90
        1
176
     0
 90
        6
176
     0
 90
        2
176
     0
 62
     7
176
     0
 90
        5
176
     0
 90
        0
176
     0
 90
        0
176
     0
290
     0
176
     0
 90
        1
176
     0
 40
0.0
176
     0
 90
        0
176
     0
290
     0
176
     0
290
     1
176
     0
290
     1
176
     0
290
     0
176
     0
290
     0
176
     0
290
     0
176
     0
290
     0
176
     0
290
     0
176
     0
290
     0
176
     0
 90
       50
176
     0
 40
0.0
176
     0
 40
1.0
176
     0
 90
        0
176
     0
 62
    18
420
        0
176
     0
 90
       50
176
     0
 90
        3
176
     0
 62
     5
420
      255
176
     0
290
     0
176
     0
 90
       50
176
     0
 90
       50
176
     0
 90
       50
176
     0
290
     0
176
     0
 90
       50
176
     0
 62
   256
176
     0
 40
1.0
176
     0
 90
        2
176
     0
  1
strokes_ogs.tif
176
     0
290
     0
176
     0
 40
1.0
176
     0
 40
1.0
176
     0
  0
VISUALSTYLE
  5
957
102
{ACAD_REACTORS
330
949
102
}
330
949
100
AcDbVisualStyle
  2
Linepattern
 70
    14
177
     3
291
     1
 70
    58
 90
        2
176
     1
 90
        2
176
     1
 90
        0
176
     1
 90
        0
176
     1
 40
0.6
176
     1
 40
30.0
176
     1
 62
     7
420
 16777215
176
     1
 90
        1
176
     1
 90
        4
176
     1
 62
     7
176
     1
 62
   257
176
     1
 90
        7
176
     1
 90
        7
176
     1
 40
1.0
176
     1
 90
        8
176
     1
 62
     7
176
     1
 40
1.0
176
     1
 90
        1
176
     1
 90
        6
176
     1
 90
        2
176
     1
 62
     7
176
     1
 90
        5
176
     1
 90
        0
176
     1
 90
        0
176
     1
290
     0
176
     1
 90
        1
176
     1
 40
0.0
176
     1
 90
        0
176
     1
290
     0
176
     1
290
     1
176
     1
290
     1
176
     1
290
     0
176
     1
290
     0
176
     1
290
     0
176
     1
290
     0
176
     1
290
     0
176
     1
290
     0
176
     1
 90
       50
176
     1
 40
0.0
176
     1
 40
1.0
176
     1
 90
        0
176
     1
 62
    18
420
        0
176
     1
 90
       50
176
     1
 90
        3
176
     1
 62
     5
420
      255
176
     1
290
     0
176
     1
 90
       50
176
     1
 90
       50
176
     1
 90
       50
176
     1
290
     0
176
     1
 90
       50
176
     1
 62
   256
176
     0
 40
1.0
176
     0
 90
        2
176
     1
  1
strokes_ogs.tif
176
     1
290
     0
176
     1
 40
1.0
176
     1
 40
1.0
176
     1
  0
VISUALSTYLE
  5
95B
102
{ACAD_REACTORS
330
949
102
}
330
949
100
AcDbVisualStyle
  2
OverhangOff
 70
    21
177
     3
291
     1
 70
    58
 90
        2
176
     0
 90
        2
176
     0
 90
        0
176
     0
 90
        0
176
     0
 40
0.6
176
     0
 40
30.0
176
     0
 62
     7
420
 16777215
176
     0
 90
        1
176
     0
 90
        4
176
     0
 62
     7
176
     0
 62
   257
176
     0
 90
        1
176
     0
 90
        1
176
     0
 40
1.0
176
     0
 90
        9
176
     2
 62
     7
176
     0
 40
1.0
176
     0
 90
        1
176
     0
 90
        6
176
     0
 90
        2
176
     0
 62
     7
176
     0
 90
        5
176
     0
 90
        0
176
     0
 90
        0
176
     0
290
     0
176
     0
 90
        1
176
     0
 40
0.0
176
     0
 90
        0
176
     0
290
     0
176
     0
290
     1
176
     0
290
     1
176
     0
290
     0
176
     0
290
     0
176
     0
290
     0
176
     0
290
     0
176
     0
290
     0
176
     0
290
     0
176
     0
 90
       50
176
     0
 40
0.0
176
     0
 40
1.0
176
     0
 90
        0
176
     0
 62
    18
420
        0
176
     0
 90
       50
176
     0
 90
        3
176
     0
 62
     5
420
      255
176
     0
290
     0
176
     0
 90
       50
176
     0
 90
       50
176
     0
 90
       50
176
     0
290
     0
176
     0
 90
       50
176
     0
 62
   256
176
     0
 40
1.0
176
     0
 90
        2
176
     0
  1
strokes_ogs.tif
176
     0
290
     0
176
     0
 40
1.0
176
     0
 40
1.0
176
     0
  0
VISUALSTYLE
  5
952
102
{ACAD_REACTORS
330
949
102
}
330
949
100
AcDbVisualStyle
  2
Realistic
 70
     8
177
     3
291
     0
 70
    58
 90
        2
176
     1
 90
        3
176
     1
 90
        0
176
     1
 90
        2
176
     1
 40
0.6
176
     1
 40
30.0
176
     1
 62
     7
420
 16777215
176
     1
 90
        0
176
     1
 90
        0
176
     1
 62
     7
176
     1
 62
   257
176
     1
 90
        1
176
     1
 90
        1
176
     1
 40
1.0
176
     1
 90
        8
176
     1
 62
   257
176
     1
 40
1.0
176
     1
 90
        1
176
     1
 90
        6
176
     1
 90
        2
176
     1
 62
     7
176
     1
 90
        3
176
     1
 90
        0
176
     1
 90
        0
176
     1
290
     0
176
     1
 90
       13
176
     1
 40
0.0
176
     1
 90
        0
176
     1
290
     0
176
     1
290
     1
176
     1
290
     1
176
     1
290
     0
176
     1
290
     0
176
     1
290
     0
176
     1
290
     0
176
     1
290
     0
176
     1
290
     0
176
     1
 90
       50
176
     1
 40
0.0
176
     1
 40
1.0
176
     1
 90
        0
176
     1
 62
    18
420
        0
176
     1
 90
       50
176
     1
 90
        3
176
     1
 62
     5
420
      255
176
     1
290
     0
176
     1
 90
       50
176
     1
 90
       50
176
     1
 90
       50
176
     1
290
     0
176
     1
 90
       50
176
     1
 62
   256
176
     0
 40
1.0
176
     0
 90
        2
176
     1
  1
strokes_ogs.tif
176
     1
290
     0
176
     1
 40
1.0
176
     1
 40
1.0
176
     1
  0
VISUALSTYLE
  5
961
102
{ACAD_REACTORS
330
949
102
}
330
949
100
AcDbVisualStyle
  2
Shaded
 70
    27
177
     3
291
     0
 70
    58
 90
        2
176
     1
 90
        2
176
     1
 90
        1
176
     1
 90
        2
176
     1
 40
0.6
176
     1
 40
30.0
176
     1
 62
     7
420
 16777215
176
     1
 90
        0
176
     1
 90
        4
176
     1
 62
     7
176
     1
 62
   257
176
     1
 90
        1
176
     1
 90
        1
176
     1
 40
1.0
176
     1
 90
        8
176
     1
 62
   257
176
     1
 40
1.0
176
     1
 90
        1
176
     1
 90
        6
176
     1
 90
        2
176
     1
 62
     8
420
  7895160
176
     1
 90
        3
176
     1
 90
        0
176
     1
 90
        0
176
     1
290
     0
176
     1
 90
        5
176
     1
 40
0.0
176
     1
 90
        0
176
     1
290
     0
176
     1
290
     1
176
     1
290
     1
176
     1
290
     0
176
     1
290
     0
176
     1
290
     0
176
     1
290
     0
176
     1
290
     0
176
     1
290
     0
176
     1
 90
       50
176
     1
 40
0.0
176
     1
 40
1.0
176
     1
 90
        0
176
     1
 62
    18
420
        0
176
     1
 90
       50
176
     1
 90
        3
176
     1
 62
     5
420
      255
176
     1
290
     0
176
     1
 90
       50
176
     1
 90
       50
176
     1
 90
       50
176
     1
290
     0
176
     1
 90
       50
176
     1
 62
   256
176
     0
 40
1.0
176
     0
 90
        2
176
     1
  1
strokes_ogs.tif
176
     1
290
     0
176
     1
 40
1.0
176
     1
 40
1.0
176
     1
  0
VISUALSTYLE
  5
960
102
{ACAD_REACTORS
330
949
102
}
330
949
100
AcDbVisualStyle
  2
Shaded with edges
 70
    26
177
     3
291
     0
 70
    58
 90
        2
176
     1
 90
        2
176
     1
 90
        1
176
     1
 90
        2
176
     1
 40
0.6
176
     1
 40
30.0
176
     1
 62
     7
420
 16777215
176
     1
 90
        1
176
     1
 90
       10
176
     1
 62
     7
176
     1
 62
   257
176
     1
 90
        2
176
     1
 90
        1
176
     1
 40
1.0
176
     1
 90
        8
176
     1
 62
   257
176
     1
 40
1.0
176
     1
 90
        1
176
     1
 90
        6
176
     1
 90
        2
176
     1
 62
     7
176
     1
 90
        3
176
     1
 90
        0
176
     1
 90
        0
176
     1
290
     0
176
     1
 90
        5
176
     1
 40
0.0
176
     1
 90
        0
176
     1
290
     0
176
     1
290
     1
176
     1
290
     1
176
     1
290
     0
176
     1
290
     0
176
     1
290
     0
176
     1
290
     0
176
     1
290
     0
176
     1
290
     0
176
     1
 90
       50
176
     1
 40
0.0
176
     1
 40
1.0
176
     1
 90
        0
176
     1
 62
    18
420
        0
176
     1
 90
       50
176
     1
 90
        3
176
     1
 62
     5
420
      255
176
     1
290
     0
176
     1
 90
       50
176
     1
 90
       50
176
     1
 90
       50
176
     1
290
     0
176
     1
 90
       50
176
     1
 62
   256
176
     0
 40
1.0
176
     0
 90
        2
176
     1
  1
strokes_ogs.tif
176
     1
290
     0
176
     1
 40
1.0
176
     1
 40
1.0
176
     1
  0
VISUALSTYLE
  5
95D
102
{ACAD_REACTORS
330
949
102
}
330
949
100
AcDbVisualStyle
  2
Shades of Gray
 70
    23
177
     3
291
     0
 70
    58
 90
        2
176
     1
 90
        2
176
     1
 90
        3
176
     1
 90
        0
176
     1
 40
0.6
176
     1
 40
30.0
176
     1
 62
     7
420
 16777215
176
     1
 90
        2
176
     1
 90
        2
176
     1
 62
     7
176
     1
 62
     7
176
     1
 90
        1
176
     1
 90
        1
176
     1
 40
40.0
176
     1
 90
        8
176
     1
 62
     7
176
     1
 40
1.0
176
     1
 90
        1
176
     1
 90
        6
176
     1
 90
        2
176
     1
 62
     7
176
     1
 90
        3
176
     1
 90
        0
176
     1
 90
        0
176
     1
290
     0
176
     1
 90
        1
176
     1
 40
0.0
176
     1
 90
        0
176
     1
290
     0
176
     1
290
     1
176
     1
290
     1
176
     1
290
     0
176
     1
290
     0
176
     1
290
     0
176
     1
290
     0
176
     1
290
     0
176
     1
290
     0
176
     1
 90
       50
176
     1
 40
0.0
176
     1
 40
1.0
176
     1
 90
        0
176
     1
 62
    18
420
        0
176
     1
 90
       50
176
     1
 90
        3
176
     1
 62
     5
420
      255
176
     1
290
     0
176
     1
 90
       50
176
     1
 90
       50
176
     1
 90
       50
176
     1
290
     0
176
     1
 90
       50
176
     1
 62
   256
176
     0
 40
1.0
176
     0
 90
        2
176
     1
  1
strokes_ogs.tif
176
     1
290
     0
176
     1
 40
1.0
176
     1
 40
1.0
176
     1
  0
VISUALSTYLE
  5
95E
102
{ACAD_REACTORS
330
949
102
}
330
949
100
AcDbVisualStyle
  2
Sketchy
 70
    24
177
     3
291
     0
 70
    58
 90
        1
176
     1
 90
        2
176
     1
 90
        2
176
     1
 90
        0
176
     1
 40
0.6
176
     1
 40
30.0
176
     1
 62
     7
420
 16777215
176
     1
 90
        2
176
     1
 90
        2
176
     1
 62
     7
176
     1
 62
     7
176
     1
 90
        1
176
     1
 90
        1
176
     1
 40
40.0
176
     1
 90
       11
176
     1
 62
     7
176
     1
 40
1.0
176
     1
 90
        1
176
     1
 90
        6
176
     1
 90
        2
176
     1
 62
     7
176
     1
 90
        6
176
     1
 90
        0
176
     1
 90
        0
176
     1
290
     0
176
     1
 90
        1
176
     1
 40
0.0
176
     1
 90
        0
176
     1
290
     0
176
     1
290
     1
176
     1
290
     1
176
     1
290
     0
176
     1
290
     0
176
     1
290
     0
176
     1
290
     0
176
     1
290
     0
176
     1
290
     0
176
     1
 90
       50
176
     1
 40
0.0
176
     1
 40
1.0
176
     1
 90
        0
176
     1
 62
    18
420
        0
176
     1
 90
       50
176
     1
 90
        3
176
     1
 62
     5
420
      255
176
     1
290
     0
176
     1
 90
       50
176
     1
 90
       50
176
     1
 90
       50
176
     1
290
     0
176
     1
 90
       50
176
     1
 62
   256
176
     0
 40
1.0
176
     0
 90
        2
176
     1
  1
strokes_ogs.tif
176
     1
290
     0
176
     1
 40
1.0
176
     1
 40
1.0
176
     1
  0
VISUALSTYLE
  5
956
102
{ACAD_REACTORS
330
949
102
}
330
949
100
AcDbVisualStyle
  2
Thicken
 70
    13
177
     3
291
     1
 70
    58
 90
        2
176
     1
 90
        2
176
     1
 90
        0
176
     1
 90
        0
176
     1
 40
0.6
176
     1
 40
30.0
176
     1
 62
     7
420
 16777215
176
     1
 90
        1
176
     1
 90
        4
176
     1
 62
     7
176
     1
 62
   257
176
     1
 90
        1
176
     1
 90
        1
176
     1
 40
1.0
176
     1
 90
       12
176
     1
 62
     7
176
     1
 40
1.0
176
     1
 90
        1
176
     1
 90
        6
176
     1
 90
        2
176
     1
 62
     7
176
     1
 90
        5
176
     1
 90
        0
176
     1
 90
        0
176
     1
290
     0
176
     1
 90
        1
176
     1
 40
0.0
176
     1
 90
        0
176
     1
290
     0
176
     1
290
     1
176
     1
290
     1
176
     1
290
     0
176
     1
290
     0
176
     1
290
     0
176
     1
290
     0
176
     1
290
     0
176
     1
290
     0
176
     1
 90
       50
176
     1
 40
0.0
176
     1
 40
1.0
176
     1
 90
        0
176
     1
 62
    18
420
        0
176
     1
 90
       50
176
     1
 90
        3
176
     1
 62
     5
420
      255
176
     1
290
     0
176
     1
 90
       50
176
     1
 90
       50
176
     1
 90
       50
176
     1
290
     0
176
     1
 90
       50
176
     1
 62
   256
176
     0
 40
1.0
176
     0
 90
        2
176
     1
  1
strokes_ogs.tif
176
     1
290
     0
176
     1
 40
1.0
176
     1
 40
1.0
176
     1
  0
VISUALSTYLE
  5
94F
102
{ACAD_REACTORS
330
949
102
}
330
949
100
AcDbVisualStyle
  2
Wireframe
 70
     5
177
     3
291
     0
 70
    58
 90
        0
176
     1
 90
        2
176
     1
 90
        0
176
     1
 90
        0
176
     1
 40
0.6
176
     1
 40
30.0
176
     1
 62
     7
420
 16777215
176
     1
 90
        1
176
     1
 90
        4
176
     1
 62
     7
176
     1
 62
   257
176
     1
 90
        1
176
     1
 90
        1
176
     1
 40
1.0
176
     1
 90
        0
176
     1
 62
   257
176
     1
 40
1.0
176
     1
 90
        1
176
     1
 90
        6
176
     1
 90
        2
176
     1
 62
     7
176
     1
 90
        3
176
     1
 90
        0
176
     1
 90
        0
176
     1
290
     0
176
     1
 90
        1
176
     1
 40
0.0
176
     1
 90
        0
176
     1
290
     0
176
     1
290
     1
176
     1
290
     1
176
     1
290
     0
176
     1
290
     0
176
     1
290
     0
176
     1
290
     0
176
     1
290
     0
176
     1
290
     0
176
     1
 90
       50
176
     1
 40
0.0
176
     1
 40
1.0
176
     1
 90
        0
176
     1
 62
    18
420
        0
176
     1
 90
       50
176
     1
 90
        3
176
     1
 62
     5
420
      255
176
     1
290
     0
176
     1
 90
       50
176
     1
 90
       50
176
     1
 90
       50
176
     1
290
     0
176
     1
 90
       50
176
     1
 62
   256
176
     0
 40
1.0
176
     0
 90
        2
176
     1
  1
strokes_ogs.tif
176
     1
290
     0
176
     1
 40
1.0
176
     1
 40
1.0
176
     1
  0
VISUALSTYLE
  5
95F
102
{ACAD_REACTORS
330
949
102
}
330
949
100
AcDbVisualStyle
  2
X-Ray
 70
    25
177
     3
291
     0
 70
    58
 90
        2
176
     1
 90
        2
176
     1
 90
        1
176
     1
 90
        1
176
     1
 40
0.5
176
     1
 40
30.0
176
     1
 62
     7
420
 16777215
176
     1
 90
        1
176
     1
 90
        0
176
     1
 62
     7
176
     1
 62
   257
176
     1
 90
        1
176
     1
 90
        1
176
     1
 40
1.0
176
     1
 90
        8
176
     1
 62
     7
176
     1
 40
1.0
176
     1
 90
        1
176
     1
 90
        6
176
     1
 90
        2
176
     1
 62
     7
176
     1
 90
        3
176
     1
 90
        0
176
     1
 90
        0
176
     1
290
     0
176
     1
 90
       13
176
     1
 40
0.0
176
     1
 90
        0
176
     1
290
     0
176
     1
290
     1
176
     1
290
     1
176
     1
290
     0
176
     1
290
     0
176
     1
290
     0
176
     1
290
     0
176
     1
290
     0
176
     1
290
     0
176
     1
 90
       50
176
     1
 40
0.0
176
     1
 40
1.0
176
     1
 90
        0
176
     1
 62
    18
420
        0
176
     1
 90
       50
176
     1
 90
        3
176
     1
 62
     5
420
      255
176
     1
290
     0
176
     1
 90
       50
176
     1
 90
       50
176
     1
 90
       50
176
     1
290
     0
176
     1
 90
       50
176
     1
 62
   256
176
     0
 40
1.0
176
     0
 90
        2
176
     1
  1
strokes_ogs.tif
176
     1
290
     0
176
     1
 40
1.0
176
     1
 40
1.0
176
     1
  0
DICTIONARYVAR
  5
990
102
{ACAD_REACTORS
330
98F
102
}
330
98F
100
DictionaryVariables
280
     0
  1
1:1
  0
DICTIONARYVAR
  5
995
102
{ACAD_REACTORS
330
98F
102
}
330
98F
100
DictionaryVariables
280
     0
  1
Standard
  0
DICTIONARYVAR
  5
994
102
{ACAD_REACTORS
330
98F
102
}
330
98F
100
DictionaryVariables
280
     0
  1
Standard
  0
DICTIONARYVAR
  5
996
102
{ACAD_REACTORS
330
98F
102
}
330
98F
100
DictionaryVariables
280
     0
  1
0
  0
DICTIONARY
  5
9B3
330
989
100
AcDbDictionary
280
     1
281
     1
  3
ACAD_ROUNDTRIP_2008_TABLESTYLE_CELLSTYLEMAP
360
9B4
  0
CELLSTYLEMAP
  5
9B4
102
{ACAD_REACTORS
330
9B3
102
}
330
9B3
100
AcDbCellStyleMap
 90
        3
300
CELLSTYLE
  1
TABLEFORMAT_BEGIN
 90
        5
170
     1
 91
        0
 92
    32768
 62
   257
 93
        1
300
CONTENTFORMAT
  1
CONTENTFORMAT_BEGIN
 90
        0
 91
        0
 92
        4
 93
        0
300

 40
0.0
140
1.0
 94
        5
 62
     0
340
F
144
6.0
309
CONTENTFORMAT_END
171
     1
301
MARGIN
  1
CELLMARGIN_BEGIN
 40
1.5
 40
1.5
 40
1.5
 40
1.5
 40
1.5
 40
1.5
309
CELLMARGIN_END
 94
        6
 95
        1
302
GRIDFORMAT
  1
GRIDFORMAT_BEGIN
 90
        0
 91
        1
 62
     0
 92
       -2
340
12
 93
        0
 40
0.045
309
GRIDFORMAT_END
 95
        2
302
GRIDFORMAT
  1
GRIDFORMAT_BEGIN
 90
        0
 91
        1
 62
     0
 92
       -2
340
12
 93
        0
 40
0.045
309
GRIDFORMAT_END
 95
        4
302
GRIDFORMAT
  1
GRIDFORMAT_BEGIN
 90
        0
 91
        1
 62
     0
 92
       -2
340
12
 93
        0
 40
0.045
309
GRIDFORMAT_END
 95
        8
302
GRIDFORMAT
  1
GRIDFORMAT_BEGIN
 90
        0
 91
        1
 62
     0
 92
       -2
340
12
 93
        0
 40
0.045
309
GRIDFORMAT_END
 95
       16
302
GRIDFORMAT
  1
GRIDFORMAT_BEGIN
 90
        0
 91
        1
 62
     0
 92
       -2
340
12
 93
        0
 40
0.045
309
GRIDFORMAT_END
 95
       32
302
GRIDFORMAT
  1
GRIDFORMAT_BEGIN
 90
        0
 91
        1
 62
     0
 92
       -2
340
12
 93
        0
 40
0.045
309
GRIDFORMAT_END
309
TABLEFORMAT_END
  1
CELLSTYLE_BEGIN
 90
        1
 91
        1
300
_TITLE
309
CELLSTYLE_END
300
CELLSTYLE
  1
TABLEFORMAT_BEGIN
 90
        5
170
     1
 91
        0
 92
        0
 62
   257
 93
        1
300
CONTENTFORMAT
  1
CONTENTFORMAT_BEGIN
 90
        0
 91
        0
 92
        4
 93
        0
300

 40
0.0
140
1.0
 94
        5
 62
     0
340
F
144
4.5
309
CONTENTFORMAT_END
171
     1
301
MARGIN
  1
CELLMARGIN_BEGIN
 40
1.5
 40
1.5
 40
1.5
 40
1.5
 40
1.5
 40
1.5
309
CELLMARGIN_END
 94
        6
 95
        1
302
GRIDFORMAT
  1
GRIDFORMAT_BEGIN
 90
        0
 91
        1
 62
     0
 92
       -2
340
12
 93
        0
 40
0.045
309
GRIDFORMAT_END
 95
        2
302
GRIDFORMAT
  1
GRIDFORMAT_BEGIN
 90
        0
 91
        1
 62
     0
 92
       -2
340
12
 93
        0
 40
0.045
309
GRIDFORMAT_END
 95
        4
302
GRIDFORMAT
  1
GRIDFORMAT_BEGIN
 90
        0
 91
        1
 62
     0
 92
       -2
340
12
 93
        0
 40
0.045
309
GRIDFORMAT_END
 95
        8
302
GRIDFORMAT
  1
GRIDFORMAT_BEGIN
 90
        0
 91
        1
 62
     0
 92
       -2
340
12
 93
        0
 40
0.045
309
GRIDFORMAT_END
 95
       16
302
GRIDFORMAT
  1
GRIDFORMAT_BEGIN
 90
        0
 91
        1
 62
     0
 92
       -2
340
12
 93
        0
 40
0.045
309
GRIDFORMAT_END
 95
       32
302
GRIDFORMAT
  1
GRIDFORMAT_BEGIN
 90
        0
 91
        1
 62
     0
 92
       -2
340
12
 93
        0
 40
0.045
309
GRIDFORMAT_END
309
TABLEFORMAT_END
  1
CELLSTYLE_BEGIN
 90
        2
 91
        1
300
_HEADER
309
CELLSTYLE_END
300
CELLSTYLE
  1
TABLEFORMAT_BEGIN
 90
        5
170
     1
 91
        0
 92
        0
 62
   257
 93
        1
300
CONTENTFORMAT
  1
CONTENTFORMAT_BEGIN
 90
        0
 91
        0
 92
        4
 93
        0
300

 40
0.0
140
1.0
 94
        2
 62
     0
340
F
144
4.5
309
CONTENTFORMAT_END
171
     1
301
MARGIN
  1
CELLMARGIN_BEGIN
 40
1.5
 40
1.5
 40
1.5
 40
1.5
 40
1.5
 40
1.5
309
CELLMARGIN_END
 94
        6
 95
        1
302
GRIDFORMAT
  1
GRIDFORMAT_BEGIN
 90
        0
 91
        1
 62
     0
 92
       -2
340
12
 93
        0
 40
0.045
309
GRIDFORMAT_END
 95
        2
302
GRIDFORMAT
  1
GRIDFORMAT_BEGIN
 90
        0
 91
        1
 62
     0
 92
       -2
340
12
 93
        0
 40
0.045
309
GRIDFORMAT_END
 95
        4
302
GRIDFORMAT
  1
GRIDFORMAT_BEGIN
 90
        0
 91
        1
 62
     0
 92
       -2
340
12
 93
        0
 40
0.045
309
GRIDFORMAT_END
 95
        8
302
GRIDFORMAT
  1
GRIDFORMAT_BEGIN
 90
        0
 91
        1
 62
     0
 92
       -2
340
12
 93
        0
 40
0.045
309
GRIDFORMAT_END
 95
       16
302
GRIDFORMAT
  1
GRIDFORMAT_BEGIN
 90
        0
 91
        1
 62
     0
 92
       -2
340
12
 93
        0
 40
0.045
309
GRIDFORMAT_END
 95
       32
302
GRIDFORMAT
  1
GRIDFORMAT_BEGIN
 90
        0
 91
        1
 62
     0
 92
       -2
340
12
 93
        0
 40
0.045
309
GRIDFORMAT_END
309
TABLEFORMAT_END
  1
CELLSTYLE_BEGIN
 90
        3
 91
        2
300
_DATA
309
CELLSTYLE_END
  0
ENDSEC
  0
EOF
