  0
SECTION
  2
HEADER
  9
$ACADVER
  1
AC1027
  9
$ACADMAINTVER
 70
     8
  9
$DWGCODEPAGE
  3
ANSI_932
  9
$REQUIREDVERSIONS
160
                 0
  9
$LASTSAVEDBY
  1
thuthumi
  9
$INSBASE
 10
0.0
 20
0.0
 30
0.0
  9
$EXTMIN
 10
-273.9145258384506
 20
-33.80802466545856
 30
0.0
  9
$EXTMAX
 10
2149.833114233192
 20
1506.892867457972
 30
0.0
  9
$LIMMIN
 10
0.0
 20
0.0
  9
$LIMMAX
 10
420.0
 20
297.0
  9
$ORTHOMODE
 70
     0
  9
$REGENMODE
 70
     1
  9
$FILLMODE
 70
     1
  9
$QTEXTMODE
 70
     0
  9
$MIRRTEXT
 70
     1
  9
$LTSCALE
 40
1.0
  9
$ATTMODE
 70
     1
  9
$TEXTSIZE
 40
15.0
  9
$TRACEWID
 40
1.0
  9
$TEXTSTYLE
  7
STANDARD
  9
$CLAYER
  8
外形
  9
$CELTYPE
  6
BYLAYER
  9
$CECOLOR
 62
   256
  9
$CELTSCALE
 40
1.0
  9
$DISPSILH
 70
     0
  9
$DIMSCALE
 40
0.0
  9
$DIMASZ
 40
27.0
  9
$DIMEXO
 40
0.625
  9
$DIMDLI
 40
6.0
  9
$DIMRND
 40
0.0
  9
$DIMDLE
 40
0.0
  9
$DIMEXE
 40
1.25
  9
$DIMTP
 40
0.0
  9
$DIMTM
 40
0.0
  9
$DIMTXT
 40
5.0
  9
$DIMCEN
 40
1.5
  9
$DIMTSZ
 40
0.0
  9
$DIMTOL
 70
     0
  9
$DIMLIM
 70
     0
  9
$DIMTIH
 70
     0
  9
$DIMTOH
 70
     0
  9
$DIMSE1
 70
     0
  9
$DIMSE2
 70
     0
  9
$DIMTAD
 70
     3
  9
$DIMZIN
 70
     8
  9
$DIMBLK
  1

  9
$DIMASO
 70
     1
  9
$DIMSHO
 70
     1
  9
$DIMPOST
  1

  9
$DIMAPOST
  1

  9
$DIMALT
 70
     0
  9
$DIMALTD
 70
     4
  9
$DIMALTF
 40
0.0394
  9
$DIMLFAC
 40
1.0
  9
$DIMTOFL
 70
     1
  9
$DIMTVP
 40
0.0
  9
$DIMTIX
 70
     0
  9
$DIMSOXD
 70
     0
  9
$DIMSAH
 70
     1
  9
$DIMBLK1
  1
OPEN
  9
$DIMBLK2
  1
OPEN
  9
$DIMSTYLE
  2
STANDARD
  9
$DIMCLRD
 70
     0
  9
$DIMCLRE
 70
     0
  9
$DIMCLRT
 70
     0
  9
$DIMTFAC
 40
1.0
  9
$DIMGAP
 40
1.0
  9
$DIMJUST
 70
     0
  9
$DIMSD1
 70
     0
  9
$DIMSD2
 70
     0
  9
$DIMTOLJ
 70
     1
  9
$DIMTZIN
 70
     8
  9
$DIMALTZ
 70
     0
  9
$DIMALTTZ
 70
     0
  9
$DIMUPT
 70
     0
  9
$DIMDEC
 70
     2
  9
$DIMTDEC
 70
     2
  9
$DIMALTU
 70
     8
  9
$DIMALTTD
 70
     4
  9
$DIMTXSTY
  7
STANDARD
  9
$DIMAUNIT
 70
     0
  9
$DIMADEC
 70
     0
  9
$DIMALTRND
 40
0.0
  9
$DIMAZIN
 70
     0
  9
$DIMDSEP
 70
    46
  9
$DIMATFIT
 70
     3
  9
$DIMFRAC
 70
     0
  9
$DIMLDRBLK
  1
OPEN
  9
$DIMLUNIT
 70
     6
  9
$DIMLWD
 70
    -2
  9
$DIMLWE
 70
    -2
  9
$DIMTMOVE
 70
     0
  9
$DIMFXL
 40
1.0
  9
$DIMFXLON
 70
     0
  9
$DIMJOGANG
 40
0.7853981633974483
  9
$DIMTFILL
 70
     0
  9
$DIMTFILLCLR
 70
     0
  9
$DIMARCSYM
 70
     0
  9
$DIMLTYPE
  6

  9
$DIMLTEX1
  6

  9
$DIMLTEX2
  6

  9
$DIMTXTDIRECTION
 70
     0
  9
$LUNITS
 70
     2
  9
$LUPREC
 70
     3
  9
$SKETCHINC
 40
1.0
  9
$FILLETRAD
 40
10.0
  9
$AUNITS
 70
     0
  9
$AUPREC
 70
     3
  9
$MENU
  1
acad
  9
$ELEVATION
 40
0.0
  9
$PELEVATION
 40
0.0
  9
$THICKNESS
 40
0.0
  9
$LIMCHECK
 70
     0
  9
$CHAMFERA
 40
10.0
  9
$CHAMFERB
 40
10.0
  9
$CHAMFERC
 40
20.0
  9
$CHAMFERD
 40
0.0
  9
$SKPOLY
 70
     0
  9
$TDCREATE
 40
2450926.747469792
  9
$TDUCREATE
 40
2450926.372469792
  9
$TDUPDATE
 40
2457475.721983345
  9
$TDUUPDATE
 40
2457475.346983345
  9
$TDINDWG
 40
0.4172784722
  9
$TDUSRTIMER
 40
2457475.346442743
  9
$USRTIMER
 70
     1
  9
$ANGBASE
 50
0.0
  9
$ANGDIR
 70
     0
  9
$PDMODE
 70
     0
  9
$PDSIZE
 40
0.0
  9
$PLINEWID
 40
0.0
  9
$SPLFRAME
 70
     0
  9
$SPLINETYPE
 70
     6
  9
$SPLINESEGS
 70
     8
  9
$HANDSEED
  5
AC6
  9
$SURFTAB1
 70
     6
  9
$SURFTAB2
 70
     6
  9
$SURFTYPE
 70
     6
  9
$SURFU
 70
     6
  9
$SURFV
 70
     6
  9
$UCSBASE
  2

  9
$UCSNAME
  2

  9
$UCSORG
 10
0.0
 20
0.0
 30
0.0
  9
$UCSXDIR
 10
1.0
 20
0.0
 30
0.0
  9
$UCSYDIR
 10
0.0
 20
1.0
 30
0.0
  9
$UCSORTHOREF
  2

  9
$UCSORTHOVIEW
 70
     0
  9
$UCSORGTOP
 10
0.0
 20
0.0
 30
0.0
  9
$UCSORGBOTTOM
 10
0.0
 20
0.0
 30
0.0
  9
$UCSORGLEFT
 10
0.0
 20
0.0
 30
0.0
  9
$UCSORGRIGHT
 10
0.0
 20
0.0
 30
0.0
  9
$UCSORGFRONT
 10
0.0
 20
0.0
 30
0.0
  9
$UCSORGBACK
 10
0.0
 20
0.0
 30
0.0
  9
$PUCSBASE
  2

  9
$PUCSNAME
  2

  9
$PUCSORG
 10
0.0
 20
0.0
 30
0.0
  9
$PUCSXDIR
 10
1.0
 20
0.0
 30
0.0
  9
$PUCSYDIR
 10
0.0
 20
1.0
 30
0.0
  9
$PUCSORTHOREF
  2

  9
$PUCSORTHOVIEW
 70
     0
  9
$PUCSORGTOP
 10
0.0
 20
0.0
 30
0.0
  9
$PUCSORGBOTTOM
 10
0.0
 20
0.0
 30
0.0
  9
$PUCSORGLEFT
 10
0.0
 20
0.0
 30
0.0
  9
$PUCSORGRIGHT
 10
0.0
 20
0.0
 30
0.0
  9
$PUCSORGFRONT
 10
0.0
 20
0.0
 30
0.0
  9
$PUCSORGBACK
 10
0.0
 20
0.0
 30
0.0
  9
$USERI1
 70
     0
  9
$USERI2
 70
     0
  9
$USERI3
 70
     0
  9
$USERI4
 70
     0
  9
$USERI5
 70
     0
  9
$USERR1
 40
0.0
  9
$USERR2
 40
0.0
  9
$USERR3
 40
0.0
  9
$USERR4
 40
0.0
  9
$USERR5
 40
0.0
  9
$WORLDVIEW
 70
     1
  9
$SHADEDGE
 70
     3
  9
$SHADEDIF
 70
    70
  9
$TILEMODE
 70
     1
  9
$MAXACTVP
 70
    48
  9
$PINSBASE
 10
0.0
 20
0.0
 30
0.0
  9
$PLIMCHECK
 70
     0
  9
$PEXTMIN
 10
2.104805340462462
 20
-0.2716162648384852
 30
0.0
  9
$PEXTMAX
 10
1143.914298316817
 20
804.2429317415576
 30
0.0
  9
$PLIMMIN
 10
-5.8
 20
-5.8
  9
$PLIMMAX
 10
1183.2
 20
835.2
  9
$UNITMODE
 70
     0
  9
$VISRETAIN
 70
     1
  9
$PLINEGEN
 70
     0
  9
$PSLTSCALE
 70
     1
  9
$TREEDEPTH
 70
  3020
  9
$CMLSTYLE
  2
STANDARD
  9
$CMLJUST
 70
     0
  9
$CMLSCALE
 40
20.0
  9
$PROXYGRAPHICS
 70
     1
  9
$MEASUREMENT
 70
     1
  9
$CELWEIGHT
370
    -1
  9
$ENDCAPS
280
     0
  9
$JOINSTYLE
280
     0
  9
$LWDISPLAY
290
     0
  9
$INSUNITS
 70
     0
  9
$HYPERLINKBASE
  1

  9
$STYLESHEET
  1
monochrome.ctb
  9
$XEDIT
290
     1
  9
$CEPSNTYPE
380
     0
  9
$PSTYLEMODE
290
     1
  9
$FINGERPRINTGUID
  2
{4DF8BC20-888D-11D4-97DC-AFDF1B97A630}
  9
$VERSIONGUID
  2
{A1E0DE36-85A0-4E2D-B2D1-CBC87CF32EE8}
  9
$EXTNAMES
290
     1
  9
$PSVPSCALE
 40
0.0
  9
$OLESTARTUP
290
     0
  9
$SORTENTS
280
   127
  9
$INDEXCTL
280
     0
  9
$HIDETEXT
280
     1
  9
$XCLIPFRAME
280
     2
  9
$HALOGAP
280
     0
  9
$OBSCOLOR
 70
   257
  9
$OBSLTYPE
280
     0
  9
$INTERSECTIONDISPLAY
280
     0
  9
$INTERSECTIONCOLOR
 70
   257
  9
$DIMASSOC
280
     2
  9
$PROJECTNAME
  1

  9
$CAMERADISPLAY
290
     0
  9
$LENSLENGTH
 40
50.0
  9
$CAMERAHEIGHT
 40
0.0
  9
$STEPSPERSEC
 40
2.0
  9
$STEPSIZE
 40
6.0
  9
$3DDWFPREC
 40
2.0
  9
$PSOLWIDTH
 40
0.25
  9
$PSOLHEIGHT
 40
4.0
  9
$LOFTANG1
 40
1.570796326794897
  9
$LOFTANG2
 40
1.570796326794897
  9
$LOFTMAG1
 40
0.0
  9
$LOFTMAG2
 40
0.0
  9
$LOFTPARAM
 70
     7
  9
$LOFTNORMALS
280
     1
  9
$LATITUDE
 40
37.795
  9
$LONGITUDE
 40
-122.394
  9
$NORTHDIRECTION
 40
0.0
  9
$TIMEZONE
 70
 -8000
  9
$LIGHTGLYPHDISPLAY
280
     1
  9
$TILEMODELIGHTSYNCH
280
     1
  9
$SOLIDHIST
280
     1
  9
$SHOWHIST
280
     1
  9
$DWFFRAME
280
     2
  9
$DGNFRAME
280
     2
  9
$REALWORLDSCALE
290
     1
  9
$INTERFERECOLOR
 62
   256
  9
$CSHADOW
280
     0
  9
$SHADOWPLANELOCATION
 40
0.0
  0
ENDSEC
  0
SECTION
  2
CLASSES
  0
CLASS
  1
ACDBDICTIONARYWDFLT
  2
AcDbDictionaryWithDefault
  3
ObjectDBX Classes
 90
        0
 91
        4
280
     0
281
     0
  0
CLASS
  1
ACDBPLACEHOLDER
  2
AcDbPlaceHolder
  3
ObjectDBX Classes
 90
        0
 91
        1
280
     0
281
     0
  0
CLASS
  1
LAYOUT
  2
AcDbLayout
  3
ObjectDBX Classes
 90
        0
 91
        1
280
     0
281
     0
  0
CLASS
  1
SCALE
  2
AcDbScale
  3
ObjectDBX Classes
 90
     1153
 91
        4
280
     0
281
     0
  0
CLASS
  1
MATERIAL
  2
AcDbMaterial
  3
ObjectDBX Classes
 90
     1153
 91
        4
280
     0
281
     0
  0
CLASS
  1
VISUALSTYLE
  2
AcDbVisualStyle
  3
ObjectDBX Classes
 90
     4095
 91
        4
280
     0
281
     0
  0
CLASS
  1
TABLESTYLE
  2
AcDbTableStyle
  3
ObjectDBX Classes
 90
     4095
 91
        4
280
     0
281
     0
  0
CLASS
  1
RASTERVARIABLES
  2
AcDbRasterVariables
  3
ISM
 90
        0
 91
        4
280
     0
281
     0
  0
CLASS
  1
DICTIONARYVAR
  2
AcDbDictionaryVar
  3
ObjectDBX Classes
 90
        0
 91
        4
280
     0
281
     0
  0
CLASS
  1
MLEADERSTYLE
  2
AcDbMLeaderStyle
  3
ACDB_MLEADERSTYLE_CLASS
 90
     4095
 91
        4
280
     0
281
     0
  0
CLASS
  1
SUN
  2
AcDbSun
  3
SCENEOE
 90
     1153
 91
        4
280
     0
281
     0
  0
CLASS
  1
CELLSTYLEMAP
  2
AcDbCellStyleMap
  3
ObjectDBX Classes
 90
     1152
 91
        4
280
     0
281
     0
  0
CLASS
  1
DIMASSOC
  2
AcDbDimAssoc
  3
"AcDbDimAssoc|Product Desc:     AcDim ARX App For Dimension|Company:          Autodesk, Inc.|WEB Address:      www.autodesk.com"
 90
        0
 91
        4
280
     0
281
     0
  0
ENDSEC
  0
SECTION
  2
TABLES
  0
TABLE
  2
VPORT
  5
8
330
0
100
AcDbSymbolTable
 70
     1
  0
VPORT
  5
A40
330
8
100
AcDbSymbolTableRecord
100
AcDbViewportTableRecord
  2
*Active
 70
     0
 10
0.0
 20
0.0
 11
1.0
 21
1.0
 12
1646.61761892603
 22
531.367981013364
 13
0.0
 23
0.0
 14
10.0
 24
10.0
 15
10.0
 25
10.0
 16
0.0
 26
0.0
 36
1.0
 17
0.0
 27
0.0
 37
0.0
 40
2131.441105012947
 41
1.843253968253968
 42
50.0
 43
0.0
 44
0.0
 50
0.0
 51
0.0
 71
    16
 72
   100
 73
     1
 74
     1
 75
     0
 76
     0
 77
     0
 78
     0
281
     0
 65
     1
110
0.0
120
0.0
130
0.0
111
1.0
121
0.0
131
0.0
112
0.0
122
1.0
132
0.0
 79
     0
146
0.0
348
A6C
 60
     3
 61
     5
292
     1
282
     1
141
0.0
142
0.0
 63
   256
361
A8B
  0
ENDTAB
  0
TABLE
  2
LTYPE
  5
5
330
0
100
AcDbSymbolTable
 70
     4
  0
LTYPE
  5
12
330
5
100
AcDbSymbolTableRecord
100
AcDbLinetypeTableRecord
  2
BYBLOCK
 70
     0
  3

 72
    65
 73
     0
 40
0.0
  0
LTYPE
  5
13
330
5
100
AcDbSymbolTableRecord
100
AcDbLinetypeTableRecord
  2
BYLAYER
 70
     0
  3

 72
    65
 73
     0
 40
0.0
  0
LTYPE
  5
14
330
5
100
AcDbSymbolTableRecord
100
AcDbLinetypeTableRecord
  2
CONTINUOUS
 70
     0
  3
Solid line
 72
    65
 73
     0
 40
0.0
  0
LTYPE
  5
22
330
5
100
AcDbSymbolTableRecord
100
AcDbLinetypeTableRecord
  2
PHANTOM
 70
     0
  3
Phantom ______  __  __  ______  __  __  ______
 72
    65
 73
     6
 40
63.5
 49
31.75
 74
     0
 49
-6.35
 74
     0
 49
6.35
 74
     0
 49
-6.35
 74
     0
 49
6.35
 74
     0
 49
-6.35
 74
     0
  0
LTYPE
  5
23
330
5
100
AcDbSymbolTableRecord
100
AcDbLinetypeTableRecord
  2
CENTER
 70
     0
  3
Center ____ _ ____ _ ____ _ ____ _ ____ _ ____
 72
    65
 73
     4
 40
50.8
 49
31.75
 74
     0
 49
-6.35
 74
     0
 49
6.35
 74
     0
 49
-6.35
 74
     0
  0
LTYPE
  5
24
330
5
100
AcDbSymbolTableRecord
100
AcDbLinetypeTableRecord
  2
HIDDEN
 70
     0
  3
Hidden __ __ __ __ __ __ __ __ __ __ __ __ __ _
 72
    65
 73
     2
 40
9.524999999999999
 49
6.35
 74
     0
 49
-3.175
 74
     0
  0
ENDTAB
  0
TABLE
  2
LAYER
  5
2
102
{ACAD_XDICTIONARY
360
AA5
102
}
330
0
100
AcDbSymbolTable
 70
    13
  0
LAYER
  5
E
330
2
100
AcDbSymbolTableRecord
100
AcDbLayerTableRecord
  2
0
 70
     0
 62
    -7
  6
CONTINUOUS
370
    -3
390
B7
347
A66
348
0
  0
LAYER
  5
25
330
2
100
AcDbSymbolTableRecord
100
AcDbLayerTableRecord
  2
中心線
 70
     0
 62
     1
  6
CENTER
370
    -3
390
B7
347
A66
348
0
  0
LAYER
  5
26
330
2
100
AcDbSymbolTableRecord
100
AcDbLayerTableRecord
  2
寸法線
 70
     0
 62
     6
  6
CONTINUOUS
370
    -3
390
B7
347
A66
348
0
  0
LAYER
  5
27
330
2
100
AcDbSymbolTableRecord
100
AcDbLayerTableRecord
  2
隠れ線
 70
     0
 62
     2
  6
HIDDEN
370
    -3
390
B7
347
A66
348
0
  0
LAYER
  5
28
330
2
100
AcDbSymbolTableRecord
100
AcDbLayerTableRecord
  2
実体線
 70
     0
 62
     3
  6
CONTINUOUS
370
    -3
390
B7
347
A66
348
0
  0
LAYER
  5
29
330
2
100
AcDbSymbolTableRecord
100
AcDbLayerTableRecord
  2
想像線
 70
     0
 62
     5
  6
PHANTOM
370
    -3
390
B7
347
A66
348
0
  0
LAYER
  5
2A
330
2
100
AcDbSymbolTableRecord
100
AcDbLayerTableRecord
  2
注釈文字
 70
     0
 62
     4
  6
CONTINUOUS
370
    -3
390
B7
347
A66
348
0
  0
LAYER
  5
2B
330
2
100
AcDbSymbolTableRecord
100
AcDbLayerTableRecord
  2
ビューポート
 70
     0
 62
     7
  6
CONTINUOUS
370
    -3
390
B7
347
A66
348
0
  0
LAYER
  5
5C
330
2
100
AcDbSymbolTableRecord
100
AcDbLayerTableRecord
  2
A
 70
     0
 62
     4
  6
CONTINUOUS
370
    -3
390
B7
347
A66
348
0
  0
LAYER
  5
1BE
330
2
100
AcDbSymbolTableRecord
100
AcDbLayerTableRecord
  2
Defpoints
 70
     0
 62
     7
  6
CONTINUOUS
290
     0
370
    -3
390
B7
347
A66
348
0
  0
LAYER
  5
1BF
330
2
100
AcDbSymbolTableRecord
100
AcDbLayerTableRecord
  2
外形
 70
     0
 62
     2
  6
CONTINUOUS
370
    -3
390
B7
347
A66
348
0
  0
LAYER
  5
1C0
330
2
100
AcDbSymbolTableRecord
100
AcDbLayerTableRecord
  2
外形寸法
 70
     0
 62
     6
  6
CONTINUOUS
370
    -3
390
B7
347
A66
348
0
  0
LAYER
  5
6F2
330
2
100
AcDbSymbolTableRecord
100
AcDbLayerTableRecord
  2
OUTV
 70
     0
 62
     2
  6
CONTINUOUS
370
    -3
390
B7
347
A66
348
0
  0
ENDTAB
  0
TABLE
  2
STYLE
  5
3
330
0
100
AcDbSymbolTable
 70
     2
  0
STYLE
  5
F
330
3
100
AcDbSymbolTableRecord
100
AcDbTextStyleTableRecord
  2
STANDARD
 70
     0
 40
30.0
 41
1.0
 50
0.0
 71
     0
 42
15.0
  3
txt.shx
  4
bigfont.shx
  0
STYLE
  5
21
330
3
100
AcDbSymbolTableRecord
100
AcDbTextStyleTableRecord
  2

 70
     1
 40
0.0
 41
1.0
 50
0.0
 71
     0
 42
2.5
  3
ltypeshp.shx
  4

  0
ENDTAB
  0
TABLE
  2
VIEW
  5
6
330
0
100
AcDbSymbolTable
 70
     0
  0
ENDTAB
  0
TABLE
  2
UCS
  5
7
330
0
100
AcDbSymbolTable
 70
     0
  0
ENDTAB
  0
TABLE
  2
APPID
  5
9
330
0
100
AcDbSymbolTable
 70
     6
  0
APPID
  5
10
330
9
100
AcDbSymbolTableRecord
100
AcDbRegAppTableRecord
  2
ACAD
 70
     0
  0
APPID
  5
4B
330
9
100
AcDbSymbolTableRecord
100
AcDbRegAppTableRecord
  2
DRAWINGVARIABLESXDATA
 70
     0
  0
APPID
  5
68
330
9
100
AcDbSymbolTableRecord
100
AcDbRegAppTableRecord
  2
CONTENTBLOCKDESCRIPTION
 70
     0
  0
APPID
  5
69
330
9
100
AcDbSymbolTableRecord
100
AcDbRegAppTableRecord
  2
CONTENTBLOCKICON
 70
     0
  0
APPID
  5
8D
330
9
100
AcDbSymbolTableRecord
100
AcDbRegAppTableRecord
  2
CONTENTTABDATA
 70
     0
  0
APPID
  5
8E
330
9
100
AcDbSymbolTableRecord
100
AcDbRegAppTableRecord
  2
CONTENTCURRENTTAB
 70
     0
  0
ENDTAB
  0
TABLE
  2
DIMSTYLE
  5
A
330
0
100
AcDbSymbolTable
 70
     6
100
AcDbDimStyleTable
  0
DIMSTYLE
105
1D
330
A
100
AcDbSymbolTableRecord
100
AcDbDimStyleTableRecord
  2
STANDARD
 70
     0
 40
0.0
 41
27.0
 42
0.625
 43
6.0
 44
1.25
 73
     0
 74
     0
 77
     3
 78
     8
140
5.0
141
1.5
143
0.0394
147
1.0
171
     4
172
     1
173
     1
178
     0
271
     2
272
     2
273
     8
274
     4
277
     6
284
     8
340
F
341
2D
343
2D
344
2D
  0
DIMSTYLE
105
33
330
A
100
AcDbSymbolTableRecord
100
AcDbDimStyleTableRecord
  2
STANDARD$4
 70
     0
 40
0.0
 41
3.0
 42
0.625
 43
6.0
 44
1.25
 73
     0
 74
     0
 77
     3
 78
     8
140
3.0
141
2.5
143
0.0394
147
1.0
171
     4
172
     1
173
     1
178
     0
271
     3
272
     2
273
     8
274
     4
277
     6
289
     0
340
F
341
2D
343
2D
344
2D
  0
DIMSTYLE
105
34
330
A
100
AcDbSymbolTableRecord
100
AcDbDimStyleTableRecord
  2
STANDARD$3
 70
     0
 40
0.0
 41
3.0
 42
0.625
 43
6.0
 44
1.25
 73
     0
 74
     0
 77
     3
 78
     8
140
3.0
141
2.5
143
0.0394
147
1.0
171
     4
172
     1
173
     1
178
     0
271
     3
272
     2
273
     8
274
     4
277
     6
289
     0
340
F
341
2D
343
2D
344
2D
  0
DIMSTYLE
105
35
102
{ACAD_REACTORS
330
923
330
932
330
93F
330
96B
330
978
330
985
330
992
330
99F
330
9B9
330
94C
330
9CF
330
9DC
330
A17
102
}
330
A
100
AcDbSymbolTableRecord
100
AcDbDimStyleTableRecord
  2
STANDARD$0
 70
     0
 40
0.0
 41
27.0
 42
0.625
 43
6.0
 44
1.25
 73
     0
 74
     0
 77
     3
 78
     8
140
5.0
141
2.5
143
0.0394
147
1.0
171
     4
172
     1
173
     1
178
     0
271
     2
272
     2
273
     8
274
     4
277
     6
284
     8
340
F
341
2D
343
2D
344
2D
  0
DIMSTYLE
105
36
330
A
100
AcDbSymbolTableRecord
100
AcDbDimStyleTableRecord
  2
STANDARD$2
 70
     0
 40
0.0
 41
3.0
 42
0.625
 43
6.0
 44
1.25
 73
     0
 74
     0
 77
     3
 78
     8
140
3.0
141
2.5
143
0.0394
147
1.0
171
     4
172
     1
173
     1
178
     0
271
     3
272
     2
273
     8
274
     4
277
     6
340
F
341
2D
343
2D
344
2D
  0
DIMSTYLE
105
5D
330
A
100
AcDbSymbolTableRecord
100
AcDbDimStyleTableRecord
  2
STANDARD_WS
 70
     0
 41
2.5
 42
0.625
 43
3.75
 44
1.25
 73
     0
 74
     0
 77
     1
 78
     8
140
2.5
141
2.5
143
0.0394
147
0.625
171
     4
172
     1
178
     0
273
     8
274
     4
340
F
  0
ENDTAB
  0
TABLE
  2
BLOCK_RECORD
  5
1
330
0
100
AcDbSymbolTable
 70
    17
  0
BLOCK_RECORD
  5
18
330
1
100
AcDbSymbolTableRecord
100
AcDbBlockTableRecord
  2
*MODEL_SPACE
340
BA
 70
     0
280
     1
281
     0
  0
BLOCK_RECORD
  5
15
330
1
100
AcDbSymbolTableRecord
100
AcDbBlockTableRecord
  2
*PAPER_SPACE
340
BB
 70
     0
280
     1
281
     0
  0
BLOCK_RECORD
  5
2D
330
1
100
AcDbSymbolTableRecord
100
AcDbBlockTableRecord
  2
_OPEN
340
0
102
{BLKREFS
331
928
331
929
331
937
331
938
331
965
331
966
331
9C9
331
9CA
331
970
331
971
331
97D
331
97E
331
98A
331
98B
331
997
331
998
331
9A4
331
9A5
331
9BE
331
9BF
331
9D4
331
9D5
331
9E1
331
9E2
331
A28
331
A29
102
}
 70
     0
280
     1
281
     0
  0
BLOCK_RECORD
  5
5E
330
1
100
AcDbSymbolTableRecord
100
AcDbBlockTableRecord
  2
仕上　１
340
0
310
2800000020000000200000000100040000000000000200000000000000000000000000000000000000000000000080000080000000808000800000008000800080800000C0C0C000808080000000FF0000FF000000FFFF00FF000000FF00FF00FFFF0000FFFFFF00FFFFFFFFFFFFFFFFFFFFFFFFFFFFFFFFFFFFFFFFFFFFFF
310
FFFFFFFFFFFFFFFFFFFFFFFFFFFFFFFFFFFFFFFFFFFFFFFFFFFFFFFFFFFFFFFFFFFFFFFFFFFFFFFFFFFFFFFFFFFFFFFFF00FFFFFFFFFFFFFFFFFFFFFFFFFFFFFF00FFFFFFFFFFFFFFFFFFFFFFFFFFFFF0000FFFFFFFFFFFFFFFFFFFFFFFFFFFF0FF00FFFFFFFFFFFFFFFFFFFFFFFFFF0FFFF0FFFFFFFFFFFFFFFFFFFFFFFFF
310
00FFFF00FFFFFFFFFFFFFFFFFFFFFFFF0FFFFFF0FFFFFFFFFFFFFFFFFFFFFFF00FFFFFF00FFFFFFFFFFFFFFFFFFFFFF0FFFFFFFF0FFFFFFFFFFFFFFFFFFFFF00FFFFFFFFF0FFFFFFFFFFFFFFFFFFFF0FFFFFFFFFF00FFFFFFFFFFFFFFFFFF0FFFFFFFFFFFF0FFFFFFFFFFFFFFFFF00FFFFFFFFFFFF00FFFFFFFFFFFFFFFF0F
310
FFFFFFFFFFFFF0FFFFFFFFFFFFFFF00FFFFFFFFFFFFFF00FFFFFFFFFFFFFF0FFFFFFFFFFFFFFFF0FFFFFFFFFFFFF00FFFFFFFFFFFFFFFFF0FFFFFFFFFFF00FFFFFFFFFFFFFFFFFF00FFFFFFFFFF0FFFFFFFFFFFFFFFFFFFF0FFFFFFFFF00FFFFFFFFFFFFFFFFFFFF00FFFFFFFF0FFFFFFFFFFFFFFFFFFFFFF0FFFFFFF00FFF
310
FFFFFFFFFFFFFFFFFFF00FFFFFF0FFFFFFFFFFFFFFFFFFFFFFFF00FFFF00FFFFFFFFFFFFFFFFFFFFFFFFF0FFFF0000000000000000000000000000FFFFFFFFFFFFFFFFFFFFFFFFFFFFFFFFFFFFFFFFFFFFFFFFFFFFFFFFFFFFFFFFFFFFFFFFFFFFFFFFFFFFFFFFFFFFFFFFFF
 70
     0
280
     1
281
     0
  0
BLOCK_RECORD
  5
6B
330
1
100
AcDbSymbolTableRecord
100
AcDbBlockTableRecord
  2
仕上　２
340
0
310
2800000020000000200000000100040000000000000200000000000000000000000000000000000000000000000080000080000000808000800000008000800080800000C0C0C000808080000000FF0000FF000000FFFF00FF000000FF00FF00FFFF0000FFFFFF00FFFFFFFFFFFFFFFFFFFFFFFFFFFFFFFFFFFFFFFFFFFFFF
310
FFFFFFFFFFFFFFFFFFFFFFFFFFFFFFFFFFFFFFFFFFFFFFFFFFFFFFFFFFFFFFFFFFFFFFFFFFFFFFFFFFFFFFFFFFFFFFFFFFFFFFFFFFFFFFFFFFFFFFFFFFFFFFFFFFFFFFFFFFFFFFFFFFFFFFFFFFFFFFFFFFFFFFFFFFFFFFFFFFFFFFFFFFFFFFFFFFFFFFFFFFFFFFFFFFFFFFFFFFFFFFFFFFFFFFFFFFFFFFFFFFFFFFFFFF0FFF
310
FFFFFFFFFFF0FFFFFFFFFFFFFFF00FFFFFFFFFFFFFF00FFFFFFFFFFFFFF000FFFFFFFFFFFF000FFFFFFFFFFFFF0FF00FFFFFFFFFF00FF0FFFFFFFFFFF00FFF0FFFFFFFFFF0FFF00FFFFFFFFFF0FFFF00FFFFFFFF00FFFF0FFFFFFFFF00FFFFF0FFFFFFFF0FFFFF00FFFFFFFF0FFFFFF00FFFFFF00FFFFFF0FFFFFFF0FFFFFF
310
FF0FFFFFF0FFFFFFF00FFFFF00FFFFFFFFF0FFFF00FFFFFFFF00FFFF0FFFFFFFFFF00FFF0FFFFFFFFFF0FFF00FFFFFFFFFFF0FF0FFFFFFFFFFF00FF0FFFFFFFFFFFF0000FFFFFFFFFFFF0F00FFFFFFFFFFFFF00FFFFFFFFFFFFF0000000000000000000000000000000000FFFFFFFFFFFFFFFFFFFFFFFFFFFFFFFFFFFFFFFF
310
FFFFFFFFFFFFFFFFFFFFFFFFFFFFFFFFFFFFFFFFFFFFFFFFFFFFFFFFFFFFFFFFFFFFFFFFFFFFFFFFFFFFFFFFFFFFFFFFFFFFFFFFFFFFFFFFFFFFFFFFFFFFFFFFFFFFFFFFFFFFFFFFFFFFFFFFFFFFFFFFFFFFFFFFFFFFFFFFFFFFFFFFFFFFFFFFFFFFFFFFFFFFFFFFFFFFFFFF
 70
     0
280
     1
281
     0
  0
BLOCK_RECORD
  5
79
330
1
100
AcDbSymbolTableRecord
100
AcDbBlockTableRecord
  2
仕上　３
340
0
310
2800000020000000200000000100040000000000000200000000000000000000000000000000000000000000000080000080000000808000800000008000800080800000C0C0C000808080000000FF0000FF000000FFFF00FF000000FF00FF00FFFF0000FFFFFF00FFFFFFFFFFFFFFFFFFFFFFFFFFFFFFFFFFFFFFFFFFFFFF
310
FFFFFFFFFFFFFFFFFFFFFFFFFFFFFFFFFFFFFFFFFFFFFFFFFFFFFFFFFFFFFFFFFFFFFFFFFFFFFFFFFFFFFFFFFFFFFFFFFFFFFFFFFFFFFFFFFFFFFFFFFFFFFFFFFFFFFFFFFFFFFFFFFFFFFFFFFFFFFFFFFFFFFFFFFFFFFFFFFFFFFFFFFFFFFFFFFFFFFFFFFFFFFFFFFFFFFFFFFFFFFFFFFFFFFFFFFFFFFFFFFFFFFFFFFFFFFF
310
FFFFFFFFFFFFFFFFFFFFFFFFFFFFFFFFFFFFFFFFFFFFFFFFFFFFFFFFFFFFFFFFFFFFFFFFFFFFFFFFFFFFFFFFF0FFFFFFFFF00FFFFFFFFF0FFFFFFFFF000FFFFFFFF000FFFFFFF000FFFFFFF00F00FFFFFF00F0FFFFFF00F0FFFFFFF0FFF0FFFFF00FF00FFFFF0FFF0FFFFF00FFF00FFFF0FFFF0FFFF00FFF00FFFF0FFFFF0F
310
FF00FFFF00FFF0FFFFF0FFF00FFFFF00FF0FFFFFF0FF00FFFFF00FF0FFFFFFF000FFFFFFF0000FFFFFFF0F0FFFFFFFFF00FFFFFFFF00FFFFFFFFF000000000000000000000000000000000FFFFFFFFFFFFFFFFFFFFFFFFFFFFFFFFFFFFFFFFFFFFFFFFFFFFFFFFFFFFFFFFFFFFFFFFFFFFFFFFFFFFFFFFFFFFFFFFFFFFFFFF
310
FFFFFFFFFFFFFFFFFFFFFFFFFFFFFFFFFFFFFFFFFFFFFFFFFFFFFFFFFFFFFFFFFFFFFFFFFFFFFFFFFFFFFFFFFFFFFFFFFFFFFFFFFFFFFFFFFFFFFFFFFFFFFFFFFFFFFFFFFFFFFFFFFFFFFFFFFFFFFFFFFFFFFFFFFFFFFFFFFFFFFFFFFFFFFFFFFFFFFFFFFFFFFFFFFFFFFFFF
 70
     0
280
     1
281
     0
  0
BLOCK_RECORD
  5
924
330
1
100
AcDbSymbolTableRecord
100
AcDbBlockTableRecord
  2
*D4
340
0
 70
     0
280
     1
281
     0
  0
BLOCK_RECORD
  5
933
330
1
100
AcDbSymbolTableRecord
100
AcDbBlockTableRecord
  2
*D5
340
0
 70
     0
280
     1
281
     0
  0
BLOCK_RECORD
  5
940
330
1
100
AcDbSymbolTableRecord
100
AcDbBlockTableRecord
  2
*D6
340
0
 70
     0
280
     1
281
     0
  0
BLOCK_RECORD
  5
94D
330
1
100
AcDbSymbolTableRecord
100
AcDbBlockTableRecord
  2
*D7
340
0
 70
     0
280
     1
281
     0
  0
BLOCK_RECORD
  5
96C
330
1
100
AcDbSymbolTableRecord
100
AcDbBlockTableRecord
  2
*D8
340
0
 70
     0
280
     1
281
     0
  0
BLOCK_RECORD
  5
979
330
1
100
AcDbSymbolTableRecord
100
AcDbBlockTableRecord
  2
*D9
340
0
 70
     0
280
     1
281
     0
  0
BLOCK_RECORD
  5
986
330
1
100
AcDbSymbolTableRecord
100
AcDbBlockTableRecord
  2
*D10
340
0
 70
     0
280
     1
281
     0
  0
BLOCK_RECORD
  5
993
330
1
100
AcDbSymbolTableRecord
100
AcDbBlockTableRecord
  2
*D11
340
0
 70
     0
280
     1
281
     0
  0
BLOCK_RECORD
  5
9A0
330
1
100
AcDbSymbolTableRecord
100
AcDbBlockTableRecord
  2
*D12
340
0
 70
     0
280
     1
281
     0
  0
BLOCK_RECORD
  5
9BA
330
1
100
AcDbSymbolTableRecord
100
AcDbBlockTableRecord
  2
*D13
340
0
 70
     0
280
     1
281
     0
  0
BLOCK_RECORD
  5
9D0
330
1
100
AcDbSymbolTableRecord
100
AcDbBlockTableRecord
  2
*D14
340
0
 70
     0
280
     1
281
     0
  0
BLOCK_RECORD
  5
9DD
330
1
100
AcDbSymbolTableRecord
100
AcDbBlockTableRecord
  2
*D15
340
0
 70
     0
280
     1
281
     0
  0
BLOCK_RECORD
  5
A18
330
1
100
AcDbSymbolTableRecord
100
AcDbBlockTableRecord
  2
*D16
340
0
 70
     0
280
     1
281
     0
  0
ENDTAB
  0
ENDSEC
  0
SECTION
  2
BLOCKS
  0
BLOCK
  5
19
330
18
100
AcDbEntity
  8
0
100
AcDbBlockBegin
  2
*MODEL_SPACE
 70
     0
 10
0.0
 20
0.0
 30
0.0
  3
*MODEL_SPACE
  1
*MODEL_SPACE
  0
ENDBLK
  5
1A
330
18
100
AcDbEntity
  8
0
100
AcDbBlockEnd
  0
BLOCK
  5
16
330
15
100
AcDbEntity
 67
     1
  8
0
100
AcDbBlockBegin
  2
*PAPER_SPACE
 70
     0
 10
0.0
 20
0.0
 30
0.0
  3
*PAPER_SPACE
  1
*PAPER_SPACE
  0
ENDBLK
  5
17
330
15
100
AcDbEntity
 67
     1
  8
0
100
AcDbBlockEnd
  0
BLOCK
  5
2E
330
2D
100
AcDbEntity
  8
0
100
AcDbBlockBegin
  2
_OPEN
 70
     0
 10
0.0
 20
0.0
 30
0.0
  3
_OPEN
  1
_OPEN
  0
LINE
  5
2F
330
2D
100
AcDbEntity
  8
0
  6
ByBlock
 62
     0
100
AcDbLine
 10
-1.0
 20
0.1666666666666667
 30
0.0
 11
0.0
 21
0.0
 31
0.0
  0
LINE
  5
30
330
2D
100
AcDbEntity
  8
0
  6
ByBlock
 62
     0
100
AcDbLine
 10
0.0
 20
0.0
 30
0.0
 11
-1.0
 21
-0.1666666666666667
 31
0.0
  0
LINE
  5
31
330
2D
100
AcDbEntity
  8
0
  6
ByBlock
 62
     0
100
AcDbLine
 10
0.0
 20
0.0
 30
0.0
 11
-1.0
 21
0.0
 31
0.0
  0
ENDBLK
  5
32
330
2D
100
AcDbEntity
  8
0
100
AcDbBlockEnd
  0
BLOCK
  5
64
330
5E
100
AcDbEntity
  8
0
100
AcDbBlockBegin
  2
仕上　１
 70
     0
 10
0.0
 20
0.0
 30
0.0
  3
仕上　１
  1
仕上　１
  0
LINE
  5
5F
330
5E
100
AcDbEntity
  8
0
100
AcDbLine
 10
4.999958538888336
 20
8.660284968743781
 30
0.0
 11
-5.000041461111664
 21
8.660284968743781
 31
0.0
  0
LINE
  5
60
330
5E
100
AcDbEntity
  8
0
100
AcDbLine
 10
-0.0000414611116639
 20
0.0000309308993849
 30
0.0
 11
4.999958538888336
 21
8.660284968743781
 31
0.0
  0
LINE
  5
61
330
5E
100
AcDbEntity
  8
A
100
AcDbLine
 10
-0.0000414611116639
 20
0.0000309308993849
 30
0.0
 11
4.999958538888336
 21
8.660284968743781
 31
0.0
  0
LINE
  5
62
330
5E
100
AcDbEntity
  8
0
100
AcDbLine
 10
-5.000041461111664
 20
8.660284968743781
 30
0.0
 11
-0.0000414611116639
 21
0.0000309308993849
 31
0.0
  0
LINE
  5
63
330
5E
100
AcDbEntity
  8
A
100
AcDbLine
 10
-5.000041461111664
 20
8.660284968743781
 30
0.0
 11
-0.0000414611116639
 21
0.0000309308993849
 31
0.0
  0
ENDBLK
  5
65
330
5E
100
AcDbEntity
  8
0
100
AcDbBlockEnd
  0
BLOCK
  5
75
330
6B
100
AcDbEntity
  8
0
100
AcDbBlockBegin
  2
仕上　２
 70
     0
 10
0.0
 20
0.0
 30
0.0
  3
仕上　２
  1
仕上　２
  0
LINE
  5
6C
330
6B
100
AcDbEntity
  8
0
100
AcDbLine
 10
15.00000311254627
 20
8.660284968743781
 30
0.0
 11
-4.999996887453733
 21
8.660284968743781
 31
0.0
  0
LINE
  5
6D
330
6B
100
AcDbEntity
  8
0
100
AcDbLine
 10
-4.999996887453733
 20
8.660284968743781
 30
0.0
 11
0.0000031125462669
 21
0.0000309308993849
 31
0.0
  0
LINE
  5
6E
330
6B
100
AcDbEntity
  8
A
100
AcDbLine
 10
-4.999996887453733
 20
8.660284968743781
 30
0.0
 11
0.0000031125462669
 21
0.0000309308993849
 31
0.0
  0
LINE
  5
6F
330
6B
100
AcDbEntity
  8
0
100
AcDbLine
 10
10.00000311254627
 20
0.0000309308993849
 30
0.0
 11
15.00000311254627
 21
8.660284968743781
 31
0.0
  0
LINE
  5
70
330
6B
100
AcDbEntity
  8
0
100
AcDbLine
 10
5.000003112546267
 20
8.660284968743781
 30
0.0
 11
10.00000311254627
 21
0.0000309308993849
 31
0.0
  0
LINE
  5
71
330
6B
100
AcDbEntity
  8
0
100
AcDbLine
 10
0.0000031125462669
 20
0.0000309308993849
 30
0.0
 11
5.000003112546267
 21
8.660284968743781
 31
0.0
  0
LINE
  5
72
330
6B
100
AcDbEntity
  8
A
100
AcDbLine
 10
10.00000311254627
 20
0.0000309308993849
 30
0.0
 11
15.00000311254627
 21
8.660284968743781
 31
0.0
  0
LINE
  5
73
330
6B
100
AcDbEntity
  8
A
100
AcDbLine
 10
5.000003112546267
 20
8.660284968743781
 30
0.0
 11
10.00000311254627
 21
0.0000309308993849
 31
0.0
  0
LINE
  5
74
330
6B
100
AcDbEntity
  8
A
100
AcDbLine
 10
0.0000031125462669
 20
0.0000309308993849
 30
0.0
 11
5.000003112546267
 21
8.660284968743781
 31
0.0
  0
ENDBLK
  5
76
330
6B
100
AcDbEntity
  8
0
100
AcDbBlockEnd
  0
BLOCK
  5
88
330
79
100
AcDbEntity
  8
0
100
AcDbBlockBegin
  2
仕上　３
 70
     0
 10
0.0
 20
0.0
 30
0.0
  3
仕上　３
  1
仕上　３
  0
LINE
  5
7A
330
79
100
AcDbEntity
  8
0
100
AcDbLine
 10
25.0000345892401
 20
8.660284968743781
 30
0.0
 11
-4.999965410759899
 21
8.660284968743781
 31
0.0
  0
LINE
  5
7B
330
79
100
AcDbEntity
  8
0
100
AcDbLine
 10
-4.999965410759899
 20
8.660284968743781
 30
0.0
 11
0.0000345892401015
 21
0.0000309308993849
 31
0.0
  0
LINE
  5
7C
330
79
100
AcDbEntity
  8
A
100
AcDbLine
 10
25.0000345892401
 20
8.660284968743781
 30
0.0
 11
-4.999965410759899
 21
8.660284968743781
 31
0.0
  0
LINE
  5
7D
330
79
100
AcDbEntity
  8
A
100
AcDbLine
 10
-4.999965410759899
 20
8.660284968743781
 30
0.0
 11
0.0000345892401015
 21
0.0000309308993849
 31
0.0
  0
LINE
  5
7E
330
79
100
AcDbEntity
  8
0
100
AcDbLine
 10
15.0000345892401
 20
8.660284968743781
 30
0.0
 11
20.0000345892401
 21
0.0000309308993849
 31
0.0
  0
LINE
  5
7F
330
79
100
AcDbEntity
  8
A
100
AcDbLine
 10
15.0000345892401
 20
8.660284968743781
 30
0.0
 11
20.0000345892401
 21
0.0000309308993849
 31
0.0
  0
LINE
  5
80
330
79
100
AcDbEntity
  8
0
100
AcDbLine
 10
10.0000345892401
 20
0.0000309308993849
 30
0.0
 11
15.0000345892401
 21
8.660284968743781
 31
0.0
  0
LINE
  5
81
330
79
100
AcDbEntity
  8
0
100
AcDbLine
 10
5.000034589240101
 20
8.660284968743781
 30
0.0
 11
10.0000345892401
 21
0.0000309308993849
 31
0.0
  0
LINE
  5
82
330
79
100
AcDbEntity
  8
0
100
AcDbLine
 10
0.0000345892401015
 20
0.0000309308993849
 30
0.0
 11
5.000034589240101
 21
8.660284968743781
 31
0.0
  0
LINE
  5
83
330
79
100
AcDbEntity
  8
A
100
AcDbLine
 10
10.0000345892401
 20
0.0000309308993849
 30
0.0
 11
15.0000345892401
 21
8.660284968743781
 31
0.0
  0
LINE
  5
84
330
79
100
AcDbEntity
  8
A
100
AcDbLine
 10
5.000034589240101
 20
8.660284968743781
 30
0.0
 11
10.0000345892401
 21
0.0000309308993849
 31
0.0
  0
LINE
  5
85
330
79
100
AcDbEntity
  8
A
100
AcDbLine
 10
0.0000345892401015
 20
0.0000309308993849
 30
0.0
 11
5.000034589240101
 21
8.660284968743781
 31
0.0
  0
LINE
  5
86
330
79
100
AcDbEntity
  8
0
100
AcDbLine
 10
20.0000345892401
 20
0.0000309308993849
 30
0.0
 11
25.0000345892401
 21
8.660284968743781
 31
0.0
  0
LINE
  5
87
330
79
100
AcDbEntity
  8
A
100
AcDbLine
 10
20.0000345892401
 20
0.0000309308993849
 30
0.0
 11
25.0000345892401
 21
8.660284968743781
 31
0.0
  0
ENDBLK
  5
89
330
79
100
AcDbEntity
  8
0
100
AcDbBlockEnd
  0
BLOCK
  5
92E
330
924
100
AcDbEntity
  8
0
100
AcDbBlockBegin
  2
*D4
 70
     1
 10
0.0
 20
0.0
 30
0.0
  3
*D4
  1
*D4
  0
LINE
  5
925
330
924
100
AcDbEntity
  8
外形寸法
 62
     0
370
    -2
100
AcDbLine
 10
-68.25388467113888
 20
238.7200305115994
 30
0.0
 11
-68.25388467113885
 21
64.42332641748999
 31
0.0
  0
LINE
  5
926
330
924
100
AcDbEntity
  8
外形寸法
 62
     0
370
    -2
100
AcDbLine
 10
516.7486477394893
 20
228.6092507059226
 30
0.0
 11
516.7486477394893
 21
64.42332641748999
 31
0.0
  0
LINE
  5
927
330
924
100
AcDbEntity
  8
外形寸法
 62
     0
370
    -2
100
AcDbLine
 10
-41.25388467113885
 20
65.67332641748999
 30
0.0
 11
489.7486477394893
 21
65.67332641748999
 31
0.0
  0
INSERT
  5
928
330
924
100
AcDbEntity
  8
外形寸法
 62
     0
370
    -2
100
AcDbBlockReference
  2
_OPEN
 10
-68.25388467113885
 20
65.67332641748999
 30
0.0
 41
27.0
 42
27.0
 43
27.0
 50
180.0
  0
INSERT
  5
929
330
924
100
AcDbEntity
  8
外形寸法
 62
     0
370
    -2
100
AcDbBlockReference
  2
_OPEN
 10
516.7486477394893
 20
65.67332641748999
 30
0.0
 41
27.0
 42
27.0
 43
27.0
  0
MTEXT
  5
92A
330
924
100
AcDbEntity
  8
外形寸法
 62
     0
100
AcDbMText
 10
224.2473815341752
 20
81.67332641748999
 30
0.0
 40
30.0
 41
0.0
 46
0.0
 71
     5
 72
     1
  1
\A1;590
 73
     1
 44
1.0
  0
POINT
  5
92B
330
924
100
AcDbEntity
  8
Defpoints
 62
     0
100
AcDbPoint
 10
-68.25388467113888
 20
239.3450305115994
 30
0.0
  0
POINT
  5
92C
330
924
100
AcDbEntity
  8
Defpoints
 62
     0
100
AcDbPoint
 10
516.7486477394893
 20
229.2342507059226
 30
0.0
  0
POINT
  5
92D
330
924
100
AcDbEntity
  8
Defpoints
 62
     0
100
AcDbPoint
 10
516.7486477394893
 20
65.67332641748999
 30
0.0
  0
ENDBLK
  5
92F
330
924
100
AcDbEntity
  8
0
100
AcDbBlockEnd
  0
BLOCK
  5
93D
330
933
100
AcDbEntity
  8
0
100
AcDbBlockBegin
  2
*D5
 70
     1
 10
0.0
 20
0.0
 30
0.0
  3
*D5
  1
*D5
  0
LINE
  5
934
330
933
100
AcDbEntity
  8
外形寸法
 62
     0
370
    -2
100
AcDbLine
 10
516.7486477394893
 20
151.8841784645447
 30
0.0
 11
516.7486477394893
 21
64.42332641748999
 31
0.0
  0
LINE
  5
935
330
933
100
AcDbEntity
  8
外形寸法
 62
     0
370
    -2
100
AcDbLine
 10
626.7486477394893
 20
375.4434521318301
 30
0.0
 11
626.7486477394893
 21
64.42332641748999
 31
0.0
  0
LINE
  5
936
330
933
100
AcDbEntity
  8
外形寸法
 62
     0
370
    -2
100
AcDbLine
 10
543.7486477394893
 20
65.67332641748999
 30
0.0
 11
599.7486477394893
 21
65.67332641748999
 31
0.0
  0
INSERT
  5
937
330
933
100
AcDbEntity
  8
外形寸法
 62
     0
370
    -2
100
AcDbBlockReference
  2
_OPEN
 10
516.7486477394893
 20
65.67332641748999
 30
0.0
 41
27.0
 42
27.0
 43
27.0
 50
180.0
  0
INSERT
  5
938
330
933
100
AcDbEntity
  8
外形寸法
 62
     0
370
    -2
100
AcDbBlockReference
  2
_OPEN
 10
626.7486477394893
 20
65.67332641748999
 30
0.0
 41
27.0
 42
27.0
 43
27.0
  0
MTEXT
  5
939
330
933
100
AcDbEntity
  8
外形寸法
 62
     0
100
AcDbMText
 10
571.7486477394893
 20
81.67332641748999
 30
0.0
 40
30.0
 41
0.0
 46
0.0
 71
     5
 72
     1
  1
\A1;110
 73
     1
 44
1.0
  0
POINT
  5
93A
330
933
100
AcDbEntity
  8
Defpoints
 62
     0
100
AcDbPoint
 10
516.7486477394893
 20
152.5091784645447
 30
0.0
  0
POINT
  5
93B
330
933
100
AcDbEntity
  8
Defpoints
 62
     0
100
AcDbPoint
 10
626.7486477394893
 20
376.0684521318301
 30
0.0
  0
POINT
  5
93C
330
933
100
AcDbEntity
  8
Defpoints
 62
     0
100
AcDbPoint
 10
626.7486477394893
 20
65.67332641748999
 30
0.0
  0
ENDBLK
  5
93E
330
933
100
AcDbEntity
  8
0
100
AcDbBlockEnd
  0
BLOCK
  5
94A
330
940
100
AcDbEntity
  8
0
100
AcDbBlockBegin
  2
*D6
 70
     1
 10
0.0
 20
0.0
 30
0.0
  3
*D6
  1
*D6
  0
LINE
  5
962
330
940
100
AcDbEntity
  8
外形寸法
 62
     0
370
    -2
100
AcDbLine
 10
696.8514269318111
 20
504.1092507059359
 30
0.0
 11
696.8514269318111
 21
64.42332641748999
 31
0.0
  0
LINE
  5
963
330
940
100
AcDbEntity
  8
外形寸法
 62
     0
370
    -2
100
AcDbLine
 10
1076.85142693181
 20
336.7605103838569
 30
0.0
 11
1076.85142693181
 21
64.42332641748999
 31
0.0
  0
LINE
  5
964
330
940
100
AcDbEntity
  8
外形寸法
 62
     0
370
    -2
100
AcDbLine
 10
723.8514269318111
 20
65.67332641748999
 30
0.0
 11
1049.85142693181
 21
65.67332641748999
 31
0.0
  0
INSERT
  5
965
330
940
100
AcDbEntity
  8
外形寸法
 62
     0
370
    -2
100
AcDbBlockReference
  2
_OPEN
 10
696.8514269318111
 20
65.67332641748999
 30
0.0
 41
27.0
 42
27.0
 43
27.0
 50
180.0
  0
INSERT
  5
966
330
940
100
AcDbEntity
  8
外形寸法
 62
     0
370
    -2
100
AcDbBlockReference
  2
_OPEN
 10
1076.85142693181
 20
65.67332641748999
 30
0.0
 41
27.0
 42
27.0
 43
27.0
  0
MTEXT
  5
967
330
940
100
AcDbEntity
  8
外形寸法
 62
     0
100
AcDbMText
 10
886.8514269318108
 20
81.67332641748999
 30
0.0
 40
30.0
 41
0.0
 46
0.0
 71
     5
 72
     1
  1
\A1;380
 73
     1
 44
1.0
  0
POINT
  5
968
330
940
100
AcDbEntity
  8
Defpoints
 62
     0
100
AcDbPoint
 10
696.8514269318111
 20
504.7342507059359
 30
0.0
  0
POINT
  5
969
330
940
100
AcDbEntity
  8
Defpoints
 62
     0
100
AcDbPoint
 10
1076.85142693181
 20
337.3855103838569
 30
0.0
  0
POINT
  5
96A
330
940
100
AcDbEntity
  8
Defpoints
 62
     0
100
AcDbPoint
 10
1076.85142693181
 20
65.67332641748999
 30
0.0
  0
ENDBLK
  5
94B
330
940
100
AcDbEntity
  8
0
100
AcDbBlockEnd
  0
BLOCK
  5
957
330
94D
100
AcDbEntity
  8
0
100
AcDbBlockBegin
  2
*D7
 70
     1
 10
0.0
 20
0.0
 30
0.0
  3
*D7
  1
*D7
  0
LINE
  5
9C6
330
94D
100
AcDbEntity
  8
外形寸法
 62
     0
370
    -2
100
AcDbLine
 10
1031.851426931812
 20
740.5592507059346
 30
0.0
 11
1031.851426931812
 21
887.6621904160897
 31
0.0
  0
LINE
  5
9C7
330
94D
100
AcDbEntity
  8
外形寸法
 62
     0
370
    -2
100
AcDbLine
 10
691.8514269318116
 20
740.5592507059346
 30
0.0
 11
691.8514269318116
 21
887.6621904160897
 31
0.0
  0
LINE
  5
9C8
330
94D
100
AcDbEntity
  8
外形寸法
 62
     0
370
    -2
100
AcDbLine
 10
1004.851426931812
 20
886.4121904160897
 30
0.0
 11
718.8514269318116
 21
886.4121904160897
 31
0.0
  0
INSERT
  5
9C9
330
94D
100
AcDbEntity
  8
外形寸法
 62
     0
370
    -2
100
AcDbBlockReference
  2
_OPEN
 10
1031.851426931812
 20
886.4121904160897
 30
0.0
 41
27.0
 42
27.0
 43
27.0
  0
INSERT
  5
9CA
330
94D
100
AcDbEntity
  8
外形寸法
 62
     0
370
    -2
100
AcDbBlockReference
  2
_OPEN
 10
691.8514269318116
 20
886.4121904160897
 30
0.0
 41
27.0
 42
27.0
 43
27.0
 50
180.0
  0
MTEXT
  5
9CB
330
94D
100
AcDbEntity
  8
外形寸法
 62
     0
100
AcDbMText
 10
862.2433457909647
 20
902.4121904160897
 30
0.0
 40
30.0
 41
0.0
 46
0.0
 71
     5
 72
     1
  1
\A1;340
 73
     1
 44
1.0
  0
POINT
  5
9CC
330
94D
100
AcDbEntity
  8
Defpoints
 62
     0
100
AcDbPoint
 10
1031.851426931812
 20
739.9342507059346
 30
0.0
  0
POINT
  5
9CD
330
94D
100
AcDbEntity
  8
Defpoints
 62
     0
100
AcDbPoint
 10
691.8514269318116
 20
739.9342507059346
 30
0.0
  0
POINT
  5
9CE
330
94D
100
AcDbEntity
  8
Defpoints
 62
     0
100
AcDbPoint
 10
691.8514269318116
 20
886.4121904160897
 30
0.0
  0
ENDBLK
  5
958
330
94D
100
AcDbEntity
  8
0
100
AcDbBlockEnd
  0
BLOCK
  5
976
330
96C
100
AcDbEntity
  8
0
100
AcDbBlockBegin
  2
*D8
 70
     1
 10
0.0
 20
0.0
 30
0.0
  3
*D8
  1
*D8
  0
LINE
  5
96D
330
96C
100
AcDbEntity
  8
外形寸法
 62
     0
370
    -2
100
AcDbLine
 10
1077.476426931811
 20
579.7342507059359
 30
0.0
 11
1194.277183509273
 21
579.7342507059359
 31
0.0
  0
LINE
  5
96E
330
96C
100
AcDbEntity
  8
外形寸法
 62
     0
370
    -2
100
AcDbLine
 10
1011.027138108852
 20
191.7342507059346
 30
0.0
 11
1194.277183509273
 21
191.7342507059346
 31
0.0
  0
LINE
  5
96F
330
96C
100
AcDbEntity
  8
外形寸法
 62
     0
370
    -2
100
AcDbLine
 10
1193.027183509273
 20
552.7342507059359
 30
0.0
 11
1193.027183509273
 21
218.7342507059346
 31
0.0
  0
INSERT
  5
970
330
96C
100
AcDbEntity
  8
外形寸法
 62
     0
370
    -2
100
AcDbBlockReference
  2
_OPEN
 10
1193.027183509273
 20
579.7342507059359
 30
0.0
 41
27.0
 42
27.0
 43
27.0
 50
90.0
  0
INSERT
  5
971
330
96C
100
AcDbEntity
  8
外形寸法
 62
     0
370
    -2
100
AcDbBlockReference
  2
_OPEN
 10
1193.027183509273
 20
191.7342507059346
 30
0.0
 41
27.0
 42
27.0
 43
27.0
 50
270.0
  0
MTEXT
  5
972
330
96C
100
AcDbEntity
  8
外形寸法
 62
     0
100
AcDbMText
 10
1177.027183509273
 20
385.7342507059353
 30
0.0
 40
30.0
 41
0.0
 46
0.0
 71
     5
 72
     1
  1
\A1;400
 11
0.0
 21
1.0
 31
0.0
 73
     1
 44
1.0
  0
POINT
  5
973
330
96C
100
AcDbEntity
  8
Defpoints
 62
     0
100
AcDbPoint
 10
1076.851426931811
 20
579.7342507059359
 30
0.0
  0
POINT
  5
974
330
96C
100
AcDbEntity
  8
Defpoints
 62
     0
100
AcDbPoint
 10
1010.402138108852
 20
191.7342507059346
 30
0.0
  0
POINT
  5
975
330
96C
100
AcDbEntity
  8
Defpoints
 62
     0
100
AcDbPoint
 10
1193.027183509273
 20
191.7342507059346
 30
0.0
  0
ENDBLK
  5
977
330
96C
100
AcDbEntity
  8
0
100
AcDbBlockEnd
  0
BLOCK
  5
983
330
979
100
AcDbEntity
  8
0
100
AcDbBlockBegin
  2
*D9
 70
     1
 10
0.0
 20
0.0
 30
0.0
  3
*D9
  1
*D9
  0
LINE
  5
97A
330
979
100
AcDbEntity
  8
外形寸法
 62
     0
370
    -2
100
AcDbLine
 10
1019.476426931812
 20
579.7342507059373
 30
0.0
 11
1194.277183509273
 21
579.7342507059373
 31
0.0
  0
LINE
  5
97B
330
979
100
AcDbEntity
  8
外形寸法
 62
     0
370
    -2
100
AcDbLine
 10
1019.476426931812
 20
739.7342507059373
 30
0.0
 11
1194.277183509273
 21
739.7342507059373
 31
0.0
  0
LINE
  5
97C
330
979
100
AcDbEntity
  8
外形寸法
 62
     0
370
    -2
100
AcDbLine
 10
1193.027183509273
 20
606.7342507059373
 30
0.0
 11
1193.027183509273
 21
712.7342507059373
 31
0.0
  0
INSERT
  5
97D
330
979
100
AcDbEntity
  8
外形寸法
 62
     0
370
    -2
100
AcDbBlockReference
  2
_OPEN
 10
1193.027183509273
 20
579.7342507059373
 30
0.0
 41
27.0
 42
27.0
 43
27.0
 50
270.0
  0
INSERT
  5
97E
330
979
100
AcDbEntity
  8
外形寸法
 62
     0
370
    -2
100
AcDbBlockReference
  2
_OPEN
 10
1193.027183509273
 20
739.7342507059373
 30
0.0
 41
27.0
 42
27.0
 43
27.0
 50
90.0
  0
MTEXT
  5
97F
330
979
100
AcDbEntity
  8
外形寸法
 62
     0
100
AcDbMText
 10
1177.027183509273
 20
659.7342507059374
 30
0.0
 40
30.0
 41
0.0
 46
0.0
 71
     5
 72
     1
  1
\A1;160
 11
6.123031769111886E-17
 21
1.0
 31
0.0
 73
     1
 44
1.0
  0
POINT
  5
980
330
979
100
AcDbEntity
  8
Defpoints
 62
     0
100
AcDbPoint
 10
1018.851426931812
 20
579.7342507059373
 30
0.0
  0
POINT
  5
981
330
979
100
AcDbEntity
  8
Defpoints
 62
     0
100
AcDbPoint
 10
1018.851426931812
 20
739.7342507059373
 30
0.0
  0
POINT
  5
982
330
979
100
AcDbEntity
  8
Defpoints
 62
     0
100
AcDbPoint
 10
1193.027183509273
 20
739.7342507059373
 30
0.0
  0
ENDBLK
  5
984
330
979
100
AcDbEntity
  8
0
100
AcDbBlockEnd
  0
BLOCK
  5
990
330
986
100
AcDbEntity
  8
0
100
AcDbBlockBegin
  2
*D10
 70
     1
 10
0.0
 20
0.0
 30
0.0
  3
*D10
  1
*D10
  0
LINE
  5
987
330
986
100
AcDbEntity
  8
外形寸法
 62
     0
370
    -2
100
AcDbLine
 10
-69.45135226051065
 20
740.5592507059346
 30
0.0
 11
-69.45135226051065
 21
823.2355903932362
 31
0.0
  0
LINE
  5
988
330
986
100
AcDbEntity
  8
外形寸法
 62
     0
370
    -2
100
AcDbLine
 10
346.7152936759857
 20
737.0168136608215
 30
0.0
 11
346.7152936759857
 21
823.2355903932362
 31
0.0
  0
LINE
  5
989
330
986
100
AcDbEntity
  8
外形寸法
 62
     0
370
    -2
100
AcDbLine
 10
-42.45135226051065
 20
821.9855903932362
 30
0.0
 11
319.7152936759857
 21
821.9855903932362
 31
0.0
  0
INSERT
  5
98A
330
986
100
AcDbEntity
  8
外形寸法
 62
     0
370
    -2
100
AcDbBlockReference
  2
_OPEN
 10
-69.45135226051065
 20
821.9855903932362
 30
0.0
 41
27.0
 42
27.0
 43
27.0
 50
180.0
  0
INSERT
  5
98B
330
986
100
AcDbEntity
  8
外形寸法
 62
     0
370
    -2
100
AcDbBlockReference
  2
_OPEN
 10
346.7152936759857
 20
821.9855903932362
 30
0.0
 41
27.0
 42
27.0
 43
27.0
  0
MTEXT
  5
98C
330
986
100
AcDbEntity
  8
外形寸法
 62
     0
100
AcDbMText
 10
138.6319707077375
 20
837.9855903932362
 30
0.0
 40
30.0
 41
0.0
 46
0.0
 71
     5
 72
     1
  1
\A1;416
 73
     1
 44
1.0
  0
POINT
  5
98D
330
986
100
AcDbEntity
  8
Defpoints
 62
     0
100
AcDbPoint
 10
-69.45135226051065
 20
739.9342507059346
 30
0.0
  0
POINT
  5
98E
330
986
100
AcDbEntity
  8
Defpoints
 62
     0
100
AcDbPoint
 10
346.7152936759857
 20
736.3918136608215
 30
0.0
  0
POINT
  5
98F
330
986
100
AcDbEntity
  8
Defpoints
 62
     0
100
AcDbPoint
 10
346.7152936759857
 20
821.9855903932362
 30
0.0
  0
ENDBLK
  5
991
330
986
100
AcDbEntity
  8
0
100
AcDbBlockEnd
  0
BLOCK
  5
99D
330
993
100
AcDbEntity
  8
0
100
AcDbBlockBegin
  2
*D11
 70
     1
 10
0.0
 20
0.0
 30
0.0
  3
*D11
  1
*D11
  0
LINE
  5
994
330
993
100
AcDbEntity
  8
外形寸法
 62
     0
370
    -2
100
AcDbLine
 10
379.7486477394899
 20
1276.645286390542
 30
0.0
 11
379.7486477394899
 21
1338.648390576065
 31
0.0
  0
LINE
  5
995
330
993
100
AcDbEntity
  8
外形寸法
 62
     0
370
    -2
100
AcDbLine
 10
-68.25135226051032
 20
1276.645286390606
 30
0.0
 11
-68.25135226051032
 21
1338.648390576065
 31
0.0
  0
LINE
  5
996
330
993
100
AcDbEntity
  8
外形寸法
 62
     0
370
    -2
100
AcDbLine
 10
352.7486477394899
 20
1337.398390576065
 30
0.0
 11
-41.25135226051032
 21
1337.398390576065
 31
0.0
  0
INSERT
  5
997
330
993
100
AcDbEntity
  8
外形寸法
 62
     0
370
    -2
100
AcDbBlockReference
  2
_OPEN
 10
379.7486477394899
 20
1337.398390576065
 30
0.0
 41
27.0
 42
27.0
 43
27.0
  0
INSERT
  5
998
330
993
100
AcDbEntity
  8
外形寸法
 62
     0
370
    -2
100
AcDbBlockReference
  2
_OPEN
 10
-68.25135226051032
 20
1337.398390576065
 30
0.0
 41
27.0
 42
27.0
 43
27.0
 50
180.0
  0
MTEXT
  5
999
330
993
100
AcDbEntity
  8
外形寸法
 62
     0
100
AcDbMText
 10
155.7486477394898
 20
1353.398390576065
 30
0.0
 40
30.0
 41
0.0
 46
0.0
 71
     5
 72
     1
  1
\A1;453
 73
     1
 44
1.0
  0
POINT
  5
99A
330
993
100
AcDbEntity
  8
Defpoints
 62
     0
100
AcDbPoint
 10
379.7486477394899
 20
1276.020286390542
 30
0.0
  0
POINT
  5
99B
330
993
100
AcDbEntity
  8
Defpoints
 62
     0
100
AcDbPoint
 10
-68.25135226051032
 20
1276.020286390606
 30
0.0
  0
POINT
  5
99C
330
993
100
AcDbEntity
  8
Defpoints
 62
     0
100
AcDbPoint
 10
-68.25135226051032
 20
1337.398390576065
 30
0.0
  0
ENDBLK
  5
99E
330
993
100
AcDbEntity
  8
0
100
AcDbBlockEnd
  0
BLOCK
  5
9AA
330
9A0
100
AcDbEntity
  8
0
100
AcDbBlockBegin
  2
*D12
 70
     1
 10
0.0
 20
0.0
 30
0.0
  3
*D12
  1
*D12
  0
LINE
  5
9A1
330
9A0
100
AcDbEntity
  8
外形寸法
 62
     0
370
    -2
100
AcDbLine
 10
379.7486477394899
 20
1277.270286390542
 30
0.0
 11
379.7486477394899
 21
1338.648390576065
 31
0.0
  0
LINE
  5
9A2
330
9A0
100
AcDbEntity
  8
外形寸法
 62
     0
370
    -2
100
AcDbLine
 10
516.7486477394896
 20
1218.645286390542
 30
0.0
 11
516.7486477394896
 21
1338.648390576065
 31
0.0
  0
LINE
  5
9A3
330
9A0
100
AcDbEntity
  8
外形寸法
 62
     0
370
    -2
100
AcDbLine
 10
406.7486477394899
 20
1337.398390576065
 30
0.0
 11
489.7486477394896
 21
1337.398390576065
 31
0.0
  0
INSERT
  5
9A4
330
9A0
100
AcDbEntity
  8
外形寸法
 62
     0
370
    -2
100
AcDbBlockReference
  2
_OPEN
 10
379.7486477394899
 20
1337.398390576065
 30
0.0
 41
27.0
 42
27.0
 43
27.0
 50
180.0
  0
INSERT
  5
9A5
330
9A0
100
AcDbEntity
  8
外形寸法
 62
     0
370
    -2
100
AcDbBlockReference
  2
_OPEN
 10
516.7486477394896
 20
1337.398390576065
 30
0.0
 41
27.0
 42
27.0
 43
27.0
  0
MTEXT
  5
9A6
330
9A0
100
AcDbEntity
  8
外形寸法
 62
     0
100
AcDbMText
 10
448.2486477394897
 20
1353.398390576065
 30
0.0
 40
30.0
 41
0.0
 46
0.0
 71
     5
 72
     1
  1
\A1;137
 73
     1
 44
1.0
  0
POINT
  5
9A7
330
9A0
100
AcDbEntity
  8
Defpoints
 62
     0
100
AcDbPoint
 10
379.7486477394899
 20
1276.645286390542
 30
0.0
  0
POINT
  5
9A8
330
9A0
100
AcDbEntity
  8
Defpoints
 62
     0
100
AcDbPoint
 10
516.7486477394896
 20
1218.020286390542
 30
0.0
  0
POINT
  5
9A9
330
9A0
100
AcDbEntity
  8
Defpoints
 62
     0
100
AcDbPoint
 10
516.7486477394896
 20
1337.398390576065
 30
0.0
  0
ENDBLK
  5
9AB
330
9A0
100
AcDbEntity
  8
0
100
AcDbBlockEnd
  0
BLOCK
  5
9C4
330
9BA
100
AcDbEntity
  8
0
100
AcDbBlockBegin
  2
*D13
 70
     1
 10
0.0
 20
0.0
 30
0.0
  3
*D13
  1
*D13
  0
LINE
  5
9BB
330
9BA
100
AcDbEntity
  8
外形寸法
 62
     0
370
    -2
100
AcDbLine
 10
1018.851426931811
 20
772.1897706191303
 30
0.0
 11
1018.851426931811
 21
824.4855903932362
 31
0.0
  0
LINE
  5
9BC
330
9BA
100
AcDbEntity
  8
外形寸法
 62
     0
370
    -2
100
AcDbLine
 10
706.8514269318111
 20
690.9562306715748
 30
0.0
 11
706.8514269318111
 21
824.4855903932362
 31
0.0
  0
LINE
  5
9BD
330
9BA
100
AcDbEntity
  8
外形寸法
 62
     0
370
    -2
100
AcDbLine
 10
991.8514269318107
 20
823.2355903932362
 30
0.0
 11
733.8514269318111
 21
823.2355903932362
 31
0.0
  0
INSERT
  5
9BE
330
9BA
100
AcDbEntity
  8
外形寸法
 62
     0
370
    -2
100
AcDbBlockReference
  2
_OPEN
 10
1018.851426931811
 20
823.2355903932362
 30
0.0
 41
27.0
 42
27.0
 43
27.0
  0
INSERT
  5
9BF
330
9BA
100
AcDbEntity
  8
外形寸法
 62
     0
370
    -2
100
AcDbBlockReference
  2
_OPEN
 10
706.8514269318111
 20
823.2355903932362
 30
0.0
 41
27.0
 42
27.0
 43
27.0
 50
180.0
  0
MTEXT
  5
9C0
330
9BA
100
AcDbEntity
  8
外形寸法
 62
     0
100
AcDbMText
 10
862.8514269318109
 20
839.2355903932362
 30
0.0
 40
30.0
 41
0.0
 46
0.0
 71
     5
 72
     1
  1
\A1;312
 73
     1
 44
1.0
  0
POINT
  5
9C1
330
9BA
100
AcDbEntity
  8
Defpoints
 62
     0
100
AcDbPoint
 10
1018.851426931811
 20
771.5647706191303
 30
0.0
  0
POINT
  5
9C2
330
9BA
100
AcDbEntity
  8
Defpoints
 62
     0
100
AcDbPoint
 10
706.8514269318111
 20
690.3312306715748
 30
0.0
  0
POINT
  5
9C3
330
9BA
100
AcDbEntity
  8
Defpoints
 62
     0
100
AcDbPoint
 10
706.8514269318111
 20
823.2355903932362
 30
0.0
  0
ENDBLK
  5
9C5
330
9BA
100
AcDbEntity
  8
0
100
AcDbBlockEnd
  0
BLOCK
  5
9DA
330
9D0
100
AcDbEntity
  8
0
100
AcDbBlockBegin
  2
*D14
 70
     1
 10
0.0
 20
0.0
 30
0.0
  3
*D14
  1
*D14
  0
LINE
  5
9D1
330
9D0
100
AcDbEntity
  8
外形寸法
 62
     0
370
    -2
100
AcDbLine
 10
-68.8763522605106
 20
906.0202863905419
 30
0.0
 11
-156.5874442793729
 21
906.0202863905419
 31
0.0
  0
LINE
  5
9D2
330
9D0
100
AcDbEntity
  8
外形寸法
 62
     0
370
    -2
100
AcDbLine
 10
-29.81606590930733
 20
1276.020286390542
 30
0.0
 11
-156.5874442793729
 21
1276.020286390542
 31
0.0
  0
LINE
  5
9D3
330
9D0
100
AcDbEntity
  8
外形寸法
 62
     0
370
    -2
100
AcDbLine
 10
-155.3374442793729
 20
933.0202863905419
 30
0.0
 11
-155.3374442793729
 21
1249.020286390542
 31
0.0
  0
INSERT
  5
9D4
330
9D0
100
AcDbEntity
  8
外形寸法
 62
     0
370
    -2
100
AcDbBlockReference
  2
_OPEN
 10
-155.3374442793729
 20
906.0202863905419
 30
0.0
 41
27.0
 42
27.0
 43
27.0
 50
270.0
  0
INSERT
  5
9D5
330
9D0
100
AcDbEntity
  8
外形寸法
 62
     0
370
    -2
100
AcDbBlockReference
  2
_OPEN
 10
-155.3374442793729
 20
1276.020286390542
 30
0.0
 41
27.0
 42
27.0
 43
27.0
 50
90.0
  0
MTEXT
  5
9D6
330
9D0
100
AcDbEntity
  8
外形寸法
 62
     0
100
AcDbMText
 10
-171.3374442793729
 20
1091.020286390542
 30
0.0
 40
30.0
 41
0.0
 46
0.0
 71
     5
 72
     1
  1
\A1;380
 11
7.681543089298378E-17
 21
1.0
 31
0.0
 73
     1
 44
1.0
  0
POINT
  5
9D7
330
9D0
100
AcDbEntity
  8
Defpoints
 62
     0
100
AcDbPoint
 10
-68.2513522605106
 20
906.0202863905419
 30
0.0
  0
POINT
  5
9D8
330
9D0
100
AcDbEntity
  8
Defpoints
 62
     0
100
AcDbPoint
 10
-29.19106590930733
 20
1276.020286390542
 30
0.0
  0
POINT
  5
9D9
330
9D0
100
AcDbEntity
  8
Defpoints
 62
     0
100
AcDbPoint
 10
-155.3374442793729
 20
1276.020286390542
 30
0.0
  0
ENDBLK
  5
9DB
330
9D0
100
AcDbEntity
  8
0
100
AcDbBlockEnd
  0
BLOCK
  5
9E7
330
9DD
100
AcDbEntity
  8
0
100
AcDbBlockBegin
  2
*D15
 70
     1
 10
0.0
 20
0.0
 30
0.0
  3
*D15
  1
*D15
  0
LINE
  5
9DE
330
9DD
100
AcDbEntity
  8
外形寸法
 62
     0
370
    -2
100
AcDbLine
 10
-32.32564108346929
 20
191.7342507059346
 30
0.0
 11
-156.587444279373
 21
191.7342507059346
 31
0.0
  0
LINE
  5
9DF
330
9DD
100
AcDbEntity
  8
外形寸法
 62
     0
370
    -2
100
AcDbLine
 10
-32.32564108346926
 20
741.7342507059345
 30
0.0
 11
-156.587444279373
 21
741.7342507059345
 31
0.0
  0
LINE
  5
9E0
330
9DD
100
AcDbEntity
  8
外形寸法
 62
     0
370
    -2
100
AcDbLine
 10
-155.337444279373
 20
218.7342507059346
 30
0.0
 11
-155.337444279373
 21
714.7342507059345
 31
0.0
  0
INSERT
  5
9E1
330
9DD
100
AcDbEntity
  8
外形寸法
 62
     0
370
    -2
100
AcDbBlockReference
  2
_OPEN
 10
-155.337444279373
 20
191.7342507059346
 30
0.0
 41
27.0
 42
27.0
 43
27.0
 50
270.0
  0
INSERT
  5
9E2
330
9DD
100
AcDbEntity
  8
外形寸法
 62
     0
370
    -2
100
AcDbBlockReference
  2
_OPEN
 10
-155.337444279373
 20
741.7342507059345
 30
0.0
 41
27.0
 42
27.0
 43
27.0
 50
90.0
  0
MTEXT
  5
9E3
330
9DD
100
AcDbEntity
  8
外形寸法
 62
     0
100
AcDbMText
 10
-171.337444279373
 20
466.7342507059346
 30
0.0
 40
30.0
 41
0.0
 46
0.0
 71
     5
 72
     1
  1
\A1;560
 11
5.167583532800730E-17
 21
1.0
 31
0.0
 73
     1
 44
1.0
  0
POINT
  5
9E4
330
9DD
100
AcDbEntity
  8
Defpoints
 62
     0
100
AcDbPoint
 10
-31.70064108346929
 20
191.7342507059346
 30
0.0
  0
POINT
  5
9E5
330
9DD
100
AcDbEntity
  8
Defpoints
 62
     0
100
AcDbPoint
 10
-31.70064108346926
 20
741.7342507059345
 30
0.0
  0
POINT
  5
9E6
330
9DD
100
AcDbEntity
  8
Defpoints
 62
     0
100
AcDbPoint
 10
-155.337444279373
 20
741.7342507059345
 30
0.0
  0
ENDBLK
  5
9E8
330
9DD
100
AcDbEntity
  8
0
100
AcDbBlockEnd
  0
BLOCK
  5
A22
330
A18
100
AcDbEntity
  8
0
100
AcDbBlockBegin
  2
*D16
 70
     1
 10
0.0
 20
0.0
 30
0.0
  3
*D16
  1
*D16
  0
LINE
  5
A24
330
A18
100
AcDbEntity
  8
外形寸法
 62
     0
370
    -2
100
AcDbLine
 10
1076.851426931811
 20
542.4949346514159
 30
0.0
 11
1076.851426931811
 21
826.036746442986
 31
0.0
  0
LINE
  5
A25
330
A18
100
AcDbEntity
  8
外形寸法
 62
     0
370
    -2
100
AcDbLine
 10
1018.85142693181
 20
662.9446665478745
 30
0.0
 11
1018.85142693181
 21
826.036746442986
 31
0.0
  0
LINE
  5
A26
330
A18
100
AcDbEntity
  8
外形寸法
 62
     0
370
    -2
100
AcDbLine
 10
1045.85142693181
 20
824.786746442986
 30
0.0
 11
1049.851426931811
 21
824.786746442986
 31
0.0
  0
LINE
  5
A27
330
A18
100
AcDbEntity
  8
外形寸法
 62
     0
370
    -2
100
AcDbLine
 10
1076.851426931811
 20
824.786746442986
 30
0.0
 11
1155.851426931811
 21
824.786746442986
 31
0.0
  0
INSERT
  5
A28
330
A18
100
AcDbEntity
  8
外形寸法
 62
     0
370
    -2
100
AcDbBlockReference
  2
_OPEN
 10
1018.85142693181
 20
824.786746442986
 30
0.0
 41
27.0
 42
27.0
 43
27.0
 50
180.0
  0
INSERT
  5
A29
330
A18
100
AcDbEntity
  8
外形寸法
 62
     0
370
    -2
100
AcDbBlockReference
  2
_OPEN
 10
1076.851426931811
 20
824.786746442986
 30
0.0
 41
27.0
 42
27.0
 43
27.0
  0
MTEXT
  5
A2A
330
A18
100
AcDbEntity
  8
外形寸法
 62
     0
100
AcDbMText
 10
1129.851426931811
 20
840.786746442986
 30
0.0
 40
30.0
 41
0.0
 46
0.0
 71
     5
 72
     1
  1
\A1;58
 73
     1
 44
1.0
  0
POINT
  5
A2B
330
A18
100
AcDbEntity
  8
Defpoints
 62
     0
100
AcDbPoint
 10
1076.851426931811
 20
541.8699346514159
 30
0.0
  0
POINT
  5
A2C
330
A18
100
AcDbEntity
  8
Defpoints
 62
     0
100
AcDbPoint
 10
1018.85142693181
 20
662.3196665478745
 30
0.0
  0
POINT
  5
A2D
330
A18
100
AcDbEntity
  8
Defpoints
 62
     0
100
AcDbPoint
 10
1018.85142693181
 20
824.786746442986
 30
0.0
  0
ENDBLK
  5
A23
330
A18
100
AcDbEntity
  8
0
100
AcDbBlockEnd
  0
ENDSEC
  0
SECTION
  2
ENTITIES
  0
LINE
  5
584
330
18
100
AcDbEntity
  8
0
  6
CENTER
100
AcDbLine
 10
346.2180083364174
 20
1214.125865970893
 30
0.0
 11
346.2180083364174
 21
1314.125865970893
 31
0.0
  0
LINE
  5
585
330
18
100
AcDbEntity
  8
0
  6
CENTER
100
AcDbLine
 10
346.2180083364174
 20
1314.125865970893
 30
0.0
 11
649.8475077963794
 21
1314.125865970893
 31
0.0
  0
LINE
  5
586
330
18
100
AcDbEntity
  8
0
  6
CENTER
100
AcDbLine
 10
649.8475077963794
 20
1314.125865970893
 30
0.0
 11
649.8475077963794
 21
1114.125865970893
 31
0.0
  0
LINE
  5
587
330
18
100
AcDbEntity
  8
0
  6
CENTER
100
AcDbLine
 10
649.8475077963794
 20
1114.125865970893
 30
0.0
 11
315.4352891876442
 21
1114.125865970893
 31
0.0
  0
LINE
  5
588
330
18
100
AcDbEntity
  8
0
100
AcDbLine
 10
582.2077216740159
 20
1114.125865970893
 30
0.0
 11
577.2077216740159
 21
1114.125865970893
 31
0.0
  0
LINE
  5
589
330
18
100
AcDbEntity
  8
0
100
AcDbLine
 10
577.2077216740159
 20
1114.125865970893
 30
0.0
 11
577.2077216740159
 21
1314.125865970893
 31
0.0
  0
LINE
  5
58A
330
18
100
AcDbEntity
  8
0
100
AcDbLine
 10
577.2077216740159
 20
1314.125865970893
 30
0.0
 11
387.2077216740159
 21
1314.125865970893
 31
0.0
  0
LINE
  5
58B
330
18
100
AcDbEntity
  8
0
100
AcDbLine
 10
387.2077216740159
 20
1314.125865970893
 30
0.0
 11
387.2077216740159
 21
936.1253665103022
 31
0.0
  0
LINE
  5
58C
330
18
100
AcDbEntity
  8
0
100
AcDbLine
 10
577.2077216740159
 20
1114.125865970893
 30
0.0
 11
577.2077216740159
 21
1015.820937473453
 31
0.0
  0
LINE
  5
58D
330
18
100
AcDbEntity
  8
0
100
AcDbLine
 10
577.2077216740159
 20
1015.820937473453
 30
0.0
 11
542.2077216740159
 21
1015.820937473453
 31
0.0
  0
LINE
  5
58E
330
18
100
AcDbEntity
  8
0
100
AcDbLine
 10
542.2077216740159
 20
1015.820937473453
 30
0.0
 11
542.2077216740159
 21
1411.502462048719
 31
0.0
  0
LINE
  5
58F
330
18
100
AcDbEntity
  8
0
100
AcDbLine
 10
542.2077216740159
 20
1214.125865970893
 30
0.0
 11
542.2077216740159
 21
1299.125865970893
 31
0.0
  0
LINE
  5
590
330
18
100
AcDbEntity
  8
0
100
AcDbLine
 10
542.2077216740159
 20
1299.125865970893
 30
0.0
 11
300.0439351714067
 21
1299.125865970893
 31
0.0
  0
LINE
  5
591
330
18
100
AcDbEntity
  8
0
100
AcDbLine
 10
300.0439351714067
 20
1299.125865970893
 30
0.0
 11
300.0439351714066
 21
1129.125865970893
 31
0.0
  0
LINE
  5
592
330
18
100
AcDbEntity
  8
0
100
AcDbLine
 10
300.0439351714066
 20
1129.125865970893
 30
0.0
 11
542.2077216740159
 21
1129.125865970893
 31
0.0
  0
LINE
  5
593
330
18
100
AcDbEntity
  8
0
100
AcDbLine
 10
542.2077216740159
 20
1214.125865970893
 30
0.0
 11
542.2077216740159
 21
1274.125865970893
 31
0.0
  0
LINE
  5
594
330
18
100
AcDbEntity
  8
0
100
AcDbLine
 10
542.2077216740159
 20
1274.125865970893
 30
0.0
 11
577.2077216740159
 21
1274.125865970893
 31
0.0
  0
LINE
  5
595
330
18
100
AcDbEntity
  8
0
100
AcDbLine
 10
577.2077216740159
 20
1274.125865970893
 30
0.0
 11
697.2077216740159
 21
1274.125865970893
 31
0.0
  0
LINE
  5
596
330
18
100
AcDbEntity
  8
0
100
AcDbLine
 10
697.2077216740159
 20
1274.125865970893
 30
0.0
 11
697.2077216740159
 21
1154.125865970893
 31
0.0
  0
LINE
  5
597
330
18
100
AcDbEntity
  8
0
100
AcDbLine
 10
697.2077216740159
 20
1154.125865970893
 30
0.0
 11
542.2077216740159
 21
1154.125865970893
 31
0.0
  0
LINE
  5
598
330
18
100
AcDbEntity
  8
0
100
AcDbLine
 10
542.2077216740159
 20
1154.125865970893
 30
0.0
 11
542.2077216740159
 21
1150.125865970893
 31
0.0
  0
LINE
  5
599
330
18
100
AcDbEntity
  8
0
100
AcDbLine
 10
542.2077216740159
 20
1150.125865970893
 30
0.0
 11
756.1877941411612
 21
1150.125865970893
 31
0.0
  0
LINE
  5
59A
330
18
100
AcDbEntity
  8
0
100
AcDbLine
 10
697.2077216740159
 20
1274.125865970893
 30
0.0
 11
697.2077216740159
 21
1278.125865970893
 31
0.0
  0
LINE
  5
59B
330
18
100
AcDbEntity
  8
0
100
AcDbLine
 10
697.2077216740159
 20
1278.125865970893
 30
0.0
 11
542.2077216740159
 21
1278.125865970893
 31
0.0
  0
LINE
  5
59C
330
18
100
AcDbEntity
  8
0
100
AcDbLine
 10
697.2077216740159
 20
1274.125865970893
 30
0.0
 11
672.2077216740159
 21
1274.125865970893
 31
0.0
  0
LINE
  5
59D
330
18
100
AcDbEntity
  8
0
100
AcDbLine
 10
672.2077216740159
 20
1274.125865970893
 30
0.0
 11
672.2077216740159
 21
1154.125865970893
 31
0.0
  0
MTEXT
  5
685
330
18
100
AcDbEntity
  8
注釈文字
100
AcDbMText
 10
-127.905633182575
 20
1461.138722730955
 30
0.0
 40
30.0
 41
1521.413
 46
30.0
 71
     1
 72
     5
  1
{卓上小型巻すし機（TSM-200XN 型) /　製品仕様書}
 73
     1
 44
1.0
1001
ACAD
1000
ACAD_MTEXT_DEFINED_HEIGHT_BEGIN
1070
    46
1040
30.0
1000
ACAD_MTEXT_DEFINED_HEIGHT_END
  0
MTEXT
  5
686
330
18
100
AcDbEntity
  8
注釈文字
100
AcDbMText
 10
1294.204531492366
 20
501.9998571597797
 30
0.0
 40
25.0
 41
817.6499999999999
 46
383.3339666666667
 71
     1
 72
     5
  1
{　　仕様\P\H0.6x;　\P\H1.66667x;機種名　　　卓上小型巻すし機\P型　式　　　TSM-200XN　型\P本体寸法　　幅380　奥行590　高さ560mm\P本体重量　　44 kg\P電　源　　　AC 100 V\P           差込みプラグ形状(二股・アースクリップ付)\P           コード長さ　2.7m\P消費電力　　120 W　　　　　　}
 73
     1
 44
1.0
1001
ACAD
1000
ACAD_MTEXT_DEFINED_HEIGHT_BEGIN
1070
    46
1040
383.3339666666667
1000
ACAD_MTEXT_DEFINED_HEIGHT_END
  0
LWPOLYLINE
  5
688
330
18
100
AcDbEntity
  8
実体線
100
AcDbPolyline
 90
        4
 70
     1
 43
0.0
 10
-273.9145258384506
 20
1506.892867457972
 10
2149.833114233192
 20
1506.892867457972
 10
2149.833114233192
 20
-33.80802466545856
 10
-273.9145258384506
 20
-33.80802466545856
  0
LINE
  5
6D0
330
18
100
AcDbEntity
  8
0
100
AcDbLine
 10
1511.099372005723
 20
539.3111399017862
 30
0.0
 11
1292.064233190908
 21
539.3111399017862
 31
0.0
  0
LINE
  5
6D2
330
18
100
AcDbEntity
  8
0
100
AcDbLine
 10
1292.064233190908
 20
559.8111399017862
 30
0.0
 11
2149.833114233192
 21
559.8111399017862
 31
0.0
  0
LINE
  5
6D3
330
18
100
AcDbEntity
  8
0
100
AcDbLine
 10
1292.064233190908
 20
518.8111399017862
 30
0.0
 11
2149.833114233192
 21
518.8111399017862
 31
0.0
  0
LINE
  5
6D4
330
18
100
AcDbEntity
  8
0
100
AcDbLine
 10
1292.064233190908
 20
477.8111399017862
 30
0.0
 11
2149.833114233192
 21
477.8111399017862
 31
0.0
  0
LINE
  5
6D5
330
18
100
AcDbEntity
  8
0
100
AcDbLine
 10
1292.064233190908
 20
436.8111399017862
 30
0.0
 11
2149.833114233192
 21
436.8111399017862
 31
0.0
  0
LINE
  5
6D6
330
18
100
AcDbEntity
  8
0
100
AcDbLine
 10
1292.064233190908
 20
395.8111399017862
 30
0.0
 11
2149.833114233192
 21
395.8111399017862
 31
0.0
  0
LINE
  5
6D7
330
18
100
AcDbEntity
  8
0
100
AcDbLine
 10
1292.064233190908
 20
354.8111399017862
 30
0.0
 11
2149.833114233192
 21
354.8111399017862
 31
0.0
  0
LINE
  5
6D8
330
18
100
AcDbEntity
  8
0
100
AcDbLine
 10
1292.064233190908
 20
313.8111399017862
 30
0.0
 11
2149.833114233192
 21
313.8111399017862
 31
0.0
  0
LINE
  5
6D9
330
18
100
AcDbEntity
  8
0
100
AcDbLine
 10
1292.064233190908
 20
272.8111399017862
 30
0.0
 11
2149.833114233192
 21
272.8111399017862
 31
0.0
  0
LINE
  5
6DA
330
18
100
AcDbEntity
  8
0
100
AcDbLine
 10
1292.064233190908
 20
231.8111399017862
 30
0.0
 11
2149.833114233192
 21
231.8111399017862
 31
0.0
  0
LINE
  5
6DC
330
18
100
AcDbEntity
  8
注釈文字
100
AcDbLine
 10
1263.778124693841
 20
436.8632794799003
 30
0.0
 11
1263.778124693841
 21
108.8632794799003
 31
0.0
  0
LINE
  5
6DD
330
18
100
AcDbEntity
  8
注釈文字
100
AcDbLine
 10
1263.778124693841
 20
108.8632794799003
 30
0.0
 11
2077.007587708401
 21
108.8632794799003
 31
0.0
  0
LINE
  5
6DE
330
18
100
AcDbEntity
  8
注釈文字
100
AcDbLine
 10
2077.007587708401
 20
108.8632794799003
 30
0.0
 11
2077.007587708401
 21
436.8632794799003
 31
0.0
  0
LINE
  5
6DF
330
18
100
AcDbEntity
  8
注釈文字
100
AcDbLine
 10
2077.007587708401
 20
436.8632794799003
 30
0.0
 11
1263.778124693841
 21
436.8632794799003
 31
0.0
  0
LINE
  5
6E0
330
18
100
AcDbEntity
  8
注釈文字
100
AcDbLine
 10
1263.778124693841
 20
395.8632794799003
 30
0.0
 11
2077.007587708401
 21
395.8632794799003
 31
0.0
  0
LINE
  5
6E1
330
18
100
AcDbEntity
  8
注釈文字
100
AcDbLine
 10
2077.007587708401
 20
395.8632794799003
 30
0.0
 11
2077.007587708401
 21
354.8632794799003
 31
0.0
  0
LINE
  5
6E2
330
18
100
AcDbEntity
  8
注釈文字
100
AcDbLine
 10
2077.007587708401
 20
354.8632794799003
 30
0.0
 11
1263.778124693841
 21
354.8632794799003
 31
0.0
  0
LINE
  5
6E3
330
18
100
AcDbEntity
  8
注釈文字
100
AcDbLine
 10
1263.778124693841
 20
354.8632794799003
 30
0.0
 11
1263.778124693841
 21
313.8632794799003
 31
0.0
  0
LINE
  5
6E4
330
18
100
AcDbEntity
  8
注釈文字
100
AcDbLine
 10
1263.778124693841
 20
313.8632794799003
 30
0.0
 11
2077.007587708401
 21
313.8632794799003
 31
0.0
  0
LINE
  5
6E5
330
18
100
AcDbEntity
  8
注釈文字
100
AcDbLine
 10
2077.007587708401
 20
313.8632794799003
 30
0.0
 11
2077.007587708401
 21
272.8632794799003
 31
0.0
  0
LINE
  5
6E7
330
18
100
AcDbEntity
  8
注釈文字
100
AcDbLine
 10
1263.778124693841
 20
272.8632794799003
 30
0.0
 11
1263.778124693841
 21
149.8632794799003
 31
0.0
  0
LINE
  5
6E8
330
18
100
AcDbEntity
  8
注釈文字
100
AcDbLine
 10
1263.778124693841
 20
149.8632794799003
 30
0.0
 11
2077.007587708401
 21
149.8632794799003
 31
0.0
  0
LINE
  5
6E9
330
18
100
AcDbEntity
  8
注釈文字
100
AcDbLine
 10
1429.538989749511
 20
436.8632794799003
 30
0.0
 11
1429.538989749511
 21
108.8632794799003
 31
0.0
  0
LINE
  5
6EB
330
18
100
AcDbEntity
  8
注釈文字
100
AcDbLine
 10
1263.778124693841
 20
267.2269245275078
 30
0.0
 11
2077.007587708401
 21
267.2269245275078
 31
0.0
  0
MTEXT
  5
6EC
330
18
100
AcDbEntity
  8
注釈文字
100
AcDbMText
 10
1672.171560575892
 20
81.34205948927581
 30
0.0
 40
25.0
 41
501.7819999999999
 46
25.0
 71
     1
 72
     5
  1
{\Farsimp.shx|c128;製造元：㈱トップ}
 73
     1
 44
1.0
1001
ACAD
1000
ACAD_MTEXT_DEFINED_HEIGHT_BEGIN
1070
    46
1040
25.0
1000
ACAD_MTEXT_DEFINED_HEIGHT_END
  0
LINE
  5
802
330
18
100
AcDbEntity
  8
OUTV
100
AcDbLine
 10
1013.85142693181
 20
484.7342507059359
 30
0.0
 11
701.8514269318113
 21
484.7342507059359
 31
0.0
  0
LINE
  5
803
330
18
100
AcDbEntity
  8
OUTV
100
AcDbLine
 10
706.8514269318111
 20
578.7342507059358
 30
0.0
 11
707.8514269318111
 21
578.7342507059358
 31
0.0
  0
LINE
  5
804
330
18
100
AcDbEntity
  8
OUTV
100
AcDbLine
 10
707.8514269318127
 20
735.7342507059345
 30
0.0
 11
696.8514269318116
 21
735.7342507059345
 31
0.0
  0
LINE
  5
805
330
18
100
AcDbEntity
  8
OUTV
100
AcDbLine
 10
691.8514269318116
 20
736.9342507059346
 30
0.0
 11
1031.851426931812
 21
736.9342507059346
 31
0.0
  0
LINE
  5
806
330
18
100
AcDbEntity
  8
OUTV
100
AcDbLine
 10
1031.851426931812
 20
739.9342507059346
 30
0.0
 11
691.8514269318116
 21
739.9342507059346
 31
0.0
  0
LINE
  5
807
330
18
100
AcDbEntity
  8
OUTV
100
AcDbLine
 10
710.3514269318111
 20
294.7342507059324
 30
0.0
 11
706.8514269318111
 21
294.7342507059324
 31
0.0
  0
LINE
  5
808
330
18
100
AcDbEntity
  8
OUTV
100
AcDbLine
 10
706.8514269318111
 20
310.7342507059345
 30
0.0
 11
716.8514269318111
 21
310.7342507059345
 31
0.0
  0
LINE
  5
809
330
18
100
AcDbEntity
  8
OUTV
100
AcDbLine
 10
709.8514269318131
 20
564.7342507059359
 30
0.0
 11
706.8514269318111
 21
565.5751379695407
 31
0.0
  0
LINE
  5
80A
330
18
100
AcDbEntity
  8
OUTV
100
AcDbLine
 10
706.8514269318111
 20
211.7342507059345
 30
0.0
 11
764.8514269318111
 21
211.7342507059345
 31
0.0
  0
LINE
  5
80B
330
18
100
AcDbEntity
  8
OUTV
100
AcDbLine
 10
706.8514269318111
 20
578.7342507059358
 30
0.0
 11
706.8514269318111
 21
735.7342507059345
 31
0.0
  0
LINE
  5
80C
330
18
100
AcDbEntity
  8
OUTV
100
AcDbLine
 10
346.7152936759857
 20
735.7668136608215
 30
0.0
 11
381.7486477394893
 21
579.7342507059359
 31
0.0
  0
LINE
  5
80D
330
18
100
AcDbEntity
  8
OUTV
100
AcDbLine
 10
213.9486477394893
 20
736.9342507059346
 30
0.0
 11
213.9486477394893
 21
519.7342507059344
 31
0.0
  0
LINE
  5
80E
330
18
100
AcDbEntity
  8
OUTV
100
AcDbLine
 10
-68.25388467113888
 20
211.8235999945502
 30
0.0
 11
-68.25388467113888
 21
736.9342507059346
 31
0.0
  0
LINE
  5
80F
330
18
100
AcDbEntity
  8
OUTV
100
AcDbLine
 10
229.7486477394893
 20
358.7342507059341
 30
0.0
 11
299.7486477394892
 21
358.7342507059341
 31
0.0
  0
LINE
  5
810
330
18
100
AcDbEntity
  8
OUTV
100
AcDbLine
 10
229.7484382385168
 20
438.7344602025209
 30
0.0
 11
299.7484382385169
 21
438.7359267093292
 31
0.0
  0
LINE
  5
811
330
18
100
AcDbEntity
  8
OUTV
100
AcDbLine
 10
473.6406854744266
 20
198.7342507059345
 30
0.0
 11
249.8566100045663
 21
198.7342507059345
 31
0.0
  0
LINE
  5
812
330
18
100
AcDbEntity
  8
OUTV
100
AcDbLine
 10
381.7486477394893
 20
577.7342507059359
 30
0.0
 11
213.9486477394893
 21
577.7342507059359
 31
0.0
  0
LINE
  5
813
330
18
100
AcDbEntity
  8
OUTV
100
AcDbLine
 10
514.7187848591636
 20
211.7342507059346
 30
0.0
 11
-68.25388467113888
 21
211.8235999945502
 31
0.0
  0
LINE
  5
814
330
18
100
AcDbEntity
  8
OUTV
100
AcDbLine
 10
-53.25388467113887
 20
231.8235999945502
 30
0.0
 11
-53.25388467113886
 21
386.8235999945502
 31
0.0
  0
LINE
  5
815
330
18
100
AcDbEntity
  8
OUTV
100
AcDbLine
 10
111.7461153288611
 20
386.8235999945502
 30
0.0
 11
111.7461153288611
 21
231.8235999945501
 31
0.0
  0
LINE
  5
816
330
18
100
AcDbEntity
  8
OUTV
100
AcDbLine
 10
106.7461153288611
 20
226.8235999945501
 30
0.0
 11
-48.25388467113888
 21
226.8235999945502
 31
0.0
  0
LINE
  5
817
330
18
100
AcDbEntity
  8
OUTV
100
AcDbLine
 10
223.6406854744125
 20
198.7342507059345
 30
0.0
 11
-30.14338999543372
 21
198.7342507059346
 31
0.0
  0
ARC
  5
818
330
18
100
AcDbEntity
  8
OUTV
100
AcDbCircle
 10
-48.25388467113887
 20
231.8235999945502
 30
0.0
 40
5.0
100
AcDbArc
 50
180.0
 51
270.0
  0
LINE
  5
819
330
18
100
AcDbEntity
  8
OUTV
100
AcDbLine
 10
-54.80206343755202
 20
191.7342507059346
 30
0.0
 11
-31.70064108346929
 21
191.7342507059346
 31
0.0
  0
LINE
  5
81A
330
18
100
AcDbEntity
  8
OUTV
100
AcDbLine
 10
-31.70064108346929
 20
191.7342507059346
 30
0.0
 11
-54.80206343755202
 21
191.7342507059346
 31
0.0
  0
LINE
  5
81B
330
18
100
AcDbEntity
  8
OUTV
100
AcDbLine
 10
-59.2513522605106
 20
211.7342507059346
 30
0.0
 11
-54.80206343755202
 21
191.7342507059346
 31
0.0
  0
ARC
  5
81C
330
18
100
AcDbEntity
  8
OUTV
100
AcDbCircle
 10
-57.19373323321139
 20
208.7594757316691
 30
0.0
 40
10.05989022784272
100
AcDbArc
 50
180.1436684689906
 51
274.7578710473143
  0
LINE
  5
81D
330
18
100
AcDbEntity
  8
OUTV
100
AcDbLine
 10
-67.2535918353152
 20
211.7342507059346
 30
0.0
 11
-67.2535918353152
 21
208.7342507059346
 31
0.0
  0
LINE
  5
81E
330
18
100
AcDbEntity
  8
OUTV
100
AcDbLine
 10
-56.35931452558752
 20
198.7342507059346
 30
0.0
 11
-57.25359183531585
 21
198.7342507059346
 31
0.0
  0
LINE
  5
81F
330
18
100
AcDbEntity
  8
OUTV
100
AcDbLine
 10
-54.80206343755202
 20
191.7342507059346
 30
0.0
 11
-59.2513522605106
 21
211.7342507059346
 31
0.0
  0
LINE
  5
820
330
18
100
AcDbEntity
  8
OUTV
100
AcDbLine
 10
-31.70064108346929
 20
191.7342507059346
 30
0.0
 11
-27.25135226051071
 21
211.7342507059346
 31
0.0
  0
LINE
  5
821
330
18
100
AcDbEntity
  8
OUTV
100
AcDbLine
 10
-27.25135226051071
 20
211.7342507059346
 30
0.0
 11
-31.70064108346929
 21
191.7342507059346
 31
0.0
  0
ARC
  5
822
330
18
100
AcDbEntity
  8
OUTV
100
AcDbCircle
 10
106.7461153288611
 20
231.8235999945501
 30
0.0
 40
5.0
100
AcDbArc
 50
270.0
 51
0.0
  0
LINE
  5
823
330
18
100
AcDbEntity
  8
OUTV
100
AcDbLine
 10
220.7486477394895
 20
211.7342507059346
 30
0.0
 11
225.197936562448
 21
191.7342507059346
 31
0.0
  0
LINE
  5
824
330
18
100
AcDbEntity
  8
OUTV
100
AcDbLine
 10
248.2993589165308
 20
191.7342507059346
 30
0.0
 11
252.7486477394893
 21
211.7342507059346
 31
0.0
  0
LINE
  5
825
330
18
100
AcDbEntity
  8
OUTV
100
AcDbLine
 10
225.197936562448
 20
191.7342507059346
 30
0.0
 11
248.2993589165308
 21
191.7342507059346
 31
0.0
  0
LINE
  5
826
330
18
100
AcDbEntity
  8
OUTV
100
AcDbLine
 10
-48.25388467113886
 20
391.8235999945502
 30
0.0
 11
106.7461153288611
 21
391.8235999945502
 31
0.0
  0
LINE
  5
827
330
18
100
AcDbEntity
  8
OUTV
100
AcDbLine
 10
213.9486477394893
 20
519.7342507059344
 30
0.0
 11
-68.25388467113888
 21
519.7342507059344
 31
0.0
  0
ARC
  5
828
330
18
100
AcDbEntity
  8
OUTV
100
AcDbCircle
 10
-48.25388467113886
 20
386.8235999945502
 30
0.0
 40
5.0
100
AcDbArc
 50
90.0
 51
180.0
  0
LINE
  5
829
330
18
100
AcDbEntity
  8
OUTV
100
AcDbLine
 10
111.7486477394893
 20
430.7342507059344
 30
0.0
 11
153.7486477394893
 21
430.7342507059344
 31
0.0
  0
LINE
  5
82A
330
18
100
AcDbEntity
  8
OUTV
100
AcDbLine
 10
152.7486477394893
 20
439.9842507059346
 30
0.0
 11
112.7486477394893
 21
439.9842507059346
 31
0.0
  0
LINE
  5
82B
330
18
100
AcDbEntity
  8
OUTV
100
AcDbLine
 10
112.7486477394893
 20
509.9842507059346
 30
0.0
 11
152.7486477394893
 21
509.9842507059346
 31
0.0
  0
ARC
  5
82C
330
18
100
AcDbEntity
  8
OUTV
100
AcDbCircle
 10
106.7461153288611
 20
386.8235999945502
 30
0.0
 40
5.0
100
AcDbArc
 50
0.0
 51
90.0
  0
LINE
  5
82D
330
18
100
AcDbEntity
  8
OUTV
100
AcDbLine
 10
112.7486477394893
 20
439.9842507059346
 30
0.0
 11
112.7486477394895
 21
509.9842507059346
 31
0.0
  0
LINE
  5
82E
330
18
100
AcDbEntity
  8
OUTV
100
AcDbLine
 10
111.7486477394893
 20
444.2342507059344
 30
0.0
 11
111.7486477394893
 21
430.7342507059344
 31
0.0
  0
LINE
  5
82F
330
18
100
AcDbEntity
  8
OUTV
100
AcDbLine
 10
112.7486477394893
 20
444.2342507059344
 30
0.0
 11
111.7486477394893
 21
444.2342507059344
 31
0.0
  0
LINE
  5
830
330
18
100
AcDbEntity
  8
OUTV
100
AcDbLine
 10
219.7486477394893
 20
428.7344602047155
 30
0.0
 11
219.7486477394893
 21
368.7342507059341
 31
0.0
  0
ARC
  5
831
330
18
100
AcDbEntity
  8
OUTV
100
AcDbCircle
 10
229.7486477394894
 20
368.7342507059341
 30
0.0
 40
10.00000000000006
100
AcDbArc
 50
180.0
 51
269.9999999999992
  0
LINE
  5
832
330
18
100
AcDbEntity
  8
OUTV
100
AcDbLine
 10
120.2486477394893
 20
464.2342507059345
 30
0.0
 11
120.2486477394893
 21
504.5842507059347
 31
0.0
  0
LINE
  5
833
330
18
100
AcDbEntity
  8
OUTV
100
AcDbLine
 10
145.2486477394893
 20
504.5842507059347
 30
0.0
 11
145.2486477394893
 21
464.2342507059345
 31
0.0
  0
LINE
  5
834
330
18
100
AcDbEntity
  8
OUTV
100
AcDbLine
 10
152.7486477394893
 20
509.9842507059346
 30
0.0
 11
152.7486477394893
 21
439.9842507059346
 31
0.0
  0
LINE
  5
835
330
18
100
AcDbEntity
  8
OUTV
100
AcDbLine
 10
153.7486477394893
 20
444.2342507059344
 30
0.0
 11
152.7486477394893
 21
444.2342507059344
 31
0.0
  0
LINE
  5
836
330
18
100
AcDbEntity
  8
OUTV
100
AcDbLine
 10
145.2486477394893
 20
464.2342507059345
 30
0.0
 11
120.2486477394893
 21
464.2342507059345
 31
0.0
  0
LINE
  5
837
330
18
100
AcDbEntity
  8
OUTV
100
AcDbLine
 10
153.7486477394893
 20
430.7342507059344
 30
0.0
 11
153.7486477394893
 21
444.2342507059344
 31
0.0
  0
LINE
  5
838
330
18
100
AcDbEntity
  8
OUTV
100
AcDbLine
 10
139.0734615054998
 20
488.6328965213903
 30
0.0
 11
126.4238339734787
 21
488.6328965213903
 31
0.0
  0
LINE
  5
839
330
18
100
AcDbEntity
  8
OUTV
100
AcDbLine
 10
139.8802266868578
 20
487.3592447359227
 30
0.0
 11
139.0734615054998
 21
488.6328965213903
 31
0.0
  0
LINE
  5
83A
330
18
100
AcDbEntity
  8
OUTV
100
AcDbLine
 10
139.7486477394893
 20
493.6328965213903
 30
0.0
 11
139.8802266868578
 21
487.3592447359227
 31
0.0
  0
LINE
  5
83B
330
18
100
AcDbEntity
  8
OUTV
100
AcDbLine
 10
125.7486477394893
 20
493.6328965213903
 30
0.0
 11
139.7486477394893
 21
493.6328965213903
 31
0.0
  0
LINE
  5
83C
330
18
100
AcDbEntity
  8
OUTV
100
AcDbLine
 10
125.7486477394893
 20
497.8196512951523
 30
0.0
 11
125.7486477394893
 21
493.6328965213903
 31
0.0
  0
LINE
  5
83D
330
18
100
AcDbEntity
  8
OUTV
100
AcDbLine
 10
125.7486477394893
 20
476.4672019489668
 30
0.0
 11
125.7486477394893
 21
497.8196512951523
 31
0.0
  0
LINE
  5
83E
330
18
100
AcDbEntity
  8
OUTV
100
AcDbLine
 10
139.7486477394893
 20
476.4672019489668
 30
0.0
 11
125.7486477394893
 21
476.4672019489668
 31
0.0
  0
LINE
  5
83F
330
18
100
AcDbEntity
  8
OUTV
100
AcDbLine
 10
139.7486477394893
 20
497.8196512951523
 30
0.0
 11
139.7486477394893
 21
476.4672019489668
 31
0.0
  0
LINE
  5
840
330
18
100
AcDbEntity
  8
OUTV
100
AcDbLine
 10
125.7486477394893
 20
497.8196512951523
 30
0.0
 11
139.7486477394893
 21
497.8196512951523
 31
0.0
  0
LINE
  5
841
330
18
100
AcDbEntity
  8
OUTV
100
AcDbLine
 10
120.2486477394893
 20
504.5842507059347
 30
0.0
 11
145.2486477394893
 21
504.5842507059347
 31
0.0
  0
ARC
  5
842
330
18
100
AcDbEntity
  8
OUTV
100
AcDbCircle
 10
229.748647818865
 20
428.7344600177819
 30
0.0
 40
10.00000018693516
100
AcDbArc
 50
90.0012008069196
 51
179.9915964640038
  0
LINE
  5
843
330
18
100
AcDbEntity
  8
OUTV
100
AcDbLine
 10
32.74864773948948
 20
612.7342507059345
 30
0.0
 11
126.7486477394895
 21
612.7342507059345
 31
0.0
  0
LINE
  5
844
330
18
100
AcDbEntity
  8
OUTV
100
AcDbLine
 10
37.24864773948948
 20
616.7342507059345
 30
0.0
 11
122.2486477394894
 21
616.7342507059345
 31
0.0
  0
LINE
  5
845
330
18
100
AcDbEntity
  8
OUTV
100
AcDbLine
 10
37.24864773948948
 20
645.7342507059345
 30
0.0
 11
122.2486477394895
 21
645.7342507059345
 31
0.0
  0
LINE
  5
846
330
18
100
AcDbEntity
  8
OUTV
100
AcDbLine
 10
32.74864773948934
 20
657.7342507059345
 30
0.0
 11
126.7486477394894
 21
657.7342507059345
 31
0.0
  0
ARC
  5
847
330
18
100
AcDbEntity
  8
OUTV
100
AcDbCircle
 10
32.74864773948948
 20
617.7342507059345
 30
0.0
 40
5.0
100
AcDbArc
 50
180.0
 51
270.0
  0
LINE
  5
848
330
18
100
AcDbEntity
  8
OUTV
100
AcDbLine
 10
27.74864773948934
 20
652.7342507059345
 30
0.0
 11
27.74864773948948
 21
617.7342507059345
 31
0.0
  0
LINE
  5
849
330
18
100
AcDbEntity
  8
OUTV
100
AcDbLine
 10
32.24864773948948
 20
640.7342507059345
 30
0.0
 11
32.24864773948948
 21
621.7342507059345
 31
0.0
  0
ARC
  5
84A
330
18
100
AcDbEntity
  8
OUTV
100
AcDbCircle
 10
37.24864773948948
 20
621.7342507059345
 30
0.0
 40
5.0
100
AcDbArc
 50
180.0
 51
270.0
  0
ARC
  5
84B
330
18
100
AcDbEntity
  8
OUTV
100
AcDbCircle
 10
37.24864773948948
 20
640.7342507059345
 30
0.0
 40
5.0
100
AcDbArc
 50
90.0
 51
180.0
  0
ARC
  5
84C
330
18
100
AcDbEntity
  8
OUTV
100
AcDbCircle
 10
32.74864773948934
 20
652.7342507059345
 30
0.0
 40
5.0
100
AcDbArc
 50
90.0
 51
180.0
  0
ARC
  5
84D
330
18
100
AcDbEntity
  8
OUTV
100
AcDbCircle
 10
126.7486477394895
 20
617.7342507059345
 30
0.0
 40
5.0
100
AcDbArc
 50
270.0
 51
0.0
  0
LINE
  5
84E
330
18
100
AcDbEntity
  8
OUTV
100
AcDbLine
 10
131.7486477394894
 20
652.7342507059345
 30
0.0
 11
131.7486477394895
 21
617.7342507059345
 31
0.0
  0
LINE
  5
84F
330
18
100
AcDbEntity
  8
OUTV
100
AcDbLine
 10
127.2486477394895
 20
640.7342507059345
 30
0.0
 11
127.2486477394894
 21
621.7342507059344
 31
0.0
  0
ARC
  5
850
330
18
100
AcDbEntity
  8
OUTV
100
AcDbCircle
 10
122.2486477394894
 20
621.7342507059345
 30
0.0
 40
5.0
100
AcDbArc
 50
270.0
 51
0.0
  0
ARC
  5
851
330
18
100
AcDbEntity
  8
OUTV
100
AcDbCircle
 10
122.2486477394895
 20
640.7342507059345
 30
0.0
 40
5.0
100
AcDbArc
 50
0.0
 51
90.0
  0
ARC
  5
852
330
18
100
AcDbEntity
  8
OUTV
100
AcDbCircle
 10
126.7486477394894
 20
652.7342507059345
 30
0.0
 40
5.0
100
AcDbArc
 50
0.0
 51
90.0
  0
LINE
  5
853
330
18
100
AcDbEntity
  8
OUTV
100
AcDbLine
 10
706.8514269318111
 20
211.7342507059345
 30
0.0
 11
706.8514269318111
 21
484.7342507059359
 31
0.0
  0
LINE
  5
854
330
18
100
AcDbEntity
  8
OUTV
100
AcDbLine
 10
549.7187848591636
 20
366.7342507059344
 30
0.0
 11
549.7187848591636
 21
312.5705861753337
 31
0.0
  0
LINE
  5
855
330
18
100
AcDbEntity
  8
OUTV
100
AcDbLine
 10
381.7486477394893
 20
577.7342507059359
 30
0.0
 11
381.7486477394893
 21
310.7342507059345
 31
0.0
  0
LINE
  5
856
330
18
100
AcDbEntity
  8
OUTV
100
AcDbLine
 10
549.7187848591636
 20
312.5705861753337
 30
0.0
 11
516.7486477394893
 21
295.7342507059345
 31
0.0
  0
LINE
  5
857
330
18
100
AcDbEntity
  8
OUTV
100
AcDbLine
 10
381.7486477394893
 20
310.7342507059345
 30
0.0
 11
514.7187848591636
 21
310.7342507059345
 31
0.0
  0
LINE
  5
858
330
18
100
AcDbEntity
  8
OUTV
100
AcDbLine
 10
514.7187848591636
 20
310.7342507059344
 30
0.0
 11
514.7187848591636
 21
211.7342507059346
 31
0.0
  0
LINE
  5
859
330
18
100
AcDbEntity
  8
OUTV
100
AcDbLine
 10
475.1979365624431
 20
191.73425070602
 30
0.0
 11
498.299358916526
 21
191.73425070602
 31
0.0
  0
LINE
  5
85A
330
18
100
AcDbEntity
  8
OUTV
100
AcDbLine
 10
470.7486477395036
 20
211.7342507059346
 30
0.0
 11
475.1979365624431
 21
191.73425070602
 31
0.0
  0
ARC
  5
85B
330
18
100
AcDbEntity
  8
OUTV
100
AcDbCircle
 10
504.461532901315
 20
209.2782906735104
 30
0.0
 40
10.54717769868582
100
AcDbArc
 50
271.3976168495756
 51
13.46519909277052
  0
LINE
  5
85C
330
18
100
AcDbEntity
  8
OUTV
100
AcDbLine
 10
499.8566100045425
 20
198.7342507059345
 30
0.0
 11
504.7187848591636
 21
198.7342507059345
 31
0.0
  0
LINE
  5
85D
330
18
100
AcDbEntity
  8
OUTV
100
AcDbLine
 10
498.299358916526
 20
191.73425070602
 30
0.0
 11
502.7486477394656
 21
211.7342507059346
 31
0.0
  0
LINE
  5
85E
330
18
100
AcDbEntity
  8
OUTV
100
AcDbLine
 10
516.7486477394893
 20
295.7342507059345
 30
0.0
 11
516.7486477394893
 21
229.2342507059226
 31
0.0
  0
LINE
  5
85F
330
18
100
AcDbEntity
  8
OUTV
100
AcDbLine
 10
516.7486477394893
 20
229.2342507059226
 30
0.0
 11
514.7187848591636
 21
229.2342507059226
 31
0.0
  0
LINE
  5
860
330
18
100
AcDbEntity
  8
OUTV
100
AcDbLine
 10
490.0374396865882
 20
366.7342507059345
 30
0.0
 11
549.1809930077388
 21
366.7342507059345
 31
0.0
  0
LINE
  5
861
330
18
100
AcDbEntity
  8
OUTV
100
AcDbLine
 10
485.0374396865874
 20
371.7342507059353
 30
0.0
 11
549.7187848591636
 21
371.7342507059353
 31
0.0
  0
LINE
  5
862
330
18
100
AcDbEntity
  8
OUTV
100
AcDbLine
 10
549.7187848591636
 20
386.7342507059353
 30
0.0
 11
406.7347155216387
 21
386.7342507059353
 31
0.0
  0
LINE
  5
863
330
18
100
AcDbEntity
  8
OUTV
100
AcDbLine
 10
384.7486477394893
 20
484.7342507059359
 30
0.0
 11
384.7486477394893
 21
564.7342507059359
 31
0.0
  0
LINE
  5
864
330
18
100
AcDbEntity
  8
OUTV
100
AcDbLine
 10
406.7347155216387
 20
386.7342507059353
 30
0.0
 11
381.7486477394893
 21
386.7342507059353
 31
0.0
  0
LINE
  5
865
330
18
100
AcDbEntity
  8
OUTV
100
AcDbLine
 10
389.6809930077388
 20
366.7342507059344
 30
0.0
 11
381.7486477394893
 21
366.7342507059344
 31
0.0
  0
LINE
  5
866
330
18
100
AcDbEntity
  8
OUTV
100
AcDbLine
 10
309.7486477394892
 20
368.7342507059341
 30
0.0
 11
309.7486477394895
 21
428.7359267115237
 31
0.0
  0
ARC
  5
867
330
18
100
AcDbEntity
  8
OUTV
100
AcDbCircle
 10
299.7486477394893
 20
368.734250705934
 30
0.0
 40
9.999999999999943
100
AcDbArc
 50
269.9999999999992
 51
0.0
  0
ARC
  5
868
330
18
100
AcDbEntity
  8
OUTV
100
AcDbCircle
 10
299.7486477394895
 20
428.7359267115237
 30
0.0
 40
10.00000000000009
100
AcDbArc
 50
0.0
 51
90.00120035215382
  0
LINE
  5
869
330
18
100
AcDbEntity
  8
OUTV
100
AcDbLine
 10
384.7486477394893
 20
504.7342507059359
 30
0.0
 11
381.7486477394893
 21
504.7342507059359
 31
0.0
  0
LINE
  5
86A
330
18
100
AcDbEntity
  8
OUTV
100
AcDbLine
 10
384.7486477394893
 20
484.7342507059359
 30
0.0
 11
381.7486477394893
 21
484.7342507059359
 31
0.0
  0
LINE
  5
86B
330
18
100
AcDbEntity
  8
OUTV
100
AcDbLine
 10
404.6809930077388
 20
381.7342507059344
 30
0.0
 11
475.0374396865883
 21
381.7342507059344
 31
0.0
  0
LINE
  5
86C
330
18
100
AcDbEntity
  8
OUTV
100
AcDbLine
 10
389.6809930077388
 20
366.7342507059344
 30
0.0
 11
404.6809930077388
 21
381.7342507059344
 31
0.0
  0
LINE
  5
86D
330
18
100
AcDbEntity
  8
OUTV
100
AcDbLine
 10
475.0374396865883
 20
381.7342507059344
 30
0.0
 11
490.0374396865882
 21
366.7342507059345
 31
0.0
  0
LINE
  5
86E
330
18
100
AcDbEntity
  8
OUTV
100
AcDbLine
 10
384.7486477394893
 20
564.7342507059359
 30
0.0
 11
384.7486477394893
 21
577.7342507059359
 31
0.0
  0
LINE
  5
86F
330
18
100
AcDbEntity
  8
OUTV
100
AcDbLine
 10
384.7486477394893
 20
564.7342507059359
 30
0.0
 11
381.7486477394893
 21
564.7342507059359
 31
0.0
  0
LINE
  5
870
330
18
100
AcDbEntity
  8
OUTV
100
AcDbLine
 10
381.7486477394893
 20
577.7342507059359
 30
0.0
 11
384.7486477394893
 21
577.7342507059359
 31
0.0
  0
LINE
  5
871
330
18
100
AcDbEntity
  8
OUTV
100
AcDbLine
 10
381.7486477394893
 20
579.7342507059359
 30
0.0
 11
381.7486477394893
 21
577.7342507059359
 31
0.0
  0
LINE
  5
872
330
18
100
AcDbEntity
  8
OUTV
100
AcDbLine
 10
706.8514269318111
 20
504.7342507059359
 30
0.0
 11
706.8514269318111
 21
578.7342507059358
 31
0.0
  0
LINE
  5
873
330
18
100
AcDbEntity
  8
OUTV
100
AcDbLine
 10
549.7187848591636
 20
356.086053315037
 30
0.0
 11
615.1153099952998
 21
379.7844605305863
 31
0.0
  0
LINE
  5
874
330
18
100
AcDbEntity
  8
OUTV
100
AcDbLine
 10
549.7187848591636
 20
333.7372471755799
 30
0.0
 11
621.1695664495014
 21
360.7395020076792
 31
0.0
  0
LINE
  5
875
330
18
100
AcDbEntity
  8
OUTV
100
AcDbLine
 10
549.7187848591636
 20
371.7342507059353
 30
0.0
 11
549.7187848591636
 21
386.7342507059353
 31
0.0
  0
CIRCLE
  5
876
330
18
100
AcDbEntity
  8
OUTV
100
AcDbCircle
 10
618.5223078749068
 20
370.382739121804
 30
0.0
 40
9.99999999999995
  0
LINE
  5
877
330
18
100
AcDbEntity
  8
OUTV
100
AcDbLine
 10
696.8514269318111
 20
504.7342507059359
 30
0.0
 11
706.8514269318111
 21
504.7342507059359
 31
0.0
  0
LINE
  5
878
330
18
100
AcDbEntity
  8
OUTV
100
AcDbLine
 10
696.8514269318113
 20
489.7342507059359
 30
0.0
 11
696.8514269318111
 21
504.7342507059359
 31
0.0
  0
ARC
  5
879
330
18
100
AcDbEntity
  8
OUTV
100
AcDbCircle
 10
701.8514269318113
 20
489.7342507059359
 30
0.0
 40
5.0
100
AcDbArc
 50
180.0
 51
270.0
  0
LINE
  5
87A
330
18
100
AcDbEntity
  8
OUTV
100
AcDbLine
 10
-68.25135226051032
 20
1276.020286390542
 30
0.0
 11
379.7486477394899
 21
1276.020286390542
 31
0.0
  0
LINE
  5
87B
330
18
100
AcDbEntity
  8
OUTV
100
AcDbLine
 10
516.7486477394893
 20
906.0202863905416
 30
0.0
 11
-68.2513522605106
 21
906.0202863905419
 31
0.0
  0
LINE
  5
87C
330
18
100
AcDbEntity
  8
OUTV
100
AcDbLine
 10
-68.2513522605106
 20
1218.020286390542
 30
0.0
 11
381.7486477394899
 21
1218.020286390542
 31
0.0
  0
LINE
  5
87D
330
18
100
AcDbEntity
  8
OUTV
  6
CENTER
100
AcDbLine
 10
-107.6821468939725
 20
1061.020286390542
 30
0.0
 11
543.654902498085
 21
1061.020286390542
 31
0.0
  0
LINE
  5
87E
330
18
100
AcDbEntity
  8
OUTV
100
AcDbLine
 10
213.9486477394893
 20
735.7342507059345
 30
0.0
 11
346.7152936759857
 21
735.7668136608215
 31
0.0
  0
LINE
  5
87F
330
18
100
AcDbEntity
  8
OUTV
100
AcDbLine
 10
230.5486477394895
 20
906.0202863905417
 30
0.0
 11
230.5486477394895
 21
1218.020286390543
 31
0.0
  0
LINE
  5
880
330
18
100
AcDbEntity
  8
OUTV
100
AcDbLine
 10
210.5486477394894
 20
931.0202863905419
 30
0.0
 11
210.5486477394894
 21
1191.020286390542
 31
0.0
  0
LINE
  5
881
330
18
100
AcDbEntity
  8
OUTV
100
AcDbLine
 10
-68.2513522605106
 20
906.0202863905419
 30
0.0
 11
-68.2513522605106
 21
1218.020286390542
 31
0.0
  0
LINE
  5
882
330
18
100
AcDbEntity
  8
OUTV
100
AcDbLine
 10
-47.34365428190534
 20
1191.020286390542
 30
0.0
 11
-47.3436542819054
 21
931.020286390542
 31
0.0
  0
LINE
  5
883
330
18
100
AcDbEntity
  8
OUTV
100
AcDbLine
 10
-47.34365428190534
 20
931.020286390542
 30
0.0
 11
210.5486477394894
 21
931.0202863905419
 31
0.0
  0
LINE
  5
884
330
18
100
AcDbEntity
  8
OUTV
100
AcDbLine
 10
230.5486477394894
 20
736.9342507059346
 30
0.0
 11
-69.45135226051065
 21
736.9342507059346
 31
0.0
  0
LINE
  5
885
330
18
100
AcDbEntity
  8
OUTV
100
AcDbLine
 10
-69.45135226051065
 20
739.9342507059346
 30
0.0
 11
230.5486477394894
 21
739.9342507059346
 31
0.0
  0
LINE
  5
886
330
18
100
AcDbEntity
  8
OUTV
100
AcDbLine
 10
-69.45135226051065
 20
720.7342507059345
 30
0.0
 11
213.9486477394893
 21
720.7342507059345
 31
0.0
  0
LINE
  5
887
330
18
100
AcDbEntity
  8
OUTV
100
AcDbLine
 10
-68.25388467113888
 20
736.9342507059346
 30
0.0
 11
213.9486477394893
 21
736.9342507059346
 31
0.0
  0
LINE
  5
888
330
18
100
AcDbEntity
  8
OUTV
100
AcDbLine
 10
-69.45135226051065
 20
736.9342507059346
 30
0.0
 11
-69.45135226051065
 21
739.9342507059346
 31
0.0
  0
LINE
  5
889
330
18
100
AcDbEntity
  8
OUTV
100
AcDbLine
 10
-69.45135226051065
 20
720.7342507059345
 30
0.0
 11
-69.45135226051065
 21
736.9342507059346
 31
0.0
  0
LINE
  5
88A
330
18
100
AcDbEntity
  8
OUTV
100
AcDbLine
 10
230.5486477394894
 20
739.9342507059346
 30
0.0
 11
230.5486477394894
 21
736.9342507059346
 31
0.0
  0
LINE
  5
88B
330
18
100
AcDbEntity
  8
OUTV
100
AcDbLine
 10
112.7486477394893
 20
901.0202863905417
 30
0.0
 11
152.7486477394893
 21
901.0202863905417
 31
0.0
  0
LINE
  5
88C
330
18
100
AcDbEntity
  8
OUTV
100
AcDbLine
 10
112.7486477394893
 20
899.0202863905417
 30
0.0
 11
152.7486477394893
 21
899.0202863905417
 31
0.0
  0
LINE
  5
88D
330
18
100
AcDbEntity
  8
OUTV
100
AcDbLine
 10
112.7486477394893
 20
906.0202863905417
 30
0.0
 11
112.7486477394893
 21
901.0202863905417
 31
0.0
  0
LINE
  5
88E
330
18
100
AcDbEntity
  8
OUTV
100
AcDbLine
 10
112.7486477394893
 20
901.0202863905417
 30
0.0
 11
112.7486477394893
 21
899.0202863905417
 31
0.0
  0
LINE
  5
88F
330
18
100
AcDbEntity
  8
OUTV
100
AcDbLine
 10
152.7486477394893
 20
901.0202863905417
 30
0.0
 11
152.7486477394893
 21
906.0202863905417
 31
0.0
  0
LINE
  5
890
330
18
100
AcDbEntity
  8
OUTV
100
AcDbLine
 10
124.8165871767723
 20
899.0202863905417
 30
0.0
 11
124.8165871767723
 21
887.7551174161492
 31
0.0
  0
LINE
  5
891
330
18
100
AcDbEntity
  8
OUTV
100
AcDbLine
 10
124.8165871767723
 20
887.7551174161492
 30
0.0
 11
139.8165871767723
 21
887.7551174161492
 31
0.0
  0
LINE
  5
892
330
18
100
AcDbEntity
  8
OUTV
100
AcDbLine
 10
139.8165871767723
 20
887.7551174161492
 30
0.0
 11
139.8165871767723
 21
899.0202863905417
 31
0.0
  0
LINE
  5
893
330
18
100
AcDbEntity
  8
OUTV
100
AcDbLine
 10
152.7486477394893
 20
899.0202863905417
 30
0.0
 11
152.7486477394893
 21
906.0202863905417
 31
0.0
  0
LINE
  5
894
330
18
100
AcDbEntity
  8
OUTV
100
AcDbLine
 10
210.5486477394894
 20
1191.020286390542
 30
0.0
 11
-47.34365428190534
 21
1191.020286390542
 31
0.0
  0
LINE
  5
895
330
18
100
AcDbEntity
  8
OUTV
100
AcDbLine
 10
-68.2513522605106
 20
1218.020286390542
 30
0.0
 11
-68.2513522605106
 21
1274.020286390542
 31
0.0
  0
LINE
  5
896
330
18
100
AcDbEntity
  8
OUTV
100
AcDbLine
 10
-68.2513522605106
 20
1274.020286390542
 30
0.0
 11
-68.25135226051032
 21
1276.020286390542
 31
0.0
  0
LINE
  5
897
330
18
100
AcDbEntity
  8
OUTV
100
AcDbLine
 10
549.7187848591636
 20
1184.020286390542
 30
0.0
 11
549.7187848591636
 21
938.0202863905422
 31
0.0
  0
LINE
  5
898
330
18
100
AcDbEntity
  8
OUTV
100
AcDbLine
 10
608.3311490637748
 20
1061.020286390542
 30
0.0
 11
608.3311490637748
 21
996.0202863905422
 31
0.0
  0
LINE
  5
899
330
18
100
AcDbEntity
  8
OUTV
100
AcDbLine
 10
628.3311490637748
 20
996.0202863905422
 30
0.0
 11
628.3311490637748
 21
1126.020286390542
 31
0.0
  0
LINE
  5
89A
330
18
100
AcDbEntity
  8
OUTV
100
AcDbLine
 10
391.7486477394892
 20
906.020286390542
 30
0.0
 11
391.7486477394892
 21
1218.020286390542
 31
0.0
  0
LINE
  5
89B
330
18
100
AcDbEntity
  8
OUTV
100
AcDbLine
 10
549.7187848591636
 20
938.0202863905422
 30
0.0
 11
391.7486477394892
 21
938.0202863905422
 31
0.0
  0
LINE
  5
89D
330
18
100
AcDbEntity
  8
OUTV
100
AcDbLine
 10
516.7486477394893
 20
938.0202863905422
 30
0.0
 11
516.7486477394893
 21
906.0202863905416
 31
0.0
  0
LINE
  5
89E
330
18
100
AcDbEntity
  8
OUTV
100
AcDbLine
 10
391.7486477394892
 20
916.0202863905417
 30
0.0
 11
516.7486477394896
 21
916.0202863905416
 31
0.0
  0
LINE
  5
89F
330
18
100
AcDbEntity
  8
OUTV
100
AcDbLine
 10
506.7486477394896
 20
916.0202863905416
 30
0.0
 11
506.7486477394896
 21
938.0202863905422
 31
0.0
  0
LINE
  5
8A0
330
18
100
AcDbEntity
  8
OUTV
100
AcDbLine
 10
696.8514269318116
 20
735.7342507059345
 30
0.0
 11
696.8514269318117
 21
736.9342507059346
 31
0.0
  0
LINE
  5
8A1
330
18
100
AcDbEntity
  8
OUTV
100
AcDbLine
 10
691.8514269318116
 20
736.9342507059346
 30
0.0
 11
696.8514269318116
 21
736.9342507059346
 31
0.0
  0
LINE
  5
8A2
330
18
100
AcDbEntity
  8
OUTV
100
AcDbLine
 10
691.8514269318116
 20
739.9342507059346
 30
0.0
 11
691.8514269318116
 21
736.9342507059346
 31
0.0
  0
LINE
  5
8A3
330
18
100
AcDbEntity
  8
OUTV
100
AcDbLine
 10
628.3311490637748
 20
992.0202863905422
 30
0.0
 11
582.0856186154635
 21
992.0202863905422
 31
0.0
  0
LINE
  5
8A4
330
18
100
AcDbEntity
  8
OUTV
100
AcDbLine
 10
582.0856186154635
 20
996.0202863905422
 30
0.0
 11
628.3311490637748
 21
996.0202863905422
 31
0.0
  0
LINE
  5
8A5
330
18
100
AcDbEntity
  8
OUTV
100
AcDbLine
 10
628.3311490637748
 20
996.0202863905422
 30
0.0
 11
549.7187848591636
 21
996.0202863905422
 31
0.0
  0
LINE
  5
8A6
330
18
100
AcDbEntity
  8
OUTV
100
AcDbLine
 10
628.3311490637748
 20
992.0202863905422
 30
0.0
 11
549.7187848591636
 21
992.0202863905422
 31
0.0
  0
LINE
  5
8A7
330
18
100
AcDbEntity
  8
OUTV
100
AcDbLine
 10
608.3311490637748
 20
996.0202863905422
 30
0.0
 11
628.3311490637748
 21
996.0202863905422
 31
0.0
  0
LINE
  5
8A8
330
18
100
AcDbEntity
  8
OUTV
100
AcDbLine
 10
628.3311490637748
 20
996.0202863905422
 30
0.0
 11
628.3311490637748
 21
992.0202863905422
 31
0.0
  0
LINE
  5
8A9
330
18
100
AcDbEntity
  8
OUTV
100
AcDbLine
 10
391.7486477394892
 20
1184.020286390542
 30
0.0
 11
549.7187848591636
 21
1184.020286390542
 31
0.0
  0
LINE
  5
8AA
330
18
100
AcDbEntity
  8
OUTV
100
AcDbLine
 10
516.7486477394896
 20
1218.020286390542
 30
0.0
 11
516.7486477394896
 21
1184.020286390542
 31
0.0
  0
LINE
  5
8AB
330
18
100
AcDbEntity
  8
OUTV
100
AcDbLine
 10
391.7486477394892
 20
1206.020286390542
 30
0.0
 11
516.7486477394896
 21
1206.020286390542
 31
0.0
  0
LINE
  5
8AC
330
18
100
AcDbEntity
  8
OUTV
100
AcDbLine
 10
506.7486477394896
 20
1184.020286390542
 30
0.0
 11
506.7486477394896
 21
1206.020286390542
 31
0.0
  0
LINE
  5
8AD
330
18
100
AcDbEntity
  8
OUTV
100
AcDbLine
 10
379.7486477394932
 20
1218.020286390542
 30
0.0
 11
516.7486477394896
 21
1218.020286390542
 31
0.0
  0
LINE
  5
8AE
330
18
100
AcDbEntity
  8
OUTV
100
AcDbLine
 10
379.7486477394899
 20
1276.020286390542
 30
0.0
 11
379.7486477394932
 21
1218.020286390542
 31
0.0
  0
LINE
  5
8AF
330
18
100
AcDbEntity
  8
OUTV
100
AcDbLine
 10
608.3311490637748
 20
1126.020286390542
 30
0.0
 11
608.3311490637748
 21
1061.020286390542
 31
0.0
  0
LINE
  5
8B0
330
18
100
AcDbEntity
  8
OUTV
  6
CENTER
100
AcDbLine
 10
543.654902498085
 20
1061.020286390542
 30
0.0
 11
653.118104068868
 21
1061.020286390542
 31
0.0
  0
LINE
  5
8B1
330
18
100
AcDbEntity
  8
OUTV
100
AcDbLine
 10
628.3311490637748
 20
1130.020286390542
 30
0.0
 11
582.0856186154635
 21
1130.020286390542
 31
0.0
  0
LINE
  5
8B2
330
18
100
AcDbEntity
  8
OUTV
100
AcDbLine
 10
582.0856186154635
 20
1126.020286390542
 30
0.0
 11
628.3311490637748
 21
1126.020286390542
 31
0.0
  0
LINE
  5
8B3
330
18
100
AcDbEntity
  8
OUTV
100
AcDbLine
 10
628.3311490637748
 20
1130.020286390542
 30
0.0
 11
549.7187848591636
 21
1130.020286390542
 31
0.0
  0
LINE
  5
8B4
330
18
100
AcDbEntity
  8
OUTV
100
AcDbLine
 10
628.3311490637748
 20
1126.020286390542
 30
0.0
 11
549.7187848591636
 21
1126.020286390542
 31
0.0
  0
LINE
  5
8B5
330
18
100
AcDbEntity
  8
OUTV
100
AcDbLine
 10
628.3311490637748
 20
1126.020286390542
 30
0.0
 11
608.3311490637748
 21
1126.020286390542
 31
0.0
  0
LINE
  5
8B6
330
18
100
AcDbEntity
  8
OUTV
100
AcDbLine
 10
628.3311490637748
 20
1126.020286390542
 30
0.0
 11
628.3311490637748
 21
1130.020286390542
 31
0.0
  0
LINE
  5
8B7
330
18
100
AcDbEntity
  8
OUTV
100
AcDbLine
 10
1018.85142693181
 20
489.7342507059359
 30
0.0
 11
1018.851426931811
 21
735.7342507059345
 31
0.0
  0
LINE
  5
8B8
330
18
100
AcDbEntity
  8
OUTV
100
AcDbLine
 10
707.8514269318111
 20
578.7342507059358
 30
0.0
 11
707.8514269318127
 21
735.7342507059345
 31
0.0
  0
LINE
  5
8B9
330
18
100
AcDbEntity
  8
OUTV
100
AcDbLine
 10
1017.85142693181
 20
578.7342507059358
 30
0.0
 11
1017.85142693181
 21
735.7342507059345
 31
0.0
  0
LINE
  5
8BA
330
18
100
AcDbEntity
  8
OUTV
  6
CENTER
100
AcDbLine
 10
861.8514269318116
 20
744.5953855555149
 30
0.0
 11
861.8514269318114
 21
188.9242099309081
 31
0.0
  0
LINE
  5
8BB
330
18
100
AcDbEntity
  8
OUTV
100
AcDbLine
 10
1018.85142693181
 20
484.7342507059359
 30
0.0
 11
1018.85142693181
 21
211.1092507059345
 31
0.0
  0
LINE
  5
8BC
330
18
100
AcDbEntity
  8
OUTV
100
AcDbLine
 10
716.8514269318111
 20
310.7342507059345
 30
0.0
 11
716.8514269318111
 21
484.7342507059359
 31
0.0
  0
LINE
  5
8BD
330
18
100
AcDbEntity
  8
OUTV
100
AcDbLine
 10
1076.85142693181
 20
214.7342507059346
 30
0.0
 11
1076.851426931811
 21
579.7342507059359
 31
0.0
  0
LINE
  5
8BE
330
18
100
AcDbEntity
  8
OUTV
100
AcDbLine
 10
796.8514269318114
 20
310.4887202576233
 30
0.0
 11
796.8514269318114
 21
356.7342507059345
 31
0.0
  0
LINE
  5
8BF
330
18
100
AcDbEntity
  8
OUTV
100
AcDbLine
 10
792.8514269318114
 20
356.7342507059345
 30
0.0
 11
792.8514269318114
 21
310.4887202576233
 31
0.0
  0
LINE
  5
8C0
330
18
100
AcDbEntity
  8
OUTV
100
AcDbLine
 10
926.8514269318114
 20
310.4887202576233
 30
0.0
 11
926.8514269318114
 21
356.7342507059345
 31
0.0
  0
LINE
  5
8C1
330
18
100
AcDbEntity
  8
OUTV
100
AcDbLine
 10
930.8514269318114
 20
356.7342507059345
 30
0.0
 11
930.8514269318114
 21
310.4887202576233
 31
0.0
  0
LINE
  5
8C2
330
18
100
AcDbEntity
  8
OUTV
100
AcDbLine
 10
984.8514269318114
 20
373.7342507059328
 30
0.0
 11
984.8514269318114
 21
294.7342507059324
 31
0.0
  0
LINE
  5
8C3
330
18
100
AcDbEntity
  8
OUTV
100
AcDbLine
 10
738.8514269318111
 20
373.7342507059344
 30
0.0
 11
738.8514269318111
 21
294.7342507059324
 31
0.0
  0
LINE
  5
8C4
330
18
100
AcDbEntity
  8
OUTV
100
AcDbLine
 10
1018.85142693181
 20
294.7342507059324
 30
0.0
 11
710.3514269318111
 21
294.7342507059324
 31
0.0
  0
LINE
  5
8C5
330
18
100
AcDbEntity
  8
OUTV
100
AcDbLine
 10
708.3514269318109
 20
239.2342507059345
 30
0.0
 11
1018.85142693181
 21
239.2342507059344
 31
0.0
  0
LINE
  5
8C6
330
18
100
AcDbEntity
  8
OUTV
100
AcDbLine
 10
960.8514269318105
 20
211.7342507059345
 30
0.0
 11
1018.85142693181
 21
211.7342507059345
 31
0.0
  0
LINE
  5
8C7
330
18
100
AcDbEntity
  8
OUTV
100
AcDbLine
 10
766.8514269318121
 20
213.7342507059345
 30
0.0
 11
958.8514269318105
 21
213.7342507059345
 31
0.0
  0
LINE
  5
8C8
330
18
100
AcDbEntity
  8
OUTV
100
AcDbLine
 10
738.4021381088523
 20
191.7342507059346
 30
0.0
 11
742.8514269318111
 21
211.7342507059345
 31
0.0
  0
LINE
  5
8C9
330
18
100
AcDbEntity
  8
OUTV
100
AcDbLine
 10
715.30071575477
 20
191.7342507059346
 30
0.0
 11
738.4021381088523
 21
191.7342507059346
 31
0.0
  0
LINE
  5
8CA
330
18
100
AcDbEntity
  8
OUTV
100
AcDbLine
 10
710.8514269318111
 20
211.7342507059345
 30
0.0
 11
715.30071575477
 21
191.7342507059346
 31
0.0
  0
LINE
  5
8CB
330
18
100
AcDbEntity
  8
OUTV
100
AcDbLine
 10
766.8514269318111
 20
198.7342507059345
 30
0.0
 11
766.8514269318121
 21
213.7342507059345
 31
0.0
  0
LINE
  5
8CC
330
18
100
AcDbEntity
  8
OUTV
100
AcDbLine
 10
764.8514269318111
 20
198.7342507059345
 30
0.0
 11
766.8514269318111
 21
198.7342507059345
 31
0.0
  0
LINE
  5
8CD
330
18
100
AcDbEntity
  8
OUTV
100
AcDbLine
 10
764.8514269318111
 20
211.7342507059345
 30
0.0
 11
764.8514269318111
 21
198.7342507059345
 31
0.0
  0
LINE
  5
8CE
330
18
100
AcDbEntity
  8
OUTV
100
AcDbLine
 10
716.8514269318111
 20
310.7342507059345
 30
0.0
 11
716.8514269318111
 21
294.7342507059324
 31
0.0
  0
LINE
  5
8CF
330
18
100
AcDbEntity
  8
OUTV
100
AcDbLine
 10
792.8514269318114
 20
310.4887202576233
 30
0.0
 11
796.8514269318114
 21
310.4887202576233
 31
0.0
  0
LINE
  5
8D0
330
18
100
AcDbEntity
  8
OUTV
100
AcDbLine
 10
960.8514269318105
 20
198.7342507059346
 30
0.0
 11
960.8514269318105
 21
211.7342507059345
 31
0.0
  0
LINE
  5
8D1
330
18
100
AcDbEntity
  8
OUTV
100
AcDbLine
 10
958.8514269318105
 20
198.7342507059346
 30
0.0
 11
960.8514269318105
 21
198.7342507059346
 31
0.0
  0
LINE
  5
8D2
330
18
100
AcDbEntity
  8
OUTV
100
AcDbLine
 10
958.8514269318105
 20
213.7342507059345
 30
0.0
 11
958.8514269318105
 21
198.7342507059346
 31
0.0
  0
LINE
  5
8D3
330
18
100
AcDbEntity
  8
OUTV
100
AcDbLine
 10
930.8514269318114
 20
310.4887202576233
 30
0.0
 11
926.8514269318114
 21
310.4887202576233
 31
0.0
  0
LINE
  5
8D4
330
18
100
AcDbEntity
  8
OUTV
100
AcDbLine
 10
1019.85142693181
 20
214.7342507059346
 30
0.0
 11
1076.85142693181
 21
214.7342507059346
 31
0.0
  0
LINE
  5
8D5
330
18
100
AcDbEntity
  8
OUTV
100
AcDbLine
 10
987.3007157547693
 20
191.7342507059346
 30
0.0
 11
1010.402138108852
 21
191.7342507059346
 31
0.0
  0
LINE
  5
8D6
330
18
100
AcDbEntity
  8
OUTV
100
AcDbLine
 10
982.8514269318105
 20
211.7342507059345
 30
0.0
 11
987.3007157547693
 21
191.7342507059346
 31
0.0
  0
LINE
  5
8D7
330
18
100
AcDbEntity
  8
OUTV
100
AcDbLine
 10
1010.402138108852
 20
191.7342507059346
 30
0.0
 11
1014.85142693181
 21
211.7342507059345
 31
0.0
  0
LINE
  5
8D8
330
18
100
AcDbEntity
  8
OUTV
100
AcDbLine
 10
1060.85142693181
 20
279.7342507059359
 30
0.0
 11
1038.85142693181
 21
279.7342507059359
 31
0.0
  0
LINE
  5
8D9
330
18
100
AcDbEntity
  8
OUTV
100
AcDbLine
 10
1038.85142693181
 20
249.7342507059359
 30
0.0
 11
1060.85142693181
 21
249.7342507059359
 31
0.0
  0
LINE
  5
8DA
330
18
100
AcDbEntity
  8
OUTV
100
AcDbLine
 10
1038.85142693181
 20
279.7342507059359
 30
0.0
 11
1038.85142693181
 21
249.7342507059359
 31
0.0
  0
LINE
  5
8DB
330
18
100
AcDbEntity
  8
OUTV
100
AcDbLine
 10
1018.85142693181
 20
239.2342507059344
 30
0.0
 11
1018.85142693181
 21
294.7342507059324
 31
0.0
  0
LINE
  5
8DC
330
18
100
AcDbEntity
  8
OUTV
100
AcDbLine
 10
1018.85142693181
 20
310.7342507059344
 30
0.0
 11
1008.85142693181
 21
310.7342507059344
 31
0.0
  0
LINE
  5
8DD
330
18
100
AcDbEntity
  8
OUTV
100
AcDbLine
 10
1008.85142693181
 20
310.7342507059344
 30
0.0
 11
1008.85142693181
 21
294.7342507059324
 31
0.0
  0
LINE
  5
8DE
330
18
100
AcDbEntity
  8
OUTV
100
AcDbLine
 10
1060.85142693181
 20
249.7342507059359
 30
0.0
 11
1060.85142693181
 21
279.7342507059359
 31
0.0
  0
LINE
  5
8DF
330
18
100
AcDbEntity
  8
OUTV
100
AcDbLine
 10
720.3514269318108
 20
431.1328631176228
 30
0.0
 11
1003.351426931811
 21
431.1328631176228
 31
0.0
  0
LINE
  5
8E0
330
18
100
AcDbEntity
  8
OUTV
100
AcDbLine
 10
1016.85142693181
 20
389.7342507059343
 30
0.0
 11
716.8514269318111
 21
389.7342507059344
 31
0.0
  0
LINE
  5
8E1
330
18
100
AcDbEntity
  8
OUTV
100
AcDbLine
 10
716.8514269318111
 20
413.7342507059342
 30
0.0
 11
1016.85142693181
 21
413.7342507059342
 31
0.0
  0
LINE
  5
8E2
330
18
100
AcDbEntity
  8
OUTV
100
AcDbLine
 10
738.8514269318111
 20
363.7342507059344
 30
0.0
 11
984.8514269318114
 21
363.7342507059344
 31
0.0
  0
LINE
  5
8E3
330
18
100
AcDbEntity
  8
OUTV
100
AcDbLine
 10
738.8514269318111
 20
373.7342507059344
 30
0.0
 11
984.8514269318114
 21
373.7342507059328
 31
0.0
  0
LINE
  5
8E4
330
18
100
AcDbEntity
  8
OUTV
100
AcDbLine
 10
1018.851426931812
 20
578.7342507059358
 30
0.0
 11
709.8514269318129
 21
578.7342507059358
 31
0.0
  0
LINE
  5
8E5
330
18
100
AcDbEntity
  8
OUTV
100
AcDbLine
 10
1018.85142693181
 20
564.7342507059359
 30
0.0
 11
709.8514269318131
 21
564.7342507059359
 31
0.0
  0
LINE
  5
8E6
330
18
100
AcDbEntity
  8
OUTV
100
AcDbLine
 10
796.8514269318114
 20
336.7342507059345
 30
0.0
 11
861.8514269318116
 21
336.7342507059345
 31
0.0
  0
LINE
  5
8E7
330
18
100
AcDbEntity
  8
OUTV
100
AcDbLine
 10
926.8514269318114
 20
356.7342507059345
 30
0.0
 11
796.8514269318114
 21
356.7342507059345
 31
0.0
  0
LINE
  5
8E8
330
18
100
AcDbEntity
  8
OUTV
100
AcDbLine
 10
720.3514269318107
 20
484.7342507059359
 30
0.0
 11
720.3514269318108
 21
413.7342507059342
 31
0.0
  0
LINE
  5
8E9
330
18
100
AcDbEntity
  8
OUTV
100
AcDbLine
 10
796.8514269318114
 20
356.7342507059345
 30
0.0
 11
792.8514269318114
 21
356.7342507059345
 31
0.0
  0
LINE
  5
8EA
330
18
100
AcDbEntity
  8
OUTV
100
AcDbLine
 10
796.8514269318114
 20
356.7342507059345
 30
0.0
 11
796.8514269318114
 21
336.7342507059345
 31
0.0
  0
LINE
  5
8EB
330
18
100
AcDbEntity
  8
OUTV
100
AcDbLine
 10
861.8514269318114
 20
336.7342507059345
 30
0.0
 11
926.8514269318114
 21
336.7342507059345
 31
0.0
  0
LINE
  5
8EC
330
18
100
AcDbEntity
  8
OUTV
100
AcDbLine
 10
926.8514269318114
 20
356.7342507059345
 30
0.0
 11
930.8514269318114
 21
356.7342507059345
 31
0.0
  0
LINE
  5
8ED
330
18
100
AcDbEntity
  8
OUTV
100
AcDbLine
 10
926.8514269318114
 20
336.7342507059345
 30
0.0
 11
926.8514269318114
 21
356.7342507059345
 31
0.0
  0
LINE
  5
8EE
330
18
100
AcDbEntity
  8
OUTV
100
AcDbLine
 10
771.7936865943328
 20
707.7342085118114
 30
0.0
 11
951.8514269318114
 21
707.7342085118114
 31
0.0
  0
LINE
  5
8EF
330
18
100
AcDbEntity
  8
OUTV
100
AcDbLine
 10
951.8514269318114
 20
609.7342507059359
 30
0.0
 11
771.8448674348092
 21
609.7342507059359
 31
0.0
  0
ARC
  5
8F0
330
18
100
AcDbEntity
  8
OUTV
100
AcDbCircle
 10
771.8448674348092
 20
619.7342507059359
 30
0.0
 40
10.0
100
AcDbArc
 50
180.0375954784176
 51
270.0
  0
LINE
  5
8F1
330
18
100
AcDbEntity
  8
OUTV
100
AcDbLine
 10
761.8448695875709
 20
619.727689057584
 30
0.0
 11
761.7936887470945
 21
697.7276468634595
 31
0.0
  0
ARC
  5
8F2
330
18
100
AcDbEntity
  8
OUTV
100
AcDbCircle
 10
771.7936865943328
 20
697.7342085118114
 30
0.0
 40
10.0
100
AcDbArc
 50
90.0
 51
180.0375954784176
  0
ARC
  5
8F3
330
18
100
AcDbEntity
  8
OUTV
100
AcDbCircle
 10
951.8514269318114
 20
619.7342507059359
 30
0.0
 40
10.0
100
AcDbArc
 50
270.0
 51
0.0
  0
LINE
  5
8F4
330
18
100
AcDbEntity
  8
OUTV
100
AcDbLine
 10
961.8514269318114
 20
697.7342085118114
 30
0.0
 11
961.8514269318114
 21
619.7342507059359
 31
0.0
  0
ARC
  5
8F5
330
18
100
AcDbEntity
  8
OUTV
100
AcDbCircle
 10
951.8514269318114
 20
697.7342085118114
 30
0.0
 40
10.0
100
AcDbArc
 50
0.0
 51
90.0
  0
LINE
  5
8F6
330
18
100
AcDbEntity
  8
OUTV
100
AcDbLine
 10
1038.85142693181
 20
534.7342507059358
 30
0.0
 11
1038.85142693181
 21
504.7342507059358
 31
0.0
  0
LINE
  5
8F7
330
18
100
AcDbEntity
  8
OUTV
100
AcDbLine
 10
1060.85142693181
 20
504.7342507059358
 30
0.0
 11
1060.85142693181
 21
534.7342507059359
 31
0.0
  0
LINE
  5
8F8
330
18
100
AcDbEntity
  8
OUTV
100
AcDbLine
 10
1018.85142693181
 20
484.7342507059359
 30
0.0
 11
1018.851426931812
 21
564.7342507059359
 31
0.0
  0
LINE
  5
8F9
330
18
100
AcDbEntity
  8
OUTV
100
AcDbLine
 10
1018.851426931812
 20
564.7342507059359
 30
0.0
 11
1018.85142693181
 21
484.7342507059359
 31
0.0
  0
LINE
  5
8FA
330
18
100
AcDbEntity
  8
OUTV
100
AcDbLine
 10
1003.351426931811
 20
484.7342507059359
 30
0.0
 11
1003.351426931811
 21
413.7342507059344
 31
0.0
  0
LINE
  5
8FB
330
18
100
AcDbEntity
  8
OUTV
100
AcDbLine
 10
1007.35142693181
 20
484.7342507059359
 30
0.0
 11
1007.351426931811
 21
413.7342507059344
 31
0.0
  0
CIRCLE
  5
8FC
330
18
100
AcDbEntity
  8
OUTV
100
AcDbCircle
 10
1049.85142693181
 20
399.7342507059359
 30
0.0
 40
12.5
  0
LINE
  5
8FD
330
18
100
AcDbEntity
  8
OUTV
100
AcDbLine
 10
1016.85142693181
 20
413.7342507059342
 30
0.0
 11
1016.85142693181
 21
389.7342507059343
 31
0.0
  0
CIRCLE
  5
8FE
330
18
100
AcDbEntity
  8
OUTV
100
AcDbCircle
 10
1049.85142693181
 20
459.7342507059359
 30
0.0
 40
10.0
  0
LINE
  5
8FF
330
18
100
AcDbEntity
  8
OUTV
100
AcDbLine
 10
1038.85142693181
 20
504.7342507059358
 30
0.0
 11
1060.85142693181
 21
504.7342507059358
 31
0.0
  0
ARC
  5
900
330
18
100
AcDbEntity
  8
OUTV
100
AcDbCircle
 10
1013.85142693181
 20
489.7342507059359
 30
0.0
 40
5.0
100
AcDbArc
 50
270.0
 51
0.0
  0
LINE
  5
901
330
18
100
AcDbEntity
  8
OUTV
100
AcDbLine
 10
1060.85142693181
 20
534.7342507059359
 30
0.0
 11
1038.85142693181
 21
534.7342507059358
 31
0.0
  0
LINE
  5
902
330
18
100
AcDbEntity
  8
OUTV
100
AcDbLine
 10
1076.851426931811
 20
579.7342507059359
 30
0.0
 11
1018.85142693181
 21
579.7342507059359
 31
0.0
  0
LINE
  5
903
330
18
100
AcDbEntity
  8
OUTV
100
AcDbLine
 10
1075.85142693181
 20
579.7342507059359
 30
0.0
 11
1018.85142693181
 21
579.7342507059359
 31
0.0
  0
LINE
  5
904
330
18
100
AcDbEntity
  8
OUTV
100
AcDbLine
 10
1018.85142693181
 20
579.7342507059359
 30
0.0
 11
1018.85142693181
 21
564.7342507059359
 31
0.0
  0
LINE
  5
905
330
18
100
AcDbEntity
  8
OUTV
100
AcDbLine
 10
1018.85142693181
 20
578.7342507059358
 30
0.0
 11
1017.85142693181
 21
578.7342507059358
 31
0.0
  0
LINE
  5
906
330
18
100
AcDbEntity
  8
OUTV
100
AcDbLine
 10
707.8514269318127
 20
734.7342507059345
 30
0.0
 11
1017.85142693181
 21
734.7342507059345
 31
0.0
  0
LINE
  5
907
330
18
100
AcDbEntity
  8
OUTV
100
AcDbLine
 10
1018.851426931811
 20
735.7342507059345
 30
0.0
 11
707.8514269318127
 21
735.7342507059345
 31
0.0
  0
LINE
  5
908
330
18
100
AcDbEntity
  8
OUTV
100
AcDbLine
 10
707.8514269318127
 20
735.7342507059345
 30
0.0
 11
707.8514269318127
 21
734.7342507059345
 31
0.0
  0
LINE
  5
909
330
18
100
AcDbEntity
  8
OUTV
100
AcDbLine
 10
1026.851426931812
 20
735.7342507059345
 30
0.0
 11
1026.851426931812
 21
736.9342507059346
 31
0.0
  0
LINE
  5
90A
330
18
100
AcDbEntity
  8
OUTV
100
AcDbLine
 10
1018.851426931811
 20
735.7342507059345
 30
0.0
 11
1026.851426931812
 21
735.7342507059345
 31
0.0
  0
LINE
  5
90B
330
18
100
AcDbEntity
  8
OUTV
100
AcDbLine
 10
1031.851426931812
 20
736.9342507059346
 30
0.0
 11
1026.851426931812
 21
736.9342507059346
 31
0.0
  0
LINE
  5
90C
330
18
100
AcDbEntity
  8
OUTV
100
AcDbLine
 10
1031.851426931812
 20
736.9342507059346
 30
0.0
 11
1031.851426931812
 21
739.9342507059346
 31
0.0
  0
DIMENSION
  5
923
330
18
100
AcDbEntity
  8
外形寸法
100
AcDbDimension
280
     0
  2
*D4
 10
516.7486477394893
 20
65.67332641748999
 30
0.0
 11
224.2473815341752
 21
81.67332641748999
 31
0.0
 70
    32
  1
590
 71
     5
 42
585.0025324106282
 73
     0
 74
     0
 75
     0
  3
STANDARD$0
100
AcDbAlignedDimension
 13
-68.25388467113888
 23
239.3450305115994
 33
0.0
 14
516.7486477394893
 24
229.2342507059226
 34
0.0
100
AcDbRotatedDimension
1001
ACAD
1000
DSTYLE
1002
{
1070
    40
1040
1.0
1002
}
  0
DIMENSION
  5
932
330
18
100
AcDbEntity
  8
外形寸法
100
AcDbDimension
280
     0
  2
*D5
 10
626.7486477394893
 20
65.67332641748999
 30
0.0
 11
571.7486477394893
 21
81.67332641748999
 31
0.0
 70
    32
 71
     5
 42
110.0
 73
     0
 74
     0
 75
     0
  3
STANDARD$0
100
AcDbAlignedDimension
 13
516.7486477394893
 23
152.5091784645447
 33
0.0
 14
626.7486477394893
 24
376.0684521318301
 34
0.0
100
AcDbRotatedDimension
1001
ACAD
1000
DSTYLE
1002
{
1070
    40
1040
1.0
1002
}
  0
DIMENSION
  5
93F
330
18
100
AcDbEntity
  8
外形寸法
100
AcDbDimension
280
     0
  2
*D6
 10
1076.85142693181
 20
65.67332641748999
 30
0.0
 11
886.8514269318108
 21
81.67332641748999
 31
0.0
 70
    32
 71
     5
 42
379.9999999999993
 73
     0
 74
     0
 75
     0
  3
STANDARD$0
100
AcDbAlignedDimension
 13
696.8514269318111
 23
504.7342507059359
 33
0.0
 14
1076.85142693181
 24
337.3855103838569
 34
0.0
100
AcDbRotatedDimension
1001
ACAD
1000
DSTYLE
1002
{
1070
    40
1040
1.0
1002
}
  0
DIMENSION
  5
94C
330
18
100
AcDbEntity
  8
外形寸法
100
AcDbDimension
280
     0
  2
*D7
 10
691.8514269318116
 20
886.4121904160897
 30
0.0
 11
862.2433457909647
 21
886.4121904160897
 31
0.0
 70
   160
 71
     5
 42
340.0
 73
     0
 74
     0
 75
     0
  3
STANDARD$0
100
AcDbAlignedDimension
 13
1031.851426931812
 23
739.9342507059346
 33
0.0
 14
691.8514269318116
 24
739.9342507059346
 34
0.0
100
AcDbRotatedDimension
1001
ACAD
1000
DSTYLE
1002
{
1070
    40
1040
1.0
1002
}
  0
DIMENSION
  5
96B
330
18
100
AcDbEntity
  8
外形寸法
100
AcDbDimension
280
     0
  2
*D8
 10
1193.027183509273
 20
191.7342507059346
 30
0.0
 11
1177.027183509273
 21
385.7342507059353
 31
0.0
 70
    32
  1
400
 71
     5
 42
388.0000000000013
 73
     0
 74
     0
 75
     0
  3
STANDARD$0
100
AcDbAlignedDimension
 13
1076.851426931811
 23
579.7342507059359
 33
0.0
 14
1010.402138108852
 24
191.7342507059346
 34
0.0
 50
90.0
100
AcDbRotatedDimension
1001
ACAD
1000
DSTYLE
1002
{
1070
    40
1040
1.0
1002
}
  0
DIMENSION
  5
978
330
18
100
AcDbEntity
  8
外形寸法
100
AcDbDimension
280
     0
  2
*D9
 10
1193.027183509273
 20
739.7342507059373
 30
0.0
 11
1177.027183509273
 21
659.7342507059374
 31
0.0
 70
    32
 71
     5
 42
160.0
 73
     0
 74
     0
 75
     0
  3
STANDARD$0
100
AcDbAlignedDimension
 13
1018.851426931812
 23
579.7342507059373
 33
0.0
 14
1018.851426931812
 24
739.7342507059373
 34
0.0
 50
90.0
100
AcDbRotatedDimension
1001
ACAD
1000
DSTYLE
1002
{
1070
    40
1040
1.0
1002
}
  0
DIMENSION
  5
985
330
18
100
AcDbEntity
  8
外形寸法
100
AcDbDimension
280
     0
  2
*D10
 10
346.7152936759857
 20
821.9855903932362
 30
0.0
 11
138.6319707077375
 21
837.9855903932362
 31
0.0
 70
    32
  1
416
 71
     5
 42
416.1666459364964
 73
     0
 74
     0
 75
     0
  3
STANDARD$0
100
AcDbAlignedDimension
 13
-69.45135226051065
 23
739.9342507059346
 33
0.0
 14
346.7152936759857
 24
736.3918136608215
 34
0.0
100
AcDbRotatedDimension
1001
ACAD
1000
DSTYLE
1002
{
1070
   284
1070
     9
1070
    40
1040
1.0
1002
}
  0
DIMENSION
  5
992
330
18
100
AcDbEntity
  8
外形寸法
100
AcDbDimension
280
     0
  2
*D11
 10
-68.25135226051032
 20
1337.398390576065
 30
0.0
 11
155.7486477394898
 21
1353.398390576065
 31
0.0
 70
    32
  1
453
 71
     5
 42
448.0000000000002
 73
     0
 74
     0
 75
     0
  3
STANDARD$0
100
AcDbAlignedDimension
 13
379.7486477394899
 23
1276.020286390542
 33
0.0
 14
-68.25135226051032
 24
1276.020286390606
 34
0.0
100
AcDbRotatedDimension
1001
ACAD
1000
DSTYLE
1002
{
1070
    40
1040
1.0
1002
}
  0
DIMENSION
  5
99F
330
18
100
AcDbEntity
  8
外形寸法
100
AcDbDimension
280
     0
  2
*D12
 10
516.7486477394896
 20
1337.398390576065
 30
0.0
 11
448.2486477394897
 21
1353.398390576065
 31
0.0
 70
    32
 71
     5
 42
136.9999999999997
 73
     0
 74
     0
 75
     0
  3
STANDARD$0
100
AcDbAlignedDimension
 13
379.7486477394899
 23
1276.645286390542
 33
0.0
 14
516.7486477394896
 24
1218.020286390542
 34
0.0
100
AcDbRotatedDimension
1001
ACAD
1000
DSTYLE
1002
{
1070
    40
1040
1.0
1002
}
  0
DIMENSION
  5
9B9
330
18
100
AcDbEntity
  8
外形寸法
100
AcDbDimension
280
     0
  2
*D13
 10
706.8514269318111
 20
823.2355903932362
 30
0.0
 11
862.8514269318109
 21
839.2355903932362
 31
0.0
 70
    32
 71
     5
 42
311.9999999999995
 73
     0
 74
     0
 75
     0
  3
STANDARD$0
100
AcDbAlignedDimension
 13
1018.851426931811
 23
771.5647706191303
 33
0.0
 14
706.8514269318111
 24
690.3312306715748
 34
0.0
100
AcDbRotatedDimension
1001
ACAD
1000
DSTYLE
1002
{
1070
    40
1040
1.0
1002
}
  0
DIMENSION
  5
9CF
330
18
100
AcDbEntity
  8
外形寸法
100
AcDbDimension
280
     0
  2
*D14
 10
-155.3374442793729
 20
1276.020286390542
 30
0.0
 11
-171.3374442793729
 21
1091.020286390542
 31
0.0
 70
    32
  1
380
 71
     5
 42
370.0000000000001
 73
     0
 74
     0
 75
     0
  3
STANDARD$0
100
AcDbAlignedDimension
 13
-68.2513522605106
 23
906.0202863905419
 33
0.0
 14
-29.19106590930733
 24
1276.020286390542
 34
0.0
 50
90.0
100
AcDbRotatedDimension
1001
ACAD
1000
DSTYLE
1002
{
1070
    40
1040
1.0
1002
}
  0
DIMENSION
  5
9DC
330
18
100
AcDbEntity
  8
外形寸法
100
AcDbDimension
280
     0
  2
*D15
 10
-155.337444279373
 20
741.7342507059345
 30
0.0
 11
-171.337444279373
 21
466.7342507059346
 31
0.0
 70
    32
  1
560
 71
     5
 42
549.9999999999999
 73
     0
 74
     0
 75
     0
  3
STANDARD$0
100
AcDbAlignedDimension
 13
-31.70064108346929
 23
191.7342507059346
 33
0.0
 14
-31.70064108346926
 24
741.7342507059345
 34
0.0
 50
90.0
100
AcDbRotatedDimension
1001
ACAD
1000
DSTYLE
1002
{
1070
    40
1040
1.0
1002
}
  0
DIMENSION
  5
A17
330
18
100
AcDbEntity
  8
外形寸法
100
AcDbDimension
280
     0
  2
*D16
 10
1018.85142693181
 20
824.786746442986
 30
0.0
 11
1129.851426931811
 21
824.786746442986
 31
0.0
 70
   160
 71
     5
 42
58.00000000000023
 73
     0
 74
     0
 75
     0
  3
STANDARD$0
100
AcDbAlignedDimension
 13
1076.851426931811
 23
541.8699346514159
 33
0.0
 14
1018.85142693181
 24
662.3196665478745
 34
0.0
100
AcDbRotatedDimension
1001
ACAD
1000
DSTYLE
1002
{
1070
    40
1040
1.0
1002
}
  0
LINE
  5
AAA
330
18
100
AcDbEntity
  8
外形
100
AcDbLine
 10
381.7486477394896
 20
906.0202863905416
 30
0.0
 11
381.7486477394899
 21
1218.020286390542
 31
0.0
  0
LINE
  5
AAB
330
18
100
AcDbEntity
  8
外形
100
AcDbLine
 10
346.7152936759857
 20
906.0202863905417
 30
0.0
 11
346.7152936759857
 21
1218.020286390542
 31
0.0
  0
VIEWPORT
  5
680
330
15
100
AcDbEntity
 67
     1
  8
0
100
AcDbViewport
 10
600.7739164570272
 20
395.0501864210713
 30
0.0
 40
1625.950597445461
 41
924.1514079497708
 68
     2
 69
     1
 12
600.7739164570272
 22
395.0501864210713
 13
0.0
 23
0.0
 14
10.0
 24
10.0
 15
10.0
 25
10.0
 16
0.0
 26
0.0
 36
1.0
 17
0.0
 27
0.0
 37
0.0
 42
50.0
 43
0.0
 44
0.0
 45
924.1514079497708
 50
0.0
 51
0.0
 72
   100
 90
    32800
  1

281
     0
 71
     1
 74
     0
110
0.0
120
0.0
130
0.0
111
1.0
121
0.0
131
0.0
112
0.0
122
1.0
132
0.0
 79
     0
146
0.0
170
     0
 61
     5
348
A6C
292
     1
282
     1
141
0.0
142
0.0
 63
   256
361
AAC
  0
VIEWPORT
  5
682
330
15
100
AcDbEntity
 67
     1
  8
外形
100
AcDbViewport
 10
586.8893333912449
 20
407.3460013725003
 30
0.0
 40
1169.569056101565
 41
815.2352352746775
 68
     1
 69
     2
 12
623.1989428951126
 22
776.5752596337381
 13
0.0
 23
0.0
 14
10.0
 24
10.0
 15
10.0
 25
10.0
 16
0.0
 26
0.0
 36
1.0
 17
305.0254672699339
 27
-40.00333996982749
 37
0.0
 42
50.0
 43
0.0
 44
0.0
 45
1788.697653134619
 50
0.0
 51
0.0
 72
   100
 90
    32816
  1

281
     0
 71
     1
 74
     0
110
0.0
120
0.0
130
0.0
111
1.0
121
0.0
131
0.0
112
0.0
122
1.0
132
0.0
 79
     0
146
0.0
170
     0
 61
     5
348
A6C
292
     1
282
     1
141
0.0
142
0.0
 63
   256
361
AAD
  0
ENDSEC
  0
SECTION
  2
OBJECTS
  0
DICTIONARY
  5
C
330
0
100
AcDbDictionary
281
     1
  3
ACAD_DETAILVIEWSTYLE
350
A90
  3
ACAD_GROUP
350
D
  3
ACAD_IMAGE_VARS
350
A7B
  3
ACAD_LAYOUT
350
B8
  3
ACAD_MATERIAL
350
A63
  3
ACAD_MLEADERSTYLE
350
A7F
  3
ACAD_MLINESTYLE
350
1B
  3
ACAD_PLOTSETTINGS
350
B9
  3
ACAD_PLOTSTYLENAME
350
B6
  3
ACAD_SCALELIST
350
A41
  3
ACAD_SECTIONVIEWSTYLE
350
A91
  3
ACAD_TABLESTYLE
350
A78
  3
ACAD_VISUALSTYLE
350
A67
  3
ACDB_RECOMPOSE_DATA
350
AC5
  3
AcDbVariableDictionary
350
A7C
  3
APPDATA
350
A7A
  3
CONTENTDICTIONARY
350
8C
  3
DRAWINGVARIABLESDICT
350
4A
  0
SUN
  5
A8B
330
A40
100
AcDbSun
 90
        1
290
     0
 63
     7
421
 16777215
 40
1.0
291
     1
 91
  2455826
 92
 54000000
292
     0
 70
     2
 71
   256
280
     1
  0
DICTIONARY
  5
AA5
330
2
100
AcDbDictionary
280
     1
281
     1
  3
ACAD_LAYERSTATES
360
AA6
  3
ACLYDICTIONARY
360
AA8
  0
SUN
  5
AAC
330
680
100
AcDbSun
 90
        1
290
     0
 63
     7
421
 16777215
 40
1.0
291
     1
 91
  2455826
 92
 54000000
292
     0
 70
     2
 71
   256
280
     1
  0
SUN
  5
AAD
330
682
100
AcDbSun
 90
        1
290
     0
 63
     7
421
 16777215
 40
1.0
291
     1
 91
  2455826
 92
 54000000
292
     0
 70
     2
 71
   256
280
     1
  0
DICTIONARY
  5
A90
102
{ACAD_REACTORS
330
C
102
}
330
C
100
AcDbDictionary
281
     1
  0
DICTIONARY
  5
D
102
{ACAD_REACTORS
330
C
102
}
330
C
100
AcDbDictionary
281
     1
  0
RASTERVARIABLES
  5
A7B
102
{ACAD_REACTORS
330
C
102
}
330
C
100
AcDbRasterVariables
 90
        0
 70
     1
 71
     1
 72
     0
  0
DICTIONARY
  5
B8
102
{ACAD_REACTORS
330
C
102
}
330
C
100
AcDbDictionary
281
     1
  3
Model
350
BA
  3
ﾚｲｱｳﾄ1
350
BB
  0
DICTIONARY
  5
A63
102
{ACAD_REACTORS
330
C
102
}
330
C
100
AcDbDictionary
281
     1
  3
ByBlock
350
A65
  3
ByLayer
350
A64
  3
Global
350
A66
  0
DICTIONARY
  5
A7F
102
{ACAD_REACTORS
330
C
102
}
330
C
100
AcDbDictionary
281
     1
  3
Standard
350
A8A
  0
DICTIONARY
  5
1B
102
{ACAD_REACTORS
330
C
102
}
330
C
100
AcDbDictionary
281
     1
  3
STANDARD
350
1C
  0
DICTIONARY
  5
B9
102
{ACAD_REACTORS
330
C
102
}
330
C
100
AcDbDictionary
281
     1
  0
ACDBDICTIONARYWDFLT
  5
B6
102
{ACAD_REACTORS
330
C
102
}
330
C
100
AcDbDictionary
281
     1
  3
Normal
350
B7
100
AcDbDictionaryWithDefault
340
B7
  0
DICTIONARY
  5
A41
102
{ACAD_REACTORS
330
C
102
}
330
C
100
AcDbDictionary
281
     1
  3
A0
350
A42
  3
A1
350
A43
  3
A2
350
A44
  3
A3
350
A45
  3
A4
350
A46
  3
A5
350
A47
  3
A6
350
A48
  3
A7
350
A49
  3
A8
350
A4A
  3
A9
350
A4B
  3
B0
350
A4C
  3
B1
350
A4D
  3
B2
350
A4E
  3
B3
350
A4F
  3
B4
350
A50
  3
B5
350
A51
  3
B6
350
A52
  3
B7
350
A53
  3
B8
350
A54
  3
B9
350
A55
  3
C0
350
A56
  3
C1
350
A57
  3
C2
350
A58
  3
C3
350
A59
  3
C4
350
A5A
  3
C5
350
A5B
  3
C6
350
A5C
  3
C7
350
A5D
  3
C8
350
A5E
  3
C9
350
A5F
  3
D0
350
A60
  3
D1
350
A61
  3
D2
350
A62
  0
DICTIONARY
  5
A91
102
{ACAD_REACTORS
330
C
102
}
330
C
100
AcDbDictionary
281
     1
  0
DICTIONARY
  5
A78
102
{ACAD_REACTORS
330
C
102
}
330
C
100
AcDbDictionary
281
     1
  3
Standard
350
A79
  0
DICTIONARY
  5
A67
102
{ACAD_REACTORS
330
C
102
}
330
C
100
AcDbDictionary
281
     1
  3
2dWireframe
350
A6C
  3
3D Hidden
350
A6E
  3
3dWireframe
350
A6D
  3
Basic
350
A6F
  3
Brighten
350
A73
  3
ColorChange
350
A77
  3
Conceptual
350
A71
  3
Dim
350
A72
  3
EdgeColorOff
350
A84
  3
Facepattern
350
A76
  3
Flat
350
A68
  3
FlatWithEdges
350
A69
  3
Gouraud
350
A6A
  3
GouraudWithEdges
350
A6B
  3
Hidden
350
A81
  3
JitterOff
350
A82
  3
Linepattern
350
A75
  3
OverhangOff
350
A83
  3
Realistic
350
A70
  3
Shaded
350
A89
  3
Shaded with edges
350
A88
  3
Shades of Gray
350
A85
  3
Sketchy
350
A86
  3
Thicken
350
A74
  3
Wireframe
350
A80
  3
X-Ray
350
A87
  0
XRECORD
  5
AC5
102
{ACAD_REACTORS
330
C
102
}
330
C
100
AcDbXrecord
280
     1
 90
        1
330
A79
  0
DICTIONARY
  5
A7C
102
{ACAD_REACTORS
330
C
102
}
330
C
100
AcDbDictionary
281
     1
  3
CANNOSCALE
350
A7D
  3
CMLEADERSTYLE
350
A8F
  3
CTABLESTYLE
350
A7E
  0
DICTIONARY
  5
A7A
102
{ACAD_REACTORS
330
C
102
}
330
C
100
AcDbDictionary
281
     1
  0
DICTIONARY
  5
8C
102
{ACAD_REACTORS
330
C
102
}
330
C
100
AcDbDictionary
281
     1
  0
DICTIONARY
  5
4A
102
{ACAD_REACTORS
330
C
102
}
330
C
100
AcDbDictionary
281
     1
1001
DRAWINGVARIABLESXDATA
1000
POLARMODE
1000
3
  0
DICTIONARY
  5
AA6
102
{ACAD_REACTORS
330
AA5
102
}
330
AA5
100
AcDbDictionary
281
     1
  3
ARGON_LAYERP_2
350
AA9
  0
DICTIONARY
  5
AA8
102
{ACAD_REACTORS
330
AA5
102
}
330
AA5
100
AcDbDictionary
281
     1
1001
ACAD
1000
<All
  0
LAYOUT
  5
BA
102
{ACAD_REACTORS
330
B8
102
}
330
B8
100
AcDbPlotSettings
  1

  2
Canon BJ S6300
  4
A4
  6

 40
4.222749710083008
 41
5.831412315368652
 42
4.222747802734375
 43
3.799407958984375
 44
209.9733276367188
 45
296.9683227539062
 46
10.0
 47
5.0
 48
0.0
 49
0.0
140
0.0
141
0.0
142
1.0
143
8.6
 70
 11936
 72
     1
 73
     1
 74
     1
  7
AMC.ctb
 75
     0
 76
     0
 77
     2
 78
   300
147
0.1162790697674419
148
274.0190673567581
149
33.85744716713725
100
AcDbLayout
  1
Model
 70
     1
 71
     0
 10
0.0
 20
0.0
 11
12.0
 21
9.0
 12
0.0
 22
0.0
 32
0.0
 14
-273.9145258384506
 24
-33.80802466545856
 34
0.0
 15
2149.833114233192
 25
1506.892867457972
 35
0.0
146
0.0
 13
0.0
 23
0.0
 33
0.0
 16
1.0
 26
0.0
 36
0.0
 17
0.0
 27
1.0
 37
0.0
 76
     0
330
18
331
A40
  0
LAYOUT
  5
BB
102
{ACAD_REACTORS
330
B8
102
}
330
B8
100
AcDbPlotSettings
  1

  2
PDF
  4
ISO_expand_A0_(1189.00_x_841.00_MM)
  6

 40
5.8
 41
5.8
 42
5.8
 43
15.8
 44
1189.0
 45
841.0
 46
0.0
 47
0.0
 48
0.0
 49
0.0
140
0.0
141
0.0
142
1.0
143
1.0
 70
   692
 72
     1
 73
     0
 74
     5
  7
monochrome.ctb
 75
     0
 76
     0
 77
     2
 78
   300
147
1.0
148
0.0
149
0.0
100
AcDbLayout
  1
ﾚｲｱｳﾄ1
 70
     1
 71
     1
 10
-5.8
 20
-5.8
 11
1183.2
 21
835.2
 12
0.0
 22
0.0
 32
0.0
 14
2.104805340462462
 24
-0.2716162648384852
 34
0.0
 15
1143.914298316817
 25
804.2429317415576
 35
0.0
146
0.0
 13
0.0
 23
0.0
 33
0.0
 16
1.0
 26
0.0
 36
0.0
 17
0.0
 27
1.0
 37
0.0
 76
     0
330
15
331
682
  0
MATERIAL
  5
A65
102
{ACAD_REACTORS
330
A63
102
}
330
A63
100
AcDbMaterial
  1
ByBlock
 72
     1
 94
      127
  0
MATERIAL
  5
A64
102
{ACAD_REACTORS
330
A63
102
}
330
A63
100
AcDbMaterial
  1
ByLayer
 72
     1
 94
      127
  0
MATERIAL
  5
A66
102
{ACAD_REACTORS
330
A63
102
}
330
A63
100
AcDbMaterial
  1
Global
 72
     1
 94
      127
  0
MLEADERSTYLE
  5
A8A
102
{ACAD_REACTORS
330
A7F
102
}
330
A7F
100
AcDbMLeaderStyle
179
     2
170
     2
171
     1
172
     0
 90
        2
 40
0.0
 41
0.0
173
     1
 91
-1056964608
340
12
 92
       -2
290
     1
 42
2.0
291
     1
 43
8.0
  3
Standard
341
0
 44
4.0
300

342
F
174
     1
178
     6
175
     1
176
     0
 93
-1056964608
 45
4.0
292
     0
297
     0
 46
4.0
343
0
 94
-1056964608
 47
1.0
 49
1.0
140
1.0
293
     1
141
0.0
294
     1
177
     0
142
1.0
295
     0
296
     0
143
3.75
271
     0
272
     9
273
     9
298
     0
  0
MLINESTYLE
  5
1C
102
{ACAD_REACTORS
330
1B
102
}
330
1B
100
AcDbMlineStyle
  2
STANDARD
 70
     0
  3

 62
   256
 51
90.0
 52
90.0
 71
     2
 49
0.5
 62
   256
  6
BYLAYER
 49
-0.5
 62
   256
  6
BYLAYER
  0
ACDBPLACEHOLDER
  5
B7
102
{ACAD_REACTORS
330
B6
102
}
330
B6
  0
SCALE
  5
A42
102
{ACAD_REACTORS
330
A41
102
}
330
A41
100
AcDbScale
 70
     0
300
1:1
140
1.0
141
1.0
290
     1
  0
SCALE
  5
A43
102
{ACAD_REACTORS
330
A41
102
}
330
A41
100
AcDbScale
 70
     0
300
1:2
140
1.0
141
2.0
290
     0
  0
SCALE
  5
A44
102
{ACAD_REACTORS
330
A41
102
}
330
A41
100
AcDbScale
 70
     0
300
1:4
140
1.0
141
4.0
290
     0
  0
SCALE
  5
A45
102
{ACAD_REACTORS
330
A41
102
}
330
A41
100
AcDbScale
 70
     0
300
1:5
140
1.0
141
5.0
290
     0
  0
SCALE
  5
A46
102
{ACAD_REACTORS
330
A41
102
}
330
A41
100
AcDbScale
 70
     0
300
1:8
140
1.0
141
8.0
290
     0
  0
SCALE
  5
A47
102
{ACAD_REACTORS
330
A41
102
}
330
A41
100
AcDbScale
 70
     0
300
1:10
140
1.0
141
10.0
290
     0
  0
SCALE
  5
A48
102
{ACAD_REACTORS
330
A41
102
}
330
A41
100
AcDbScale
 70
     0
300
1:16
140
1.0
141
16.0
290
     0
  0
SCALE
  5
A49
102
{ACAD_REACTORS
330
A41
102
}
330
A41
100
AcDbScale
 70
     0
300
1:20
140
1.0
141
20.0
290
     0
  0
SCALE
  5
A4A
102
{ACAD_REACTORS
330
A41
102
}
330
A41
100
AcDbScale
 70
     0
300
1:30
140
1.0
141
30.0
290
     0
  0
SCALE
  5
A4B
102
{ACAD_REACTORS
330
A41
102
}
330
A41
100
AcDbScale
 70
     0
300
1:40
140
1.0
141
40.0
290
     0
  0
SCALE
  5
A4C
102
{ACAD_REACTORS
330
A41
102
}
330
A41
100
AcDbScale
 70
     0
300
1:50
140
1.0
141
50.0
290
     0
  0
SCALE
  5
A4D
102
{ACAD_REACTORS
330
A41
102
}
330
A41
100
AcDbScale
 70
     0
300
1:100
140
1.0
141
100.0
290
     0
  0
SCALE
  5
A4E
102
{ACAD_REACTORS
330
A41
102
}
330
A41
100
AcDbScale
 70
     0
300
2:1
140
2.0
141
1.0
290
     0
  0
SCALE
  5
A4F
102
{ACAD_REACTORS
330
A41
102
}
330
A41
100
AcDbScale
 70
     0
300
4:1
140
4.0
141
1.0
290
     0
  0
SCALE
  5
A50
102
{ACAD_REACTORS
330
A41
102
}
330
A41
100
AcDbScale
 70
     0
300
8:1
140
8.0
141
1.0
290
     0
  0
SCALE
  5
A51
102
{ACAD_REACTORS
330
A41
102
}
330
A41
100
AcDbScale
 70
     0
300
10:1
140
10.0
141
1.0
290
     0
  0
SCALE
  5
A52
102
{ACAD_REACTORS
330
A41
102
}
330
A41
100
AcDbScale
 70
     0
300
100:1
140
100.0
141
1.0
290
     0
  0
SCALE
  5
A53
102
{ACAD_REACTORS
330
A41
102
}
330
A41
100
AcDbScale
 70
     0
300
1/128" = 1'-0"
140
0.0078125
141
12.0
290
     0
  0
SCALE
  5
A54
102
{ACAD_REACTORS
330
A41
102
}
330
A41
100
AcDbScale
 70
     0
300
1/64" = 1'-0"
140
0.015625
141
12.0
290
     0
  0
SCALE
  5
A55
102
{ACAD_REACTORS
330
A41
102
}
330
A41
100
AcDbScale
 70
     0
300
1/32" = 1'-0"
140
0.03125
141
12.0
290
     0
  0
SCALE
  5
A56
102
{ACAD_REACTORS
330
A41
102
}
330
A41
100
AcDbScale
 70
     0
300
1/16" = 1'-0"
140
0.0625
141
12.0
290
     0
  0
SCALE
  5
A57
102
{ACAD_REACTORS
330
A41
102
}
330
A41
100
AcDbScale
 70
     0
300
3/32" = 1'-0"
140
0.09375
141
12.0
290
     0
  0
SCALE
  5
A58
102
{ACAD_REACTORS
330
A41
102
}
330
A41
100
AcDbScale
 70
     0
300
1/8" = 1'-0"
140
0.125
141
12.0
290
     0
  0
SCALE
  5
A59
102
{ACAD_REACTORS
330
A41
102
}
330
A41
100
AcDbScale
 70
     0
300
3/16" = 1'-0"
140
0.1875
141
12.0
290
     0
  0
SCALE
  5
A5A
102
{ACAD_REACTORS
330
A41
102
}
330
A41
100
AcDbScale
 70
     0
300
1/4" = 1'-0"
140
0.25
141
12.0
290
     0
  0
SCALE
  5
A5B
102
{ACAD_REACTORS
330
A41
102
}
330
A41
100
AcDbScale
 70
     0
300
3/8" = 1'-0"
140
0.375
141
12.0
290
     0
  0
SCALE
  5
A5C
102
{ACAD_REACTORS
330
A41
102
}
330
A41
100
AcDbScale
 70
     0
300
1/2" = 1'-0"
140
0.5
141
12.0
290
     0
  0
SCALE
  5
A5D
102
{ACAD_REACTORS
330
A41
102
}
330
A41
100
AcDbScale
 70
     0
300
3/4" = 1'-0"
140
0.75
141
12.0
290
     0
  0
SCALE
  5
A5E
102
{ACAD_REACTORS
330
A41
102
}
330
A41
100
AcDbScale
 70
     0
300
1" = 1'-0"
140
1.0
141
12.0
290
     0
  0
SCALE
  5
A5F
102
{ACAD_REACTORS
330
A41
102
}
330
A41
100
AcDbScale
 70
     0
300
1-1/2" = 1'-0"
140
1.5
141
12.0
290
     0
  0
SCALE
  5
A60
102
{ACAD_REACTORS
330
A41
102
}
330
A41
100
AcDbScale
 70
     0
300
3" = 1'-0"
140
3.0
141
12.0
290
     0
  0
SCALE
  5
A61
102
{ACAD_REACTORS
330
A41
102
}
330
A41
100
AcDbScale
 70
     0
300
6" = 1'-0"
140
6.0
141
12.0
290
     0
  0
SCALE
  5
A62
102
{ACAD_REACTORS
330
A41
102
}
330
A41
100
AcDbScale
 70
     0
300
1'-0" = 1'-0"
140
12.0
141
12.0
290
     0
  0
TABLESTYLE
  5
A79
102
{ACAD_REACTORS
330
A78
102
}
102
{ACAD_XDICTIONARY
360
AC3
102
}
330
A78
100
AcDbTableStyle
  3
Standard
 70
     0
 71
     0
 40
1.5
 41
1.5
280
     0
281
     0
  7
STANDARD
140
4.5
170
     2
 62
     0
 63
   257
283
     0
 90
        4
 91
        0
  1

274
    -2
284
     1
 64
     0
275
    -2
285
     1
 65
     0
276
    -2
286
     1
 66
     0
277
    -2
287
     1
 67
     0
278
    -2
288
     1
 68
     0
279
    -2
289
     1
 69
     0
  7
STANDARD
140
6.0
170
     5
 62
     0
 63
   257
283
     0
 90
        4
 91
        0
  1

274
    -2
284
     1
 64
     0
275
    -2
285
     1
 65
     0
276
    -2
286
     1
 66
     0
277
    -2
287
     1
 67
     0
278
    -2
288
     1
 68
     0
279
    -2
289
     1
 69
     0
  7
STANDARD
140
4.5
170
     5
 62
     0
 63
   257
283
     0
 90
        4
 91
        0
  1

274
    -2
284
     1
 64
     0
275
    -2
285
     1
 65
     0
276
    -2
286
     1
 66
     0
277
    -2
287
     1
 67
     0
278
    -2
288
     1
 68
     0
279
    -2
289
     1
 69
     0
  0
VISUALSTYLE
  5
A6C
102
{ACAD_REACTORS
330
A67
102
}
330
A67
100
AcDbVisualStyle
  2
2dWireframe
 70
     4
177
     3
291
     0
 70
    58
 90
        0
176
     1
 90
        2
176
     1
 90
        0
176
     1
 90
        0
176
     1
 40
-0.6
176
     1
 40
-30.0
176
     1
 62
     7
420
 16777215
176
     1
 90
        1
176
     1
 90
        4
176
     1
 62
     7
176
     1
 62
   257
176
     1
 90
        1
176
     1
 90
        1
176
     1
 40
1.0
176
     1
 90
        0
176
     1
 62
   257
176
     1
 40
1.0
176
     1
 90
        1
176
     1
 90
        6
176
     1
 90
        2
176
     1
 62
     7
176
     1
 90
        5
176
     1
 90
        0
176
     1
 90
        0
176
     1
290
     0
176
     1
 90
        1
176
     1
 40
0.0
176
     1
 90
        0
176
     1
290
     1
176
     1
290
     1
176
     1
290
     0
176
     1
290
     0
176
     1
290
     0
176
     1
290
     0
176
     1
290
     0
176
     1
290
     0
176
     1
290
     0
176
     1
 90
       50
176
     1
 40
0.0
176
     1
 40
1.0
176
     1
 90
        0
176
     1
 62
    18
420
        0
176
     1
 90
       50
176
     1
 90
        3
176
     1
 62
     5
420
      255
176
     1
290
     0
176
     1
 90
       50
176
     1
 90
       50
176
     1
 90
       50
176
     1
290
     0
176
     1
 90
       50
176
     1
 62
   256
176
     0
 40
1.0
176
     0
 90
        2
176
     1
  1
strokes_ogs.tif
176
     1
290
     0
176
     1
 40
1.0
176
     1
 40
1.0
176
     1
  0
VISUALSTYLE
  5
A6E
102
{ACAD_REACTORS
330
A67
102
}
330
A67
100
AcDbVisualStyle
  2
3D Hidden
 70
     6
177
     3
291
     0
 70
    58
 90
        1
176
     1
 90
        2
176
     1
 90
        2
176
     1
 90
        0
176
     1
 40
-0.6
176
     1
 40
-30.0
176
     1
 62
     7
420
 16777215
176
     1
 90
        2
176
     1
 90
        2
176
     1
 62
     7
176
     1
 62
   257
176
     1
 90
        2
176
     1
 90
        1
176
     1
 40
40.0
176
     1
 90
        0
176
     1
 62
   257
176
     1
 40
1.0
176
     1
 90
        1
176
     1
 90
        6
176
     1
 90
        2
176
     1
 62
     7
176
     1
 90
        3
176
     1
 90
        0
176
     1
 90
        0
176
     1
290
     0
176
     1
 90
        1
176
     1
 40
0.0
176
     1
 90
        0
176
     1
290
     0
176
     1
290
     1
176
     1
290
     1
176
     1
290
     0
176
     1
290
     0
176
     1
290
     0
176
     1
290
     0
176
     1
290
     0
176
     1
290
     0
176
     1
 90
       50
176
     1
 40
0.0
176
     1
 40
1.0
176
     1
 90
        0
176
     1
 62
    18
420
        0
176
     1
 90
       50
176
     1
 90
        3
176
     1
 62
     5
420
      255
176
     1
290
     0
176
     1
 90
       50
176
     1
 90
       50
176
     1
 90
       50
176
     1
290
     0
176
     1
 90
       50
176
     1
 62
   256
176
     0
 40
1.0
176
     0
 90
        2
176
     1
  1
strokes_ogs.tif
176
     1
290
     0
176
     1
 40
1.0
176
     1
 40
1.0
176
     1
  0
VISUALSTYLE
  5
A6D
102
{ACAD_REACTORS
330
A67
102
}
330
A67
100
AcDbVisualStyle
  2
3dWireframe
 70
     5
177
     3
291
     0
 70
    58
 90
        0
176
     1
 90
        2
176
     1
 90
        0
176
     1
 90
        0
176
     1
 40
-0.6
176
     1
 40
-30.0
176
     1
 62
     7
420
 16777215
176
     1
 90
        1
176
     1
 90
        4
176
     1
 62
     7
176
     1
 62
   257
176
     1
 90
        1
176
     1
 90
        1
176
     1
 40
1.0
176
     1
 90
        0
176
     1
 62
   257
176
     1
 40
1.0
176
     1
 90
        1
176
     1
 90
        6
176
     1
 90
        2
176
     1
 62
     7
176
     1
 90
        5
176
     1
 90
        0
176
     1
 90
        0
176
     1
290
     0
176
     1
 90
        1
176
     1
 40
0.0
176
     1
 90
        0
176
     1
290
     0
176
     1
290
     1
176
     1
290
     1
176
     1
290
     0
176
     1
290
     0
176
     1
290
     0
176
     1
290
     0
176
     1
290
     0
176
     1
290
     0
176
     1
 90
       50
176
     1
 40
0.0
176
     1
 40
1.0
176
     1
 90
        0
176
     1
 62
    18
420
        0
176
     1
 90
       50
176
     1
 90
        3
176
     1
 62
     5
420
      255
176
     1
290
     0
176
     1
 90
       50
176
     1
 90
       50
176
     1
 90
       50
176
     1
290
     0
176
     1
 90
       50
176
     1
 62
   256
176
     0
 40
1.0
176
     0
 90
        2
176
     1
  1
strokes_ogs.tif
176
     1
290
     0
176
     1
 40
1.0
176
     1
 40
1.0
176
     1
  0
VISUALSTYLE
  5
A6F
102
{ACAD_REACTORS
330
A67
102
}
330
A67
100
AcDbVisualStyle
  2
Basic
 70
     7
177
     3
291
     1
 70
    58
 90
        1
176
     1
 90
        0
176
     1
 90
        1
176
     1
 90
        0
176
     1
 40
-0.6
176
     1
 40
-30.0
176
     1
 62
     7
420
 16777215
176
     1
 90
        0
176
     1
 90
        4
176
     1
 62
     7
176
     1
 62
   257
176
     1
 90
        1
176
     1
 90
        1
176
     1
 40
1.0
176
     1
 90
        8
176
     1
 62
     7
176
     1
 40
1.0
176
     1
 90
        1
176
     1
 90
        6
176
     1
 90
        2
176
     1
 62
     7
176
     1
 90
        5
176
     1
 90
        0
176
     1
 90
        0
176
     1
290
     0
176
     1
 90
        1
176
     1
 40
0.0
176
     1
 90
        0
176
     1
290
     0
176
     1
290
     1
176
     1
290
     1
176
     1
290
     0
176
     1
290
     0
176
     1
290
     0
176
     1
290
     0
176
     1
290
     0
176
     1
290
     0
176
     1
 90
       50
176
     1
 40
0.0
176
     1
 40
1.0
176
     1
 90
        0
176
     1
 62
    18
420
        0
176
     1
 90
       50
176
     1
 90
        3
176
     1
 62
     5
420
      255
176
     1
290
     0
176
     1
 90
       50
176
     1
 90
       50
176
     1
 90
       50
176
     1
290
     0
176
     1
 90
       50
176
     1
 62
   256
176
     0
 40
1.0
176
     0
 90
        2
176
     1
  1
strokes_ogs.tif
176
     1
290
     0
176
     1
 40
1.0
176
     1
 40
1.0
176
     1
  0
VISUALSTYLE
  5
A73
102
{ACAD_REACTORS
330
A67
102
}
330
A67
100
AcDbVisualStyle
  2
Brighten
 70
    12
177
     3
291
     1
 70
    58
 90
        2
176
     1
 90
        2
176
     1
 90
        0
176
     1
 90
        0
176
     1
 40
-0.6
176
     1
 40
-30.0
176
     1
 62
     7
420
 16777215
176
     1
 90
        1
176
     1
 90
        4
176
     1
 62
     7
176
     1
 62
   257
176
     1
 90
        1
176
     1
 90
        1
176
     1
 40
1.0
176
     1
 90
        8
176
     1
 62
     7
176
     1
 40
1.0
176
     1
 90
        1
176
     1
 90
        6
176
     1
 90
        2
176
     1
 62
     7
176
     1
 90
        5
176
     1
 90
        0
176
     1
 90
        0
176
     1
290
     0
176
     1
 90
        1
176
     1
 40
50.0
176
     1
 90
        0
176
     1
290
     0
176
     1
290
     1
176
     1
290
     1
176
     1
290
     0
176
     1
290
     0
176
     1
290
     0
176
     1
290
     0
176
     1
290
     0
176
     1
290
     0
176
     1
 90
       50
176
     1
 40
0.0
176
     1
 40
1.0
176
     1
 90
        0
176
     1
 62
    18
420
        0
176
     1
 90
       50
176
     1
 90
        3
176
     1
 62
     5
420
      255
176
     1
290
     0
176
     1
 90
       50
176
     1
 90
       50
176
     1
 90
       50
176
     1
290
     0
176
     1
 90
       50
176
     1
 62
   256
176
     0
 40
1.0
176
     0
 90
        2
176
     1
  1
strokes_ogs.tif
176
     1
290
     0
176
     1
 40
1.0
176
     1
 40
1.0
176
     1
  0
VISUALSTYLE
  5
A77
102
{ACAD_REACTORS
330
A67
102
}
330
A67
100
AcDbVisualStyle
  2
ColorChange
 70
    16
177
     3
291
     1
 70
    58
 90
        2
176
     1
 90
        2
176
     1
 90
        3
176
     1
 90
        0
176
     1
 40
-0.6
176
     1
 40
-30.0
176
     1
 62
     8
420
  8421504
176
     1
 90
        1
176
     1
 90
        4
176
     1
 62
     7
176
     1
 62
   257
176
     1
 90
        1
176
     1
 90
        1
176
     1
 40
1.0
176
     1
 90
        8
176
     1
 62
     8
420
  8421504
176
     1
 40
1.0
176
     1
 90
        1
176
     1
 90
        6
176
     1
 90
        2
176
     1
 62
     7
176
     1
 90
        5
176
     1
 90
        0
176
     1
 90
        0
176
     1
290
     0
176
     1
 90
        1
176
     1
 40
0.0
176
     1
 90
        0
176
     1
290
     0
176
     1
290
     1
176
     1
290
     1
176
     1
290
     0
176
     1
290
     0
176
     1
290
     0
176
     1
290
     0
176
     1
290
     0
176
     1
290
     0
176
     1
 90
       50
176
     1
 40
0.0
176
     1
 40
1.0
176
     1
 90
        0
176
     1
 62
    18
420
        0
176
     1
 90
       50
176
     1
 90
        3
176
     1
 62
     5
420
      255
176
     1
290
     0
176
     1
 90
       50
176
     1
 90
       50
176
     1
 90
       50
176
     1
290
     0
176
     1
 90
       50
176
     1
 62
   256
176
     0
 40
1.0
176
     0
 90
        2
176
     1
  1
strokes_ogs.tif
176
     1
290
     0
176
     1
 40
1.0
176
     1
 40
1.0
176
     1
  0
VISUALSTYLE
  5
A71
102
{ACAD_REACTORS
330
A67
102
}
330
A67
100
AcDbVisualStyle
  2
Conceptual
 70
     9
177
     3
291
     0
 70
    58
 90
        3
176
     1
 90
        2
176
     1
 90
        0
176
     1
 90
        0
176
     1
 40
-0.6
176
     1
 40
-30.0
176
     1
 62
     7
420
 16777215
176
     1
 90
        2
176
     1
 90
        2
176
     1
 62
     7
176
     1
 62
   257
176
     1
 90
        1
176
     1
 90
        1
176
     1
 40
40.0
176
     1
 90
        8
176
     1
 62
     7
176
     1
 40
1.0
176
     1
 90
        1
176
     1
 90
        6
176
     1
 90
        2
176
     1
 62
     7
176
     1
 90
        3
176
     1
 90
        0
176
     1
 90
        0
176
     1
290
     0
176
     1
 90
        1
176
     1
 40
0.0
176
     1
 90
        0
176
     1
290
     0
176
     1
290
     1
176
     1
290
     1
176
     1
290
     0
176
     1
290
     0
176
     1
290
     0
176
     1
290
     0
176
     1
290
     0
176
     1
290
     0
176
     1
 90
       50
176
     1
 40
0.0
176
     1
 40
1.0
176
     1
 90
        0
176
     1
 62
    18
420
        0
176
     1
 90
       50
176
     1
 90
        3
176
     1
 62
     5
420
      255
176
     1
290
     0
176
     1
 90
       50
176
     1
 90
       50
176
     1
 90
       50
176
     1
290
     0
176
     1
 90
       50
176
     1
 62
   256
176
     0
 40
1.0
176
     0
 90
        2
176
     1
  1
strokes_ogs.tif
176
     1
290
     0
176
     1
 40
1.0
176
     1
 40
1.0
176
     1
  0
VISUALSTYLE
  5
A72
102
{ACAD_REACTORS
330
A67
102
}
330
A67
100
AcDbVisualStyle
  2
Dim
 70
    11
177
     3
291
     1
 70
    58
 90
        2
176
     1
 90
        2
176
     1
 90
        0
176
     1
 90
        0
176
     1
 40
-0.6
176
     1
 40
-30.0
176
     1
 62
     7
420
 16777215
176
     1
 90
        1
176
     1
 90
        4
176
     1
 62
     7
176
     1
 62
   257
176
     1
 90
        1
176
     1
 90
        1
176
     1
 40
1.0
176
     1
 90
        8
176
     1
 62
     7
176
     1
 40
1.0
176
     1
 90
        1
176
     1
 90
        6
176
     1
 90
        2
176
     1
 62
     7
176
     1
 90
        5
176
     1
 90
        0
176
     1
 90
        0
176
     1
290
     0
176
     1
 90
        1
176
     1
 40
-50.0
176
     1
 90
        0
176
     1
290
     0
176
     1
290
     1
176
     1
290
     1
176
     1
290
     0
176
     1
290
     0
176
     1
290
     0
176
     1
290
     0
176
     1
290
     0
176
     1
290
     0
176
     1
 90
       50
176
     1
 40
0.0
176
     1
 40
1.0
176
     1
 90
        0
176
     1
 62
    18
420
        0
176
     1
 90
       50
176
     1
 90
        3
176
     1
 62
     5
420
      255
176
     1
290
     0
176
     1
 90
       50
176
     1
 90
       50
176
     1
 90
       50
176
     1
290
     0
176
     1
 90
       50
176
     1
 62
   256
176
     0
 40
1.0
176
     0
 90
        2
176
     1
  1
strokes_ogs.tif
176
     1
290
     0
176
     1
 40
1.0
176
     1
 40
1.0
176
     1
  0
VISUALSTYLE
  5
A84
102
{ACAD_REACTORS
330
A67
102
}
330
A67
100
AcDbVisualStyle
  2
EdgeColorOff
 70
    22
177
     3
291
     1
 70
    58
 90
        2
176
     0
 90
        2
176
     0
 90
        0
176
     0
 90
        0
176
     0
 40
0.6
176
     0
 40
30.0
176
     0
 62
     7
420
 16777215
176
     0
 90
        1
176
     0
 90
        4
176
     0
 62
     7
176
     0
 62
   257
176
     0
 90
        1
176
     0
 90
        1
176
     0
 40
1.0
176
     0
 90
        8
176
     2
 62
     7
176
     0
 40
1.0
176
     0
 90
        1
176
     0
 90
        6
176
     0
 90
        2
176
     0
 62
     7
176
     0
 90
        5
176
     0
 90
        0
176
     0
 90
        0
176
     0
290
     0
176
     0
 90
        1
176
     0
 40
0.0
176
     0
 90
        0
176
     0
290
     0
176
     0
290
     1
176
     0
290
     1
176
     0
290
     0
176
     0
290
     0
176
     0
290
     0
176
     0
290
     0
176
     0
290
     0
176
     0
290
     0
176
     0
 90
       50
176
     0
 40
0.0
176
     0
 40
1.0
176
     0
 90
        0
176
     0
 62
    18
420
        0
176
     0
 90
       50
176
     0
 90
        3
176
     0
 62
     5
420
      255
176
     0
290
     0
176
     0
 90
       50
176
     0
 90
       50
176
     0
 90
       50
176
     0
290
     0
176
     0
 90
       50
176
     0
 62
   256
176
     0
 40
1.0
176
     0
 90
        2
176
     0
  1
strokes_ogs.tif
176
     0
290
     0
176
     0
 40
1.0
176
     0
 40
1.0
176
     0
  0
VISUALSTYLE
  5
A76
102
{ACAD_REACTORS
330
A67
102
}
330
A67
100
AcDbVisualStyle
  2
Facepattern
 70
    15
177
     3
291
     1
 70
    58
 90
        2
176
     1
 90
        2
176
     1
 90
        0
176
     1
 90
        0
176
     1
 40
-0.6
176
     1
 40
-30.0
176
     1
 62
     7
420
 16777215
176
     1
 90
        1
176
     1
 90
        4
176
     1
 62
     7
176
     1
 62
   257
176
     1
 90
        1
176
     1
 90
        1
176
     1
 40
1.0
176
     1
 90
        8
176
     1
 62
     7
176
     1
 40
1.0
176
     1
 90
        1
176
     1
 90
        6
176
     1
 90
        2
176
     1
 62
     7
176
     1
 90
        5
176
     1
 90
        0
176
     1
 90
        0
176
     1
290
     0
176
     1
 90
        1
176
     1
 40
0.0
176
     1
 90
        0
176
     1
290
     0
176
     1
290
     1
176
     1
290
     1
176
     1
290
     0
176
     1
290
     0
176
     1
290
     0
176
     1
290
     0
176
     1
290
     0
176
     1
290
     0
176
     1
 90
       50
176
     1
 40
0.0
176
     1
 40
1.0
176
     1
 90
        0
176
     1
 62
    18
420
        0
176
     1
 90
       50
176
     1
 90
        3
176
     1
 62
     5
420
      255
176
     1
290
     0
176
     1
 90
       50
176
     1
 90
       50
176
     1
 90
       50
176
     1
290
     0
176
     1
 90
       50
176
     1
 62
   256
176
     0
 40
1.0
176
     0
 90
        2
176
     1
  1
strokes_ogs.tif
176
     1
290
     0
176
     1
 40
1.0
176
     1
 40
1.0
176
     1
  0
VISUALSTYLE
  5
A68
102
{ACAD_REACTORS
330
A67
102
}
330
A67
100
AcDbVisualStyle
  2
Flat
 70
     0
177
     3
291
     1
 70
    58
 90
        2
176
     1
 90
        1
176
     1
 90
        1
176
     1
 90
        2
176
     1
 40
-0.6
176
     1
 40
30.0
176
     1
 62
     7
420
 16777215
176
     1
 90
        0
176
     1
 90
        4
176
     1
 62
     7
176
     1
 62
   257
176
     1
 90
        1
176
     1
 90
        1
176
     1
 40
1.0
176
     1
 90
        8
176
     1
 62
     7
176
     1
 40
1.0
176
     1
 90
        1
176
     1
 90
        6
176
     1
 90
        2
176
     1
 62
     7
176
     1
 90
        5
176
     1
 90
        0
176
     1
 90
        0
176
     1
290
     0
176
     1
 90
       13
176
     1
 40
0.0
176
     1
 90
        0
176
     1
290
     0
176
     1
290
     1
176
     1
290
     1
176
     1
290
     0
176
     1
290
     0
176
     1
290
     0
176
     1
290
     0
176
     1
290
     0
176
     1
290
     0
176
     1
 90
       50
176
     1
 40
0.0
176
     1
 40
1.0
176
     1
 90
        0
176
     1
 62
    18
420
        0
176
     1
 90
       50
176
     1
 90
        3
176
     1
 62
     5
420
      255
176
     1
290
     0
176
     1
 90
       50
176
     1
 90
       50
176
     1
 90
       50
176
     1
290
     0
176
     1
 90
       50
176
     1
 62
   256
176
     0
 40
1.0
176
     0
 90
        2
176
     1
  1
strokes_ogs.tif
176
     1
290
     0
176
     1
 40
1.0
176
     1
 40
1.0
176
     1
  0
VISUALSTYLE
  5
A69
102
{ACAD_REACTORS
330
A67
102
}
330
A67
100
AcDbVisualStyle
  2
FlatWithEdges
 70
     1
177
     3
291
     1
 70
    58
 90
        2
176
     1
 90
        1
176
     1
 90
        1
176
     1
 90
        2
176
     1
 40
-0.6
176
     1
 40
30.0
176
     1
 62
     7
420
 16777215
176
     1
 90
        1
176
     1
 90
        4
176
     1
 62
     7
176
     1
 62
   257
176
     1
 90
        1
176
     1
 90
        1
176
     1
 40
1.0
176
     1
 90
        0
176
     1
 62
   257
176
     1
 40
1.0
176
     1
 90
        1
176
     1
 90
        6
176
     1
 90
        2
176
     1
 62
     7
176
     1
 90
        5
176
     1
 90
        0
176
     1
 90
        0
176
     1
290
     0
176
     1
 90
       13
176
     1
 40
0.0
176
     1
 90
        0
176
     1
290
     0
176
     1
290
     1
176
     1
290
     1
176
     1
290
     0
176
     1
290
     0
176
     1
290
     0
176
     1
290
     0
176
     1
290
     0
176
     1
290
     0
176
     1
 90
       50
176
     1
 40
0.0
176
     1
 40
1.0
176
     1
 90
        0
176
     1
 62
    18
420
        0
176
     1
 90
       50
176
     1
 90
        3
176
     1
 62
     5
420
      255
176
     1
290
     0
176
     1
 90
       50
176
     1
 90
       50
176
     1
 90
       50
176
     1
290
     0
176
     1
 90
       50
176
     1
 62
   256
176
     0
 40
1.0
176
     0
 90
        2
176
     1
  1
strokes_ogs.tif
176
     1
290
     0
176
     1
 40
1.0
176
     1
 40
1.0
176
     1
  0
VISUALSTYLE
  5
A6A
102
{ACAD_REACTORS
330
A67
102
}
330
A67
100
AcDbVisualStyle
  2
Gouraud
 70
     2
177
     3
291
     1
 70
    58
 90
        2
176
     1
 90
        2
176
     1
 90
        1
176
     1
 90
        2
176
     1
 40
-0.6
176
     1
 40
30.0
176
     1
 62
     7
420
 16777215
176
     1
 90
        0
176
     1
 90
        4
176
     1
 62
     7
176
     1
 62
   257
176
     1
 90
        1
176
     1
 90
        1
176
     1
 40
1.0
176
     1
 90
        0
176
     1
 62
     7
176
     1
 40
1.0
176
     1
 90
        1
176
     1
 90
        6
176
     1
 90
        2
176
     1
 62
     7
176
     1
 90
        5
176
     1
 90
        0
176
     1
 90
        0
176
     1
290
     0
176
     1
 90
       13
176
     1
 40
0.0
176
     1
 90
        0
176
     1
290
     0
176
     1
290
     1
176
     1
290
     1
176
     1
290
     0
176
     1
290
     0
176
     1
290
     0
176
     1
290
     0
176
     1
290
     0
176
     1
290
     0
176
     1
 90
       50
176
     1
 40
0.0
176
     1
 40
1.0
176
     1
 90
        0
176
     1
 62
    18
420
        0
176
     1
 90
       50
176
     1
 90
        3
176
     1
 62
     5
420
      255
176
     1
290
     0
176
     1
 90
       50
176
     1
 90
       50
176
     1
 90
       50
176
     1
290
     0
176
     1
 90
       50
176
     1
 62
   256
176
     0
 40
1.0
176
     0
 90
        2
176
     1
  1
strokes_ogs.tif
176
     1
290
     0
176
     1
 40
1.0
176
     1
 40
1.0
176
     1
  0
VISUALSTYLE
  5
A6B
102
{ACAD_REACTORS
330
A67
102
}
330
A67
100
AcDbVisualStyle
  2
GouraudWithEdges
 70
     3
177
     3
291
     1
 70
    58
 90
        2
176
     1
 90
        2
176
     1
 90
        1
176
     1
 90
        2
176
     1
 40
-0.6
176
     1
 40
30.0
176
     1
 62
     7
420
 16777215
176
     1
 90
        1
176
     1
 90
        4
176
     1
 62
     7
176
     1
 62
   257
176
     1
 90
        1
176
     1
 90
        1
176
     1
 40
1.0
176
     1
 90
        0
176
     1
 62
   257
176
     1
 40
1.0
176
     1
 90
        1
176
     1
 90
        6
176
     1
 90
        2
176
     1
 62
     7
176
     1
 90
        5
176
     1
 90
        0
176
     1
 90
        0
176
     1
290
     0
176
     1
 90
       13
176
     1
 40
0.0
176
     1
 90
        0
176
     1
290
     0
176
     1
290
     1
176
     1
290
     1
176
     1
290
     0
176
     1
290
     0
176
     1
290
     0
176
     1
290
     0
176
     1
290
     0
176
     1
290
     0
176
     1
 90
       50
176
     1
 40
0.0
176
     1
 40
1.0
176
     1
 90
        0
176
     1
 62
    18
420
        0
176
     1
 90
       50
176
     1
 90
        3
176
     1
 62
     5
420
      255
176
     1
290
     0
176
     1
 90
       50
176
     1
 90
       50
176
     1
 90
       50
176
     1
290
     0
176
     1
 90
       50
176
     1
 62
   256
176
     0
 40
1.0
176
     0
 90
        2
176
     1
  1
strokes_ogs.tif
176
     1
290
     0
176
     1
 40
1.0
176
     1
 40
1.0
176
     1
  0
VISUALSTYLE
  5
A81
102
{ACAD_REACTORS
330
A67
102
}
330
A67
100
AcDbVisualStyle
  2
Hidden
 70
     6
177
     3
291
     0
 70
    58
 90
        1
176
     1
 90
        2
176
     1
 90
        2
176
     1
 90
        0
176
     1
 40
0.6
176
     1
 40
30.0
176
     1
 62
     7
420
 16777215
176
     1
 90
        2
176
     1
 90
        2
176
     1
 62
     7
176
     1
 62
   257
176
     1
 90
        2
176
     1
 90
        1
176
     1
 40
40.0
176
     1
 90
        0
176
     1
 62
   257
176
     1
 40
1.0
176
     1
 90
        1
176
     1
 90
        6
176
     1
 90
        2
176
     1
 62
     7
176
     1
 90
        3
176
     1
 90
        0
176
     1
 90
        0
176
     1
290
     0
176
     1
 90
        1
176
     1
 40
0.0
176
     1
 90
        0
176
     1
290
     0
176
     1
290
     1
176
     1
290
     1
176
     1
290
     0
176
     1
290
     0
176
     1
290
     0
176
     1
290
     0
176
     1
290
     0
176
     1
290
     0
176
     1
 90
       50
176
     1
 40
0.0
176
     1
 40
1.0
176
     1
 90
        0
176
     1
 62
    18
420
        0
176
     1
 90
       50
176
     1
 90
        3
176
     1
 62
     5
420
      255
176
     1
290
     0
176
     1
 90
       50
176
     1
 90
       50
176
     1
 90
       50
176
     1
290
     0
176
     1
 90
       50
176
     1
 62
   256
176
     0
 40
1.0
176
     0
 90
        2
176
     1
  1
strokes_ogs.tif
176
     1
290
     0
176
     1
 40
1.0
176
     1
 40
1.0
176
     1
  0
VISUALSTYLE
  5
A82
102
{ACAD_REACTORS
330
A67
102
}
330
A67
100
AcDbVisualStyle
  2
JitterOff
 70
    20
177
     3
291
     1
 70
    58
 90
        2
176
     0
 90
        2
176
     0
 90
        0
176
     0
 90
        0
176
     0
 40
0.6
176
     0
 40
30.0
176
     0
 62
     7
420
 16777215
176
     0
 90
        1
176
     0
 90
        4
176
     0
 62
     7
176
     0
 62
   257
176
     0
 90
        1
176
     0
 90
        1
176
     0
 40
1.0
176
     0
 90
       10
176
     2
 62
     7
176
     0
 40
1.0
176
     0
 90
        1
176
     0
 90
        6
176
     0
 90
        2
176
     0
 62
     7
176
     0
 90
        5
176
     0
 90
        0
176
     0
 90
        0
176
     0
290
     0
176
     0
 90
        1
176
     0
 40
0.0
176
     0
 90
        0
176
     0
290
     0
176
     0
290
     1
176
     0
290
     1
176
     0
290
     0
176
     0
290
     0
176
     0
290
     0
176
     0
290
     0
176
     0
290
     0
176
     0
290
     0
176
     0
 90
       50
176
     0
 40
0.0
176
     0
 40
1.0
176
     0
 90
        0
176
     0
 62
    18
420
        0
176
     0
 90
       50
176
     0
 90
        3
176
     0
 62
     5
420
      255
176
     0
290
     0
176
     0
 90
       50
176
     0
 90
       50
176
     0
 90
       50
176
     0
290
     0
176
     0
 90
       50
176
     0
 62
   256
176
     0
 40
1.0
176
     0
 90
        2
176
     0
  1
strokes_ogs.tif
176
     0
290
     0
176
     0
 40
1.0
176
     0
 40
1.0
176
     0
  0
VISUALSTYLE
  5
A75
102
{ACAD_REACTORS
330
A67
102
}
330
A67
100
AcDbVisualStyle
  2
Linepattern
 70
    14
177
     3
291
     1
 70
    58
 90
        2
176
     1
 90
        2
176
     1
 90
        0
176
     1
 90
        0
176
     1
 40
-0.6
176
     1
 40
-30.0
176
     1
 62
     7
420
 16777215
176
     1
 90
        1
176
     1
 90
        4
176
     1
 62
     7
176
     1
 62
   257
176
     1
 90
        7
176
     1
 90
        7
176
     1
 40
1.0
176
     1
 90
        8
176
     1
 62
     7
176
     1
 40
1.0
176
     1
 90
        1
176
     1
 90
        6
176
     1
 90
        2
176
     1
 62
     7
176
     1
 90
        5
176
     1
 90
        0
176
     1
 90
        0
176
     1
290
     0
176
     1
 90
        1
176
     1
 40
0.0
176
     1
 90
        0
176
     1
290
     0
176
     1
290
     1
176
     1
290
     1
176
     1
290
     0
176
     1
290
     0
176
     1
290
     0
176
     1
290
     0
176
     1
290
     0
176
     1
290
     0
176
     1
 90
       50
176
     1
 40
0.0
176
     1
 40
1.0
176
     1
 90
        0
176
     1
 62
    18
420
        0
176
     1
 90
       50
176
     1
 90
        3
176
     1
 62
     5
420
      255
176
     1
290
     0
176
     1
 90
       50
176
     1
 90
       50
176
     1
 90
       50
176
     1
290
     0
176
     1
 90
       50
176
     1
 62
   256
176
     0
 40
1.0
176
     0
 90
        2
176
     1
  1
strokes_ogs.tif
176
     1
290
     0
176
     1
 40
1.0
176
     1
 40
1.0
176
     1
  0
VISUALSTYLE
  5
A83
102
{ACAD_REACTORS
330
A67
102
}
330
A67
100
AcDbVisualStyle
  2
OverhangOff
 70
    21
177
     3
291
     1
 70
    58
 90
        2
176
     0
 90
        2
176
     0
 90
        0
176
     0
 90
        0
176
     0
 40
0.6
176
     0
 40
30.0
176
     0
 62
     7
420
 16777215
176
     0
 90
        1
176
     0
 90
        4
176
     0
 62
     7
176
     0
 62
   257
176
     0
 90
        1
176
     0
 90
        1
176
     0
 40
1.0
176
     0
 90
        9
176
     2
 62
     7
176
     0
 40
1.0
176
     0
 90
        1
176
     0
 90
        6
176
     0
 90
        2
176
     0
 62
     7
176
     0
 90
        5
176
     0
 90
        0
176
     0
 90
        0
176
     0
290
     0
176
     0
 90
        1
176
     0
 40
0.0
176
     0
 90
        0
176
     0
290
     0
176
     0
290
     1
176
     0
290
     1
176
     0
290
     0
176
     0
290
     0
176
     0
290
     0
176
     0
290
     0
176
     0
290
     0
176
     0
290
     0
176
     0
 90
       50
176
     0
 40
0.0
176
     0
 40
1.0
176
     0
 90
        0
176
     0
 62
    18
420
        0
176
     0
 90
       50
176
     0
 90
        3
176
     0
 62
     5
420
      255
176
     0
290
     0
176
     0
 90
       50
176
     0
 90
       50
176
     0
 90
       50
176
     0
290
     0
176
     0
 90
       50
176
     0
 62
   256
176
     0
 40
1.0
176
     0
 90
        2
176
     0
  1
strokes_ogs.tif
176
     0
290
     0
176
     0
 40
1.0
176
     0
 40
1.0
176
     0
  0
VISUALSTYLE
  5
A70
102
{ACAD_REACTORS
330
A67
102
}
330
A67
100
AcDbVisualStyle
  2
Realistic
 70
     8
177
     3
291
     0
 70
    58
 90
        2
176
     1
 90
        2
176
     1
 90
        0
176
     1
 90
        0
176
     1
 40
-0.6
176
     1
 40
-30.0
176
     1
 62
     7
420
 16777215
176
     1
 90
        1
176
     1
 90
        0
176
     1
 62
     7
176
     1
 62
   257
176
     1
 90
        1
176
     1
 90
        1
176
     1
 40
1.0
176
     1
 90
        8
176
     1
 62
     8
420
  7895160
176
     1
 40
1.0
176
     1
 90
        1
176
     1
 90
        6
176
     1
 90
        2
176
     1
 62
     7
176
     1
 90
        5
176
     1
 90
        0
176
     1
 90
        0
176
     1
290
     0
176
     1
 90
       13
176
     1
 40
0.0
176
     1
 90
        0
176
     1
290
     0
176
     1
290
     1
176
     1
290
     1
176
     1
290
     0
176
     1
290
     0
176
     1
290
     0
176
     1
290
     0
176
     1
290
     0
176
     1
290
     0
176
     1
 90
       50
176
     1
 40
0.0
176
     1
 40
1.0
176
     1
 90
        0
176
     1
 62
    18
420
        0
176
     1
 90
       50
176
     1
 90
        3
176
     1
 62
     5
420
      255
176
     1
290
     0
176
     1
 90
       50
176
     1
 90
       50
176
     1
 90
       50
176
     1
290
     0
176
     1
 90
       50
176
     1
 62
   256
176
     0
 40
1.0
176
     0
 90
        2
176
     1
  1
strokes_ogs.tif
176
     1
290
     0
176
     1
 40
1.0
176
     1
 40
1.0
176
     1
  0
VISUALSTYLE
  5
A89
102
{ACAD_REACTORS
330
A67
102
}
330
A67
100
AcDbVisualStyle
  2
Shaded
 70
    27
177
     3
291
     0
 70
    58
 90
        2
176
     1
 90
        2
176
     1
 90
        1
176
     1
 90
        2
176
     1
 40
0.6
176
     1
 40
30.0
176
     1
 62
     7
420
 16777215
176
     1
 90
        0
176
     1
 90
        4
176
     1
 62
     7
176
     1
 62
   257
176
     1
 90
        1
176
     1
 90
        1
176
     1
 40
1.0
176
     1
 90
        8
176
     1
 62
   257
176
     1
 40
1.0
176
     1
 90
        1
176
     1
 90
        6
176
     1
 90
        2
176
     1
 62
     8
420
  7895160
176
     1
 90
        3
176
     1
 90
        0
176
     1
 90
        0
176
     1
290
     0
176
     1
 90
        5
176
     1
 40
0.0
176
     1
 90
        0
176
     1
290
     0
176
     1
290
     1
176
     1
290
     1
176
     1
290
     0
176
     1
290
     0
176
     1
290
     0
176
     1
290
     0
176
     1
290
     0
176
     1
290
     0
176
     1
 90
       50
176
     1
 40
0.0
176
     1
 40
1.0
176
     1
 90
        0
176
     1
 62
    18
420
        0
176
     1
 90
       50
176
     1
 90
        3
176
     1
 62
     5
420
      255
176
     1
290
     0
176
     1
 90
       50
176
     1
 90
       50
176
     1
 90
       50
176
     1
290
     0
176
     1
 90
       50
176
     1
 62
   256
176
     0
 40
1.0
176
     0
 90
        2
176
     1
  1
strokes_ogs.tif
176
     1
290
     0
176
     1
 40
1.0
176
     1
 40
1.0
176
     1
  0
VISUALSTYLE
  5
A88
102
{ACAD_REACTORS
330
A67
102
}
330
A67
100
AcDbVisualStyle
  2
Shaded with edges
 70
    26
177
     3
291
     0
 70
    58
 90
        2
176
     1
 90
        2
176
     1
 90
        1
176
     1
 90
        2
176
     1
 40
0.6
176
     1
 40
30.0
176
     1
 62
     7
420
 16777215
176
     1
 90
        1
176
     1
 90
       10
176
     1
 62
     7
176
     1
 62
   257
176
     1
 90
        2
176
     1
 90
        1
176
     1
 40
1.0
176
     1
 90
        8
176
     1
 62
   257
176
     1
 40
1.0
176
     1
 90
        1
176
     1
 90
        6
176
     1
 90
        2
176
     1
 62
     7
176
     1
 90
        3
176
     1
 90
        0
176
     1
 90
        0
176
     1
290
     0
176
     1
 90
        5
176
     1
 40
0.0
176
     1
 90
        0
176
     1
290
     0
176
     1
290
     1
176
     1
290
     1
176
     1
290
     0
176
     1
290
     0
176
     1
290
     0
176
     1
290
     0
176
     1
290
     0
176
     1
290
     0
176
     1
 90
       50
176
     1
 40
0.0
176
     1
 40
1.0
176
     1
 90
        0
176
     1
 62
    18
420
        0
176
     1
 90
       50
176
     1
 90
        3
176
     1
 62
     5
420
      255
176
     1
290
     0
176
     1
 90
       50
176
     1
 90
       50
176
     1
 90
       50
176
     1
290
     0
176
     1
 90
       50
176
     1
 62
   256
176
     0
 40
1.0
176
     0
 90
        2
176
     1
  1
strokes_ogs.tif
176
     1
290
     0
176
     1
 40
1.0
176
     1
 40
1.0
176
     1
  0
VISUALSTYLE
  5
A85
102
{ACAD_REACTORS
330
A67
102
}
330
A67
100
AcDbVisualStyle
  2
Shades of Gray
 70
    23
177
     3
291
     0
 70
    58
 90
        2
176
     1
 90
        2
176
     1
 90
        3
176
     1
 90
        0
176
     1
 40
0.6
176
     1
 40
30.0
176
     1
 62
     7
420
 16777215
176
     1
 90
        2
176
     1
 90
        2
176
     1
 62
     7
176
     1
 62
     7
176
     1
 90
        1
176
     1
 90
        1
176
     1
 40
40.0
176
     1
 90
        8
176
     1
 62
     7
176
     1
 40
1.0
176
     1
 90
        1
176
     1
 90
        6
176
     1
 90
        2
176
     1
 62
     7
176
     1
 90
        3
176
     1
 90
        0
176
     1
 90
        0
176
     1
290
     0
176
     1
 90
        1
176
     1
 40
0.0
176
     1
 90
        0
176
     1
290
     0
176
     1
290
     1
176
     1
290
     1
176
     1
290
     0
176
     1
290
     0
176
     1
290
     0
176
     1
290
     0
176
     1
290
     0
176
     1
290
     0
176
     1
 90
       50
176
     1
 40
0.0
176
     1
 40
1.0
176
     1
 90
        0
176
     1
 62
    18
420
        0
176
     1
 90
       50
176
     1
 90
        3
176
     1
 62
     5
420
      255
176
     1
290
     0
176
     1
 90
       50
176
     1
 90
       50
176
     1
 90
       50
176
     1
290
     0
176
     1
 90
       50
176
     1
 62
   256
176
     0
 40
1.0
176
     0
 90
        2
176
     1
  1
strokes_ogs.tif
176
     1
290
     0
176
     1
 40
1.0
176
     1
 40
1.0
176
     1
  0
VISUALSTYLE
  5
A86
102
{ACAD_REACTORS
330
A67
102
}
330
A67
100
AcDbVisualStyle
  2
Sketchy
 70
    24
177
     3
291
     0
 70
    58
 90
        1
176
     1
 90
        2
176
     1
 90
        2
176
     1
 90
        0
176
     1
 40
0.6
176
     1
 40
30.0
176
     1
 62
     7
420
 16777215
176
     1
 90
        2
176
     1
 90
        2
176
     1
 62
     7
176
     1
 62
     7
176
     1
 90
        1
176
     1
 90
        1
176
     1
 40
40.0
176
     1
 90
       11
176
     1
 62
     7
176
     1
 40
1.0
176
     1
 90
        1
176
     1
 90
        6
176
     1
 90
        2
176
     1
 62
     7
176
     1
 90
        6
176
     1
 90
        0
176
     1
 90
        0
176
     1
290
     0
176
     1
 90
        1
176
     1
 40
0.0
176
     1
 90
        0
176
     1
290
     0
176
     1
290
     1
176
     1
290
     1
176
     1
290
     0
176
     1
290
     0
176
     1
290
     0
176
     1
290
     0
176
     1
290
     0
176
     1
290
     0
176
     1
 90
       50
176
     1
 40
0.0
176
     1
 40
1.0
176
     1
 90
        0
176
     1
 62
    18
420
        0
176
     1
 90
       50
176
     1
 90
        3
176
     1
 62
     5
420
      255
176
     1
290
     0
176
     1
 90
       50
176
     1
 90
       50
176
     1
 90
       50
176
     1
290
     0
176
     1
 90
       50
176
     1
 62
   256
176
     0
 40
1.0
176
     0
 90
        2
176
     1
  1
strokes_ogs.tif
176
     1
290
     0
176
     1
 40
1.0
176
     1
 40
1.0
176
     1
  0
VISUALSTYLE
  5
A74
102
{ACAD_REACTORS
330
A67
102
}
330
A67
100
AcDbVisualStyle
  2
Thicken
 70
    13
177
     3
291
     1
 70
    58
 90
        2
176
     1
 90
        2
176
     1
 90
        0
176
     1
 90
        0
176
     1
 40
-0.6
176
     1
 40
-30.0
176
     1
 62
     7
420
 16777215
176
     1
 90
        1
176
     1
 90
        4
176
     1
 62
     7
176
     1
 62
   257
176
     1
 90
        1
176
     1
 90
        1
176
     1
 40
1.0
176
     1
 90
       12
176
     1
 62
     7
176
     1
 40
1.0
176
     1
 90
        1
176
     1
 90
        6
176
     1
 90
        2
176
     1
 62
     7
176
     1
 90
        5
176
     1
 90
        0
176
     1
 90
        0
176
     1
290
     0
176
     1
 90
        1
176
     1
 40
0.0
176
     1
 90
        0
176
     1
290
     0
176
     1
290
     1
176
     1
290
     1
176
     1
290
     0
176
     1
290
     0
176
     1
290
     0
176
     1
290
     0
176
     1
290
     0
176
     1
290
     0
176
     1
 90
       50
176
     1
 40
0.0
176
     1
 40
1.0
176
     1
 90
        0
176
     1
 62
    18
420
        0
176
     1
 90
       50
176
     1
 90
        3
176
     1
 62
     5
420
      255
176
     1
290
     0
176
     1
 90
       50
176
     1
 90
       50
176
     1
 90
       50
176
     1
290
     0
176
     1
 90
       50
176
     1
 62
   256
176
     0
 40
1.0
176
     0
 90
        2
176
     1
  1
strokes_ogs.tif
176
     1
290
     0
176
     1
 40
1.0
176
     1
 40
1.0
176
     1
  0
VISUALSTYLE
  5
A80
102
{ACAD_REACTORS
330
A67
102
}
330
A67
100
AcDbVisualStyle
  2
Wireframe
 70
     5
177
     3
291
     0
 70
    58
 90
        0
176
     1
 90
        2
176
     1
 90
        0
176
     1
 90
        0
176
     1
 40
0.6
176
     1
 40
30.0
176
     1
 62
     7
420
 16777215
176
     1
 90
        1
176
     1
 90
        4
176
     1
 62
     7
176
     1
 62
   257
176
     1
 90
        1
176
     1
 90
        1
176
     1
 40
1.0
176
     1
 90
        0
176
     1
 62
   257
176
     1
 40
1.0
176
     1
 90
        1
176
     1
 90
        6
176
     1
 90
        2
176
     1
 62
     7
176
     1
 90
        3
176
     1
 90
        0
176
     1
 90
        0
176
     1
290
     0
176
     1
 90
        1
176
     1
 40
0.0
176
     1
 90
        0
176
     1
290
     0
176
     1
290
     1
176
     1
290
     1
176
     1
290
     0
176
     1
290
     0
176
     1
290
     0
176
     1
290
     0
176
     1
290
     0
176
     1
290
     0
176
     1
 90
       50
176
     1
 40
0.0
176
     1
 40
1.0
176
     1
 90
        0
176
     1
 62
    18
420
        0
176
     1
 90
       50
176
     1
 90
        3
176
     1
 62
     5
420
      255
176
     1
290
     0
176
     1
 90
       50
176
     1
 90
       50
176
     1
 90
       50
176
     1
290
     0
176
     1
 90
       50
176
     1
 62
   256
176
     0
 40
1.0
176
     0
 90
        2
176
     1
  1
strokes_ogs.tif
176
     1
290
     0
176
     1
 40
1.0
176
     1
 40
1.0
176
     1
  0
VISUALSTYLE
  5
A87
102
{ACAD_REACTORS
330
A67
102
}
330
A67
100
AcDbVisualStyle
  2
X-Ray
 70
    25
177
     3
291
     0
 70
    58
 90
        2
176
     1
 90
        2
176
     1
 90
        1
176
     1
 90
        1
176
     1
 40
0.5
176
     1
 40
30.0
176
     1
 62
     7
420
 16777215
176
     1
 90
        1
176
     1
 90
        0
176
     1
 62
     7
176
     1
 62
   257
176
     1
 90
        1
176
     1
 90
        1
176
     1
 40
1.0
176
     1
 90
        8
176
     1
 62
     7
176
     1
 40
1.0
176
     1
 90
        1
176
     1
 90
        6
176
     1
 90
        2
176
     1
 62
     7
176
     1
 90
        3
176
     1
 90
        0
176
     1
 90
        0
176
     1
290
     0
176
     1
 90
       13
176
     1
 40
0.0
176
     1
 90
        0
176
     1
290
     0
176
     1
290
     1
176
     1
290
     1
176
     1
290
     0
176
     1
290
     0
176
     1
290
     0
176
     1
290
     0
176
     1
290
     0
176
     1
290
     0
176
     1
 90
       50
176
     1
 40
0.0
176
     1
 40
1.0
176
     1
 90
        0
176
     1
 62
    18
420
        0
176
     1
 90
       50
176
     1
 90
        3
176
     1
 62
     5
420
      255
176
     1
290
     0
176
     1
 90
       50
176
     1
 90
       50
176
     1
 90
       50
176
     1
290
     0
176
     1
 90
       50
176
     1
 62
   256
176
     0
 40
1.0
176
     0
 90
        2
176
     1
  1
strokes_ogs.tif
176
     1
290
     0
176
     1
 40
1.0
176
     1
 40
1.0
176
     1
  0
DICTIONARYVAR
  5
A7D
102
{ACAD_REACTORS
330
A7C
102
}
330
A7C
100
DictionaryVariables
280
     0
  1
1:1
  0
DICTIONARYVAR
  5
A8F
102
{ACAD_REACTORS
330
A7C
102
}
330
A7C
100
DictionaryVariables
280
     0
  1
Standard
  0
DICTIONARYVAR
  5
A7E
102
{ACAD_REACTORS
330
A7C
102
}
330
A7C
100
DictionaryVariables
280
     0
  1
Standard
  0
XRECORD
  5
AA9
102
{ACAD_REACTORS
330
AA6
102
}
330
AA6
100
AcDbXrecord
280
     1
 91
     1023
301

290
     0
302
ビューポート
330
E
 90
        9
 62
     7
370
    -3
331
14
  1
Color_7
330
25
 90
        8
 62
     1
370
    -3
331
23
  1
Color_1
330
26
 90
        8
 62
     6
370
    -3
331
14
  1
Color_6
330
27
 90
        8
 62
     2
370
    -3
331
24
  1
Color_2
330
28
 90
        8
 62
     3
370
    -3
331
14
  1
Color_3
330
29
 90
        8
 62
     5
370
    -3
331
22
  1
Color_5
330
2A
 90
        8
 62
     4
370
    -3
331
14
  1
Color_4
330
2B
 90
        8
 62
     7
370
    -3
331
14
  1
Color_7
330
5C
 90
        8
 62
     4
370
    -3
331
14
  1
Color_4
330
1BE
 90
        0
 62
     7
370
    -3
331
14
  1
Color_7
330
1BF
 90
        8
 62
     2
370
    -3
331
14
  1
Color_2
330
1C0
 90
        8
 62
     6
370
    -3
331
14
  1
Color_6
330
6F2
 90
        8
 62
     2
370
    -3
331
14
  1
Color_2
  0
DICTIONARY
  5
AC3
330
A79
100
AcDbDictionary
280
     1
281
     1
  3
ACAD_ROUNDTRIP_2008_TABLESTYLE_CELLSTYLEMAP
360
AC4
  0
CELLSTYLEMAP
  5
AC4
102
{ACAD_REACTORS
330
AC3
102
}
330
AC3
100
AcDbCellStyleMap
 90
        3
300
CELLSTYLE
  1
TABLEFORMAT_BEGIN
 90
        5
170
     1
 91
        0
 92
        0
 62
   257
 93
        1
300
CONTENTFORMAT
  1
CONTENTFORMAT_BEGIN
 90
        0
 91
        0
 92
        4
 93
        0
300

 40
0.0
140
1.0
 94
        5
 62
     0
340
F
144
6.0
309
CONTENTFORMAT_END
171
     1
301
MARGIN
  1
CELLMARGIN_BEGIN
 40
1.5
 40
1.5
 40
1.5
 40
1.5
 40
1.5
 40
1.5
309
CELLMARGIN_END
 94
        6
 95
        1
302
GRIDFORMAT
  1
GRIDFORMAT_BEGIN
 90
        0
 91
        1
 62
     0
 92
       -2
340
12
 93
        0
 40
0.045
309
GRIDFORMAT_END
 95
        2
302
GRIDFORMAT
  1
GRIDFORMAT_BEGIN
 90
        0
 91
        1
 62
     0
 92
       -2
340
12
 93
        0
 40
0.045
309
GRIDFORMAT_END
 95
        4
302
GRIDFORMAT
  1
GRIDFORMAT_BEGIN
 90
        0
 91
        1
 62
     0
 92
       -2
340
12
 93
        0
 40
0.045
309
GRIDFORMAT_END
 95
        8
302
GRIDFORMAT
  1
GRIDFORMAT_BEGIN
 90
        0
 91
        1
 62
     0
 92
       -2
340
12
 93
        0
 40
0.045
309
GRIDFORMAT_END
 95
       16
302
GRIDFORMAT
  1
GRIDFORMAT_BEGIN
 90
        0
 91
        1
 62
     0
 92
       -2
340
12
 93
        0
 40
0.045
309
GRIDFORMAT_END
 95
       32
302
GRIDFORMAT
  1
GRIDFORMAT_BEGIN
 90
        0
 91
        1
 62
     0
 92
       -2
340
12
 93
        0
 40
0.045
309
GRIDFORMAT_END
309
TABLEFORMAT_END
  1
CELLSTYLE_BEGIN
 90
        1
 91
        1
300
_TITLE
309
CELLSTYLE_END
300
CELLSTYLE
  1
TABLEFORMAT_BEGIN
 90
        5
170
     1
 91
        0
 92
        0
 62
   257
 93
        1
300
CONTENTFORMAT
  1
CONTENTFORMAT_BEGIN
 90
        0
 91
        0
 92
        4
 93
        0
300

 40
0.0
140
1.0
 94
        5
 62
     0
340
F
144
4.5
309
CONTENTFORMAT_END
171
     1
301
MARGIN
  1
CELLMARGIN_BEGIN
 40
1.5
 40
1.5
 40
1.5
 40
1.5
 40
1.5
 40
1.5
309
CELLMARGIN_END
 94
        6
 95
        1
302
GRIDFORMAT
  1
GRIDFORMAT_BEGIN
 90
        0
 91
        1
 62
     0
 92
       -2
340
12
 93
        0
 40
0.045
309
GRIDFORMAT_END
 95
        2
302
GRIDFORMAT
  1
GRIDFORMAT_BEGIN
 90
        0
 91
        1
 62
     0
 92
       -2
340
12
 93
        0
 40
0.045
309
GRIDFORMAT_END
 95
        4
302
GRIDFORMAT
  1
GRIDFORMAT_BEGIN
 90
        0
 91
        1
 62
     0
 92
       -2
340
12
 93
        0
 40
0.045
309
GRIDFORMAT_END
 95
        8
302
GRIDFORMAT
  1
GRIDFORMAT_BEGIN
 90
        0
 91
        1
 62
     0
 92
       -2
340
12
 93
        0
 40
0.045
309
GRIDFORMAT_END
 95
       16
302
GRIDFORMAT
  1
GRIDFORMAT_BEGIN
 90
        0
 91
        1
 62
     0
 92
       -2
340
12
 93
        0
 40
0.045
309
GRIDFORMAT_END
 95
       32
302
GRIDFORMAT
  1
GRIDFORMAT_BEGIN
 90
        0
 91
        1
 62
     0
 92
       -2
340
12
 93
        0
 40
0.045
309
GRIDFORMAT_END
309
TABLEFORMAT_END
  1
CELLSTYLE_BEGIN
 90
        2
 91
        1
300
_HEADER
309
CELLSTYLE_END
300
CELLSTYLE
  1
TABLEFORMAT_BEGIN
 90
        5
170
     1
 91
        0
 92
        0
 62
   257
 93
        1
300
CONTENTFORMAT
  1
CONTENTFORMAT_BEGIN
 90
        0
 91
        0
 92
        4
 93
        0
300

 40
0.0
140
1.0
 94
        2
 62
     0
340
F
144
4.5
309
CONTENTFORMAT_END
171
     1
301
MARGIN
  1
CELLMARGIN_BEGIN
 40
1.5
 40
1.5
 40
1.5
 40
1.5
 40
1.5
 40
1.5
309
CELLMARGIN_END
 94
        6
 95
        1
302
GRIDFORMAT
  1
GRIDFORMAT_BEGIN
 90
        0
 91
        1
 62
     0
 92
       -2
340
12
 93
        0
 40
0.045
309
GRIDFORMAT_END
 95
        2
302
GRIDFORMAT
  1
GRIDFORMAT_BEGIN
 90
        0
 91
        1
 62
     0
 92
       -2
340
12
 93
        0
 40
0.045
309
GRIDFORMAT_END
 95
        4
302
GRIDFORMAT
  1
GRIDFORMAT_BEGIN
 90
        0
 91
        1
 62
     0
 92
       -2
340
12
 93
        0
 40
0.045
309
GRIDFORMAT_END
 95
        8
302
GRIDFORMAT
  1
GRIDFORMAT_BEGIN
 90
        0
 91
        1
 62
     0
 92
       -2
340
12
 93
        0
 40
0.045
309
GRIDFORMAT_END
 95
       16
302
GRIDFORMAT
  1
GRIDFORMAT_BEGIN
 90
        0
 91
        1
 62
     0
 92
       -2
340
12
 93
        0
 40
0.045
309
GRIDFORMAT_END
 95
       32
302
GRIDFORMAT
  1
GRIDFORMAT_BEGIN
 90
        0
 91
        1
 62
     0
 92
       -2
340
12
 93
        0
 40
0.045
309
GRIDFORMAT_END
309
TABLEFORMAT_END
  1
CELLSTYLE_BEGIN
 90
        3
 91
        2
300
_DATA
309
CELLSTYLE_END
  0
ENDSEC
  0
EOF
